osu file format v14

[General]
AudioFilename: audio.mp3
AudioLeadIn: 0
PreviewTime: 54962
Countdown: 0
SampleSet: Soft
StackLeniency: 0.4
Mode: 0
LetterboxInBreaks: 0
WidescreenStoryboard: 0

[Editor]
Bookmarks: 55177,84212,108212,116462,129748,171534
DistanceSpacing: 1.4
BeatDivisor: 4
GridSize: 8
TimelineZoom: 1.1

[Metadata]
Title:Hope
TitleUnicode:Hope
Artist:SymaG
ArtistUnicode:SymaG
Creator:Testo
Version:Tears
Source:
Tags:Yuyoyuppe Meola Hatsune Miku Mirash vocaloid cover utaite 初音ミク ゆよゆっぺ
BeatmapID:1553084
BeatmapSetID:735814

[Difficulty]
HPDrainRate:6
CircleSize:4
OverallDifficulty:8
ApproachRate:9
SliderMultiplier:1.8
SliderTickRate:1

[Events]
//Background and Video events
0,0,"MokrayaPizda.jpg",0,0
//Break Periods
2,15734,27791
2,128876,141362
2,152877,154648
//Storyboard Layer 0 (Background)
//Storyboard Layer 1 (Fail)
//Storyboard Layer 2 (Pass)
//Storyboard Layer 3 (Foreground)
//Storyboard Sound Samples

[TimingPoints]
1820,428.571428571429,4,2,1,60,1,0
28391,-125,4,2,1,45,0,0
42962,-125,4,2,1,60,0,0
55820,-166.666666666667,4,2,1,15,0,0
56677,-83.3333333333333,4,2,1,60,0,1
59570,-83.3333333333333,4,2,1,10,0,1
59677,-83.3333333333333,4,2,1,60,0,1
59998,-83.3333333333333,4,2,1,10,0,1
60105,-83.3333333333333,4,2,1,60,0,1
66855,-83.3333333333333,4,2,1,10,0,1
66962,-83.3333333333333,4,2,1,60,0,1
73284,-83.3333333333333,4,2,1,10,0,1
73391,-83.3333333333333,4,2,1,60,0,1
73712,-83.3333333333333,4,2,1,10,0,1
73820,-83.3333333333333,4,2,1,60,0,1
80570,-83.3333333333333,4,2,1,10,0,1
80677,-83.3333333333333,4,2,1,60,0,1
84105,-100,4,2,1,60,0,0
97820,428.571428571429,3,2,1,35,1,0
97820,-333.333333333333,4,2,1,35,0,0
102962,-250,4,2,1,45,0,0
106391,-200,4,2,1,50,0,0
107677,-588.235294117647,4,2,1,70,0,0
108105,-111.111111111111,4,2,1,70,0,0
108427,-55.5555555555556,4,2,1,70,0,0
109391,-111.111111111111,4,2,1,70,0,0
109712,-55.5555555555556,4,2,1,70,0,0
110677,-111.111111111111,4,2,1,70,0,0
110998,-55.5555555555556,4,2,1,70,0,0
111962,-111.111111111111,4,2,1,70,0,0
112284,-55.5555555555556,4,2,1,70,0,0
113248,-111.111111111111,4,2,1,70,0,0
113570,-55.5555555555555,4,2,1,70,0,0
114534,-111.111111111111,4,2,1,70,0,0
114855,-55.5555555555556,4,2,1,70,0,0
115820,-111.111111111111,4,2,1,70,0,0
116141,-55.5555555555556,4,2,1,70,0,0
118820,428.571428571429,3,2,1,70,1,0
118820,-111.111111111111,4,2,1,70,0,0
119141,-55.5555555555556,4,2,1,70,0,0
120105,-111.111111111111,4,2,1,70,0,0
120427,-55.5555555555556,4,2,1,70,0,0
121391,-111.111111111111,4,2,1,70,0,0
121712,-55.5555555555556,4,2,1,70,0,0
122677,-111.111111111111,4,2,1,70,0,0
122998,-55.5555555555556,4,2,1,70,0,0
123962,-111.111111111111,4,2,1,70,0,0
124284,-55.5555555555556,4,2,1,70,0,0
125248,-111.111111111111,4,2,1,70,0,0
125570,-55.5555555555556,4,2,1,70,0,0
126534,-111.111111111111,4,2,1,70,0,0
126855,-55.5555555555556,4,2,1,70,0,0
128677,428.571428571429,4,2,1,60,1,0
142391,-125,4,2,1,45,0,0
155248,-166.666666666667,4,2,1,15,0,0
156105,-83.3333333333334,4,2,1,60,0,1
158998,-83.3333333333334,4,2,1,10,0,1
159105,-83.3333333333334,4,2,1,60,0,1
159427,-83.3333333333334,4,2,1,10,0,1
159534,-83.3333333333334,4,2,1,60,0,1
166284,-83.3333333333334,4,2,1,10,0,1
166391,-83.3333333333334,4,2,1,60,0,1
172712,-83.3333333333334,4,2,1,10,0,1
172820,-83.3333333333334,4,2,1,60,0,1
173141,-83.3333333333334,4,2,1,10,0,1
173248,-83.3333333333334,4,2,1,60,0,1
179998,-83.3333333333334,4,2,1,10,0,1
180105,-83.3333333333334,4,2,1,60,0,1
183534,-100,4,2,1,60,0,0

[Colours]
Combo1 : 0,92,185
Combo2 : 0,128,64
Combo3 : 179,179,0
Combo4 : 196,0,132
Combo5 : 107,0,215
Combo6 : 179,0,36

[HitObjects]
104,128,1820,6,0,P|175:106|263:114,1,135,4|0,3:0|3:0,0:0:0:0:
168,185,2248,2,0,P|134:168|97:88,1,90,4|0,0:0|3:0,3:3:0:0:
321,130,2677,5,8,0:0:0:0:
321,130,2998,1,0,3:0:0:0:
324,136,3105,2,0,P|318:181|320:226,1,90,4|0,0:0|3:0,0:0:0:0:
391,297,3427,2,0,P|338:268|241:315,1,135,2|0,3:0|3:0,0:0:0:0:
63,275,3962,5,8,0:0:0:0:
188,326,4177,1,0,3:0:0:0:
170,193,4391,5,8,3:2:0:0:
166,169,4462,1,0,3:0:0:0:
162,145,4533,1,0,3:0:0:0:
158,121,4605,1,0,3:0:0:0:
154,98,4676,1,0,3:0:0:0:
150,74,4748,1,0,3:0:0:0:
147,50,4819,1,12,3:2:0:0:
174,217,5034,1,0,0:0:0:0:
245,264,5248,6,0,P|185:252|101:295,1,135,4|0,3:0|3:0,0:0:0:0:
31,279,5677,2,0,P|83:288|132:267,1,90,4|0,0:0|3:0,0:0:0:0:
271,177,6105,5,8,0:0:0:0:
271,177,6427,1,0,3:0:0:0:
278,181,6534,2,0,L|386:170,1,90,4|0,0:0|3:0,0:0:0:0:
403,89,6855,1,0,3:0:0:0:
403,89,6962,2,0,L|295:99,1,90,6|0,0:0|3:0,0:0:0:0:
459,159,7391,5,8,0:0:0:0:
344,13,7605,1,0,3:0:0:0:
276,186,7820,6,0,L|211:192,1,45,8|0,0:0|0:0,0:0:0:0:
126,118,8034,2,0,L|171:123,1,45,8|0,3:2|3:0,0:0:0:0:
350,264,8248,5,8,3:2:0:0:
273,271,8355,1,8,3:2:0:0:
197,279,8462,1,8,3:2:0:0:
121,287,8569,1,8,3:2:0:0:
121,287,8677,6,0,P|185:306|229:375,1,135,4|0,3:0|3:0,0:0:0:0:
62,219,9105,2,0,P|75:180|67:118,1,90,4|0,0:0|3:0,0:0:0:0:
260,171,9534,5,8,0:0:0:0:
260,171,9855,1,0,3:0:0:0:
268,172,9962,2,0,P|318:158|373:163,1,90,4|0,0:0|3:0,0:0:0:0:
192,221,10284,2,0,P|153:208|53:222,1,135,2|0,3:0|3:0,0:0:0:0:
197,66,10820,5,8,0:0:0:0:
268,270,11034,1,0,3:0:0:0:
61,218,11248,1,8,3:2:0:0:
80,203,11319,1,0,3:0:0:0:
101,192,11390,1,0,3:0:0:0:
124,185,11462,1,0,3:0:0:0:
147,180,11533,1,0,3:0:0:0:
171,179,11605,1,0,3:0:0:0:
195,182,11676,1,12,3:2:0:0:
374,315,11891,1,0,3:0:0:0:
469,256,12105,6,0,P|461:213|481:115,1,135,4|0,3:0|3:0,0:0:0:0:
376,2,12534,2,0,P|392:43|392:88,1,90,4|0,0:0|3:0,0:0:0:0:
268,270,12962,5,8,0:0:0:0:
268,270,13284,1,0,3:0:0:0:
259,273,13391,2,0,P|216:254|157:256,1,90,4|0,0:0|3:0,0:0:0:0:
71,366,13712,1,0,3:0:0:0:
71,366,13820,2,0,P|115:363|175:312,1,90,4|0,0:0|0:0,0:0:0:0:
359,276,14248,5,8,0:0:0:0:
272,88,14462,1,0,3:0:0:0:
273,314,14677,6,0,P|267:292|267:269,1,45,8|0,0:0|0:0,0:0:0:0:
366,80,14891,2,0,P|365:105|356:134,1,45,8|0,3:2|3:0,3:3:0:0:
52,156,15105,5,8,3:2:0:0:
68,78,15212,1,8,3:2:0:0:
131,30,15319,1,8,3:2:0:0:
210,36,15426,1,8,3:2:0:0:
272,88,15534,1,12,3:0:0:0:
198,165,28391,5,6,0:0:0:0:
299,234,28712,1,0,0:0:0:0:
299,234,28820,1,0,0:0:0:0:
375,183,29034,1,4,0:0:0:0:
443,241,29248,6,0,P|426:196|452:89,1,144,0|2,3:0|0:0,0:0:0:0:
383,39,29891,1,0,3:0:0:0:
383,39,29998,1,0,3:0:0:0:
383,39,30105,2,0,P|340:42|312:34,1,72,8|0,3:0|0:0,0:0:0:0:
228,11,30534,5,0,0:0:0:0:
145,113,30748,2,0,L|215:98,1,72,0|0,3:0|3:0,0:0:0:0:
368,168,31177,1,0,0:0:0:0:
285,149,31391,1,2,0:0:0:0:
441,123,31605,5,2,3:0:0:0:
441,123,31712,1,0,3:0:0:0:
441,123,31820,2,0,P|431:161|451:286,1,144,8|0,3:0|0:0,0:0:0:0:
487,336,32462,1,0,3:0:0:0:
345,312,32677,6,0,B|270:337|281:286|180:321,1,144,0|2,3:0|0:0,0:0:0:0:
117,325,33320,1,0,0:0:0:0:
51,190,33534,2,0,P|57:226|57:262,1,72,8|0,3:0|0:0,0:0:0:0:
6,117,33962,5,0,0:0:0:0:
100,126,34177,1,0,3:0:0:0:
151,56,34391,2,0,P|190:60|233:50,1,72,0|0,3:0|0:0,0:0:0:0:
346,219,34820,5,2,0:0:0:0:
326,117,35034,1,2,3:0:0:0:
326,117,35141,1,2,3:0:0:0:
326,117,35248,1,8,3:0:0:0:
346,219,35462,1,2,0:0:0:0:
288,305,35677,2,0,P|241:294|189:298,1,72,2|0,0:0|3:0,0:0:0:0:
158,356,36105,6,0,P|176:324|147:220,1,144,0|2,3:0|0:0,0:0:0:0:
14,170,36748,1,0,3:0:0:0:
14,170,36855,1,0,3:0:0:0:
14,170,36962,2,0,P|50:172|97:158,1,72,8|0,3:0|0:0,0:0:0:0:
81,297,37391,5,0,0:0:0:0:
152,225,37605,2,0,P|179:201|202:157,1,72,0|0,3:0|3:0,0:0:0:0:
212,8,38034,1,0,0:0:0:0:
233,91,38248,1,2,0:0:0:0:
300,37,38462,5,0,3:0:0:0:
300,37,38570,1,0,3:0:0:0:
300,37,38677,1,8,3:0:0:0:
375,151,38891,2,0,P|345:130|311:118,1,72,0|0,0:0|0:0,0:0:0:0:
177,154,39320,5,0,3:0:0:0:
133,228,39534,2,0,P|142:165|110:61,1,144,0|2,3:0|0:0,0:0:0:0:
55,286,40177,1,0,3:0:0:0:
55,286,40284,1,0,3:0:0:0:
55,286,40391,2,0,P|48:316|57:356,1,72,8|0,3:0|0:0,0:0:0:0:
240,248,40820,5,0,0:0:0:0:
203,145,41034,1,0,3:0:0:0:
133,228,41248,1,0,3:0:0:0:
310,165,41462,5,2,0:0:0:0:
96,129,41677,1,2,0:0:0:0:
165,333,41891,1,0,3:0:0:0:
200,329,41998,1,0,3:0:0:0:
236,326,42105,1,8,3:0:0:0:
416,311,42320,5,0,3:0:0:0:
310,165,42534,1,10,3:0:0:0:
131,136,42748,1,8,3:2:0:0:
453,191,42962,6,0,P|453:154|443:101,1,72,4|0,3:0|0:0,0:0:0:0:
447,119,43284,2,0,P|447:101|452:83,1,36,0|0,3:0|0:0,0:0:0:0:
452,83,43605,5,0,3:0:0:0:
223,39,43820,2,0,P|230:81|229:135,1,72,8|0,3:0|0:0,0:0:0:0:
200,224,44248,1,0,0:0:0:0:
278,260,44462,2,0,P|279:224|285:188,1,72,0|0,3:0|3:0,0:0:0:0:
452,90,44891,5,2,0:0:0:0:
452,90,44998,1,0,3:0:0:0:
361,149,45212,1,2,0:0:0:0:
361,149,45320,1,0,3:0:0:0:
418,276,45534,2,0,B|336:292|364:244|261:262,1,144,8|0,3:0|3:0,0:0:0:0:
142,337,46177,1,4,0:0:0:0:
188,264,46391,6,0,P|192:217|187:184,1,72,0|0,3:0|0:0,0:0:0:0:
188,192,46712,2,0,P|191:161|195:145,1,36,0|0,3:0|0:0,0:0:0:0:
191,156,47034,5,0,3:0:0:0:
363,65,47248,2,0,P|364:103|374:145,1,72,8|0,3:0|0:0,0:0:0:0:
443,281,47677,1,0,0:0:0:0:
434,195,47891,1,0,3:0:0:0:
365,246,48105,6,0,P|320:234|243:248,1,108,0|0,3:0|3:0,0:0:0:0:
177,280,48534,2,0,P|228:276|261:256,1,72,0|0,0:0|3:0,0:0:0:0:
434,195,48962,6,0,P|351:157|266:153,1,144,8|0,3:0|3:0,0:0:0:0:
299,150,49605,1,4,0:0:0:0:
152,228,49820,6,0,L|72:218,1,72,0|0,3:0|0:0,0:0:0:0:
80,219,50141,2,0,L|22:226,1,36,0|0,3:0|0:0,0:0:0:0:
44,223,50462,5,0,3:0:0:0:
223,374,50677,2,0,L|213:294,1,72,8|0,3:0|0:0,0:0:0:0:
238,100,51105,1,0,0:0:0:0:
304,155,51320,2,0,L|295:226,1,72,0|0,3:0|3:0,0:0:0:0:
383,115,51748,5,2,0:0:0:0:
383,115,51855,1,0,3:0:0:0:
238,100,52070,1,2,0:0:0:0:
238,100,52177,1,0,3:0:0:0:
410,254,52391,2,0,P|402:183|382:114,1,144,8|0,3:0|3:0,0:0:0:0:
348,315,53034,1,4,0:0:0:0:
267,285,53248,6,0,P|228:281|176:298,1,72,0|0,3:0|0:0,0:0:0:0:
196,288,53570,2,0,P|181:290|141:284,1,36,0|0,3:0|0:0,0:0:0:0:
160,288,53891,5,0,3:0:0:0:
36,176,54105,2,0,P|30:130|36:91,1,72,8|0,3:0|0:0,0:0:0:0:
230,19,54534,1,2,0:0:0:0:
430,98,54748,1,0,3:0:0:0:
189,271,55820,6,2,L|270:281,1,80.9999975280763,2|2,0:2|0:2,0:0:0:0:
179,190,56248,6,2,L|189:271,1,80.9999975280763,0|0,0:0|0:0,0:0:0:0:
232,376,56677,6,0,B|222:293|222:293|195:256|195:256|183:157,1,215.999993408203,4|4,3:0|0:0,0:0:0:0:
366,62,57320,1,0,3:0:0:0:
301,101,57427,1,0,3:0:0:0:
228,83,57534,1,12,3:2:0:0:
0,177,57855,1,0,3:0:0:0:
0,177,57962,2,0,P|44:185|115:160,1,107.999996704102,4|0,0:0|3:0,0:0:0:0:
375,285,58391,6,0,P|326:264|275:153,1,161.999995056153,4|0,3:0|3:0,0:0:0:0:
301,101,58820,1,4,0:0:0:0:
442,49,59034,1,0,3:0:0:0:
394,371,59248,6,0,B|307:376|325:340|224:347,1,161.999995056153,12|0,3:2|0:0,0:0:0:0:
274,172,59677,2,0,B|216:237|203:198|136:275,1,161.999995056153,12|0,3:2|0:0,0:0:0:0:
92,364,60105,6,0,P|109:318|60:140,1,215.999993408203,4|4,3:0|0:0,0:0:0:0:
274,172,60748,1,0,3:0:0:0:
339,207,60855,1,0,3:0:0:0:
411,190,60962,2,0,P|411:129|396:83,1,107.999996704102,12|0,3:2|0:0,0:0:0:0:
334,215,61284,1,0,3:0:0:0:
329,223,61391,2,0,P|327:276|343:328,1,107.999996704102,4|0,0:0|3:0,0:0:0:0:
105,380,61820,6,0,P|121:316|101:201,1,161.999995056153,4|0,3:0|3:0,0:0:0:0:
67,159,62248,1,4,0:0:0:0:
195,80,62462,1,0,3:0:0:0:
366,287,62677,6,0,P|359:233|376:173,1,107.999996704102,12|0,3:2|3:0,0:0:0:0:
371,181,62998,1,0,3:0:0:0:
428,132,63106,5,12,3:2:0:0:
368,177,63213,1,8,3:2:0:0:
294,182,63320,1,8,3:2:0:0:
229,146,63427,1,8,3:2:0:0:
195,80,63534,6,0,B|181:41|122:43|122:43|95:69|81:121|133:182,1,215.999993408203,4|4,3:0|0:0,0:0:0:0:
205,348,64177,1,0,3:0:0:0:
211,274,64284,1,0,3:0:0:0:
175,209,64391,1,12,3:2:0:0:
429,60,64712,1,0,3:0:0:0:
429,60,64820,2,0,P|416:104|426:177,1,107.999996704102,4|0,0:0|3:0,0:0:0:0:
429,342,65248,6,0,P|372:314|250:330,1,161.999995056153,4|0,3:0|3:0,0:0:0:0:
205,348,65677,1,4,0:0:0:0:
72,276,65891,1,0,3:0:0:0:
255,131,66105,6,0,P|276:181|265:263,1,107.999996704102,12|0,3:2|3:0,0:0:0:0:
145,238,66427,1,0,3:0:0:0:
145,238,66534,2,0,P|181:171|275:128,1,161.999995056153,12|0,3:2|0:0,0:0:0:0:
421,94,66962,6,0,B|376:104|309:95|325:39|273:34|179:49,1,215.999993408203,4|4,3:0|0:0,0:0:0:0:
60,274,67606,1,0,3:0:0:0:
132,260,67713,1,0,3:0:0:0:
183,206,67820,2,0,P|183:166|161:97,1,107.999996704102,12|0,3:2|0:0,0:0:0:0:
248,257,68141,1,0,3:0:0:0:
248,257,68248,2,0,P|230:307|228:361,1,107.999996704102,4|0,0:0|3:0,0:0:0:0:
459,143,68677,6,0,P|410:131|336:127,1,107.999996704102,4|0,3:0|3:0,0:0:0:0:
305,203,68998,2,0,P|322:140|265:27,1,161.999995056153,8|0,3:0|3:0,0:0:0:0:
145,255,69534,5,8,3:2:0:0:
196,268,69641,1,0,3:0:0:0:
248,257,69748,1,0,3:0:0:0:
94,268,69962,5,8,3:2:0:0:
164,294,70069,1,8,3:2:0:0:
239,293,70176,1,8,3:2:0:0:
308,264,70283,1,8,3:2:0:0:
361,210,70391,6,0,P|281:137|141:120,1,215.999993408203,4|4,3:0|0:0,0:0:0:0:
412,356,71034,1,0,3:0:0:0:
413,280,71141,1,0,3:0:0:0:
443,212,71248,1,12,3:2:0:0:
182,118,71570,1,0,3:0:0:0:
182,118,71677,2,0,P|190:166|176:235,1,107.999996704102,4|0,0:0|3:0,0:0:0:0:
359,20,72105,6,0,P|349:55|403:201,1,161.999995056153,4|0,3:0|3:0,0:0:0:0:
443,212,72534,1,4,0:0:0:0:
306,276,72748,1,0,3:0:0:0:
182,118,72962,6,0,B|139:108|102:130|102:130|85:125|85:125|71:135|71:135|53:148|8:145,1,161.999995056153,12|0,3:2|0:0,0:0:0:0:
260,198,73391,2,0,B|223:220|212:262|212:262|197:270|197:270|194:288|194:288|190:310|156:340,1,161.999995056153,12|0,3:2|0:0,0:0:0:0:
75,376,73820,6,0,P|163:327|294:383,1,215.999993408203,4|4,3:0|0:0,0:0:0:0:
498,184,74462,1,0,3:0:0:0:
426,205,74569,1,0,3:0:0:0:
380,263,74677,2,0,P|327:251|275:263,1,107.999996704102,12|0,3:2|0:0,0:0:0:0:
103,227,74998,1,0,3:0:0:0:
103,227,75105,2,0,P|154:239|222:220,1,107.999996704102,4|0,0:0|3:0,0:0:0:0:
427,50,75534,6,0,P|407:107|436:221,1,161.999995056153,4|0,3:0|3:0,0:0:0:0:
474,264,75962,1,4,0:0:0:0:
283,121,76177,1,0,3:0:0:0:
321,337,76391,6,0,P|324:275|296:203,1,107.999996704102,12|0,3:2|3:0,0:0:0:0:
312,232,76712,1,0,3:0:0:0:
232,218,76820,5,12,3:2:0:0:
305,225,76927,1,8,3:2:0:0:
365,181,77034,1,8,3:2:0:0:
381,109,77141,1,8,3:2:0:0:
346,44,77248,6,0,B|303:26|293:80|325:126|398:119|431:93|470:53,1,215.999993408203,4|4,3:0|0:0,0:0:0:0:
305,225,77891,1,0,3:0:0:0:
232,218,77998,1,0,3:0:0:0:
160,241,78105,1,12,3:2:0:0:
383,375,78427,1,0,3:0:0:0:
383,375,78534,2,0,P|379:311|365:246,1,107.999996704102,4|0,0:0|3:0,0:0:0:0:
330,65,78962,6,0,P|326:129|296:247,1,161.999995056153,4|0,3:0|3:0,0:0:0:0:
274,294,79391,1,4,0:0:0:0:
412,187,79605,1,0,3:0:0:0:
121,113,79820,6,0,P|108:175|122:238,1,107.999996704102,12|0,3:2|3:0,0:0:0:0:
121,328,80141,1,0,3:0:0:0:
121,328,80248,2,0,B|129:293|132:268|117:227|117:227|102:190|113:141,1,161.999995056153,12|0,3:2|0:0,0:0:0:0:
178,46,80677,6,0,B|163:89|165:157|222:147|222:199|197:291,1,215.999993408203,4|4,3:0|0:0,0:0:0:0:
396,362,81320,1,0,3:0:0:0:
381,288,81427,1,0,3:0:0:0:
412,219,81534,2,0,P|405:168|370:103,1,107.999996704102,12|0,3:2|0:0,0:0:0:0:
373,291,81855,1,0,3:0:0:0:
365,294,81962,2,0,P|323:262|253:241,1,107.999996704102,4|0,0:0|3:0,0:0:0:0:
205,144,82284,5,0,3:0:0:0:
129,126,82391,2,0,P|78:132|13:168,1,107.999996704102,4|0,3:0|0:0,0:0:0:0:
37,265,82712,1,0,3:0:0:0:
105,229,82820,2,0,P|124:181|126:107,1,107.999996704102,4|0,3:0|0:0,0:0:0:0:
15,339,83248,5,0,1:2:0:0:
353,244,83570,1,0,1:2:0:0:
102,0,83891,1,0,1:2:0:0:
63,157,84105,6,0,P|118:135|201:142,1,135,4|0,3:0|3:0,0:0:0:0:
267,220,84534,2,0,P|322:242|386:237,1,90,4|0,0:0|3:0,0:0:0:0:
15,339,84962,5,8,0:0:0:0:
15,339,85284,1,0,3:0:0:0:
18,333,85391,2,0,L|11:226,1,90,4|0,0:0|0:0,0:0:0:0:
63,157,85712,2,0,B|93:197|93:197|102:316,1,135,2|0,3:0|3:0,0:0:0:0:
302,355,86248,5,8,0:0:0:0:
185,347,86462,1,0,3:0:0:0:
250,249,86677,5,8,3:2:0:0:
246,225,86748,1,0,3:0:0:0:
243,201,86819,1,0,3:0:0:0:
240,177,86891,1,0,3:0:0:0:
237,153,86962,1,0,3:0:0:0:
233,130,87034,1,0,3:0:0:0:
230,106,87105,1,12,3:2:0:0:
254,273,87320,1,0,3:0:0:0:
386,361,87534,6,0,P|388:298|424:195,1,135,4|0,3:0|3:0,0:0:0:0:
466,134,87962,2,0,P|423:148|379:143,1,90,4|0,0:0|3:0,0:0:0:0:
128,27,88391,5,8,0:0:0:0:
128,27,88712,1,0,3:0:0:0:
124,32,88820,2,0,P|118:81|131:156,1,90,4|0,0:0|0:0,0:0:0:0:
80,201,89141,1,0,3:0:0:0:
80,201,89248,2,0,P|110:239|172:283,1,90,4|0,0:0|3:0,0:0:0:0:
400,218,89677,5,8,0:0:0:0:
213,178,89891,1,0,3:0:0:0:
353,337,90105,6,0,P|350:302|347:285,1,45,8|0,3:2|0:0,0:0:0:0:
213,178,90320,2,0,P|186:155|171:145,1,45,8|0,3:2|3:0,0:0:0:0:
80,348,90534,5,8,3:2:0:0:
154,362,90641,1,8,3:2:0:0:
168,288,90748,1,8,3:2:0:0:
94,274,90855,1,8,3:2:0:0:
94,274,90962,6,0,P|93:219|67:141,1,135,4|0,3:0|3:0,0:0:0:0:
161,4,91391,2,0,P|142:45|141:90,1,90,4|0,0:0|3:0,0:0:0:0:
244,271,91820,5,8,0:0:0:0:
244,271,92141,1,0,3:0:0:0:
249,275,92248,2,0,P|294:279|351:263,1,90,4|0,0:0|0:0,0:0:0:0:
173,323,92570,2,0,P|120:319|41:357,1,135,2|0,3:0|3:0,0:0:0:0:
132,79,93105,5,8,0:0:0:0:
167,237,93320,1,0,3:0:0:0:
287,128,93534,5,8,3:2:0:0:
263,132,93605,1,0,3:0:0:0:
239,137,93676,1,0,3:0:0:0:
216,142,93748,1,0,3:0:0:0:
192,147,93819,1,0,3:0:0:0:
169,152,93891,1,0,3:0:0:0:
145,156,93962,1,12,3:2:0:0:
311,124,94177,1,0,3:0:0:0:
382,177,94391,6,0,P|362:123|391:36,1,135,4|0,3:0|3:0,0:0:0:0:
451,126,94820,2,0,P|427:158|340:170,1,90,4|0,0:0|3:0,0:0:0:0:
145,156,95248,5,8,0:0:0:0:
145,156,95570,1,0,3:0:0:0:
141,161,95677,2,0,P|142:209|132:266,1,90,4|0,0:0|0:0,0:0:0:0:
200,82,95998,1,0,3:0:0:0:
200,82,96105,2,0,P|234:115|267:162,1,90,4|0,0:0|3:0,0:0:0:0:
303,338,96534,5,8,0:0:0:0:
136,263,96748,1,0,3:0:0:0:
404,147,96962,6,0,P|405:179|398:217,1,45,8|0,3:2|0:0,0:0:0:0:
209,361,97177,2,0,P|207:338|208:316,1,45,8|0,3:2|3:0,3:3:0:0:
422,51,97391,5,8,3:2:0:0:
436,126,97498,1,8,3:2:0:0:
436,202,97605,1,8,3:2:0:0:
423,277,97712,1,8,3:2:0:0:
397,349,97820,6,0,L|356:344,2,40.4999987640381,0|0|2,0:0|0:0|0:0,0:0:0:0:
299,282,98677,2,0,L|272:285,1,26.9999991760254,0|0,0:0|0:0,0:0:0:0:
363,228,99105,6,0,P|367:208|367:188,2,40.4999987640381,0|0|2,0:0|0:0|0:0,0:0:0:0:
311,95,99962,2,0,P|311:108|314:122,1,26.9999991760254,0|0,0:0|0:0,0:0:0:0:
240,49,100391,6,0,L|200:42,2,40.4999987640381,0|0|2,0:0|0:0|0:0,0:0:0:0:
132,91,101248,2,0,L|96:96,1,26.9999991760254,0|0,0:0|0:0,0:0:0:0:
66,169,101677,6,0,L|19:175,2,40.4999987640381,0|0|2,0:0|0:0|0:0,0:0:0:0:
139,209,102534,2,0,L|165:212,1,26.9999991760254,0|0,0:0|0:0,0:0:0:0:
292,266,102962,6,0,P|257:269|231:283,2,54,0|0|2,0:0|0:0|0:0,0:0:0:0:
384,315,103820,6,0,P|409:317|426:312,1,36,0|0,0:0|0:0,0:0:0:0:
477,228,104248,2,0,P|475:201|481:174,2,54,0|0|2,0:0|0:0|0:0,0:0:0:0:
358,120,105105,6,0,L|394:116,1,36,0|0,0:0|0:0,0:0:0:0:
269,176,105534,2,0,L|211:169,2,54,0|0|2,0:0|0:0|0:0,0:0:0:0:
341,278,106391,6,0,P|337:300|337:327,1,45,0|0,0:0|0:0,0:0:0:0:
214,358,106820,2,0,P|213:335|202:290,1,67.5,0|0,0:0|0:0,0:0:0:0:
179,264,107248,6,0,L|183:223,1,22.5,2|0,0:0|0:0,0:0:0:0:
200,219,107462,2,0,L|204:178,1,22.5,2|0,0:0|0:0,0:0:0:0:
221,174,107677,6,2,L|223:145,1,22.9500001400757,0|0,0:0|0:0,0:0:0:0:
451,98,108105,6,0,P|416:106|350:96,1,80.9999975280763,12|0,3:0|0:0,0:0:0:0:
470,101,108427,2,0,P|399:115|247:27,1,242.999992584229,4|2,3:0|3:0,0:0:0:0:
121,76,108855,5,0,3:0:0:0:
157,148,108962,2,0,P|166:189|160:255,1,80.9999975280763,8|0,3:2|0:0,0:0:0:0:
287,336,109177,2,0,P|246:323|192:285,1,80.9999975280763,4|0,3:2|0:0,0:0:0:0:
64,361,109391,6,0,P|95:332|155:304,1,80.9999975280763,12|0,3:0|0:0,0:0:0:0:
68,371,109712,2,0,P|115:332|336:382,1,242.999992584229,4|2,3:0|3:0,0:0:0:0:
485,343,110141,5,0,3:0:0:0:
444,274,110248,2,0,P|452:229|469:196,1,80.9999975280763,8|0,3:2|0:0,0:0:0:0:
259,242,110462,2,0,P|296:214|331:203,1,80.9999975280763,4|0,3:2|0:0,0:0:0:0:
94,87,110677,6,0,P|139:94|172:111,1,80.9999975280763,12|0,3:0|0:0,0:0:0:0:
87,96,110998,2,0,P|132:103|260:254,1,242.999992584229,4|2,3:0|3:0,0:0:0:0:
68,371,111427,5,0,3:0:0:0:
31,298,111534,2,0,P|39:263|33:208,1,80.9999975280763,8|0,3:2|0:0,0:0:0:0:
180,79,111748,2,0,P|206:103|256:125,1,80.9999975280763,4|0,3:2|0:0,0:0:0:0:
366,301,111962,6,0,P|331:311|287:344,1,80.9999975280763,12|0,3:0|0:0,0:0:0:0:
376,311,112284,2,0,P|341:321|212:205,1,161.999995056153,4|0,3:0|0:0,0:0:0:0:
400,160,112605,2,0,P|412:195|410:250,1,80.9999975280763,4|0,3:2|3:0,0:0:0:0:
208,199,112820,5,12,3:2:0:0:
210,145,112891,1,0,3:0:0:0:
234,97,112962,1,0,3:0:0:0:
275,62,113034,1,0,3:0:0:0:
326,47,113105,1,0,3:0:0:0:
379,53,113177,1,0,3:0:0:0:
421,77,113248,6,0,P|463:78|516:51,1,80.9999975280763,12|0,3:0|0:0,0:0:0:0:
417,90,113570,2,0,P|326:62|222:167,1,242.999992584229,4|2,3:0|3:0,0:0:0:0:
184,292,113998,5,0,3:0:0:0:
169,211,114105,2,0,P|129:203|88:203,1,80.9999975280763,8|0,3:2|0:0,0:0:0:0:
264,284,114320,2,0,P|224:291|183:291,1,80.9999975280763,4|0,3:2|0:0,0:0:0:0:
389,176,114534,6,0,P|351:167|308:168,1,80.9999975280763,12|0,3:0|0:0,0:0:0:0:
399,164,114855,2,0,P|350:157|165:213,1,242.999992584229,4|2,3:0|3:0,0:0:0:0:
72,366,115284,5,0,3:0:0:0:
88,286,115391,2,0,P|85:246|74:193,1,80.9999975280763,8|0,3:2|0:0,0:0:0:0:
37,10,115605,2,0,P|29:49|26:90,1,80.9999975280763,4|0,3:2|0:0,0:0:0:0:
99,282,115820,6,0,P|96:242|85:189,1,80.9999975280763,12|0,3:0|0:0,0:0:0:0:
88,286,116141,2,0,P|71:181|13:52,1,242.999992584229,4|2,3:0|3:0,0:0:0:0:
249,99,116570,5,0,3:0:0:0:
237,178,116677,2,0,P|248:230|264:260,1,80.9999975280763,8|0,3:2|0:0,0:0:0:0:
326,67,116891,1,2,3:0:0:0:
217,22,117105,5,4,1:0:0:0:
361,202,117391,1,0,1:0:0:0:
133,236,117677,1,0,1:0:0:0:
387,45,117962,5,4,1:0:0:0:
261,316,118248,1,0,1:0:0:0:
89,71,118534,1,0,1:0:0:0:
89,71,118820,6,0,P|131:77|146:132,1,80.9999975280763,12|0,3:0|0:0,0:0:0:0:
85,60,119141,2,0,P|135:68|67:171,1,242.999992584229,4|2,3:0|3:0,0:0:0:0:
109,318,119570,5,0,3:0:0:0:
186,293,119677,2,0,P|218:293|260:316,1,80.9999975280763,8|0,3:2|0:0,0:0:0:0:
400,204,119891,2,0,P|365:224|325:226,1,80.9999975280763,4|0,3:2|0:0,0:0:0:0:
173,177,120105,6,0,P|205:176|247:153,1,80.9999975280763,12|0,3:0|0:0,0:0:0:0:
164,194,120427,2,0,P|223:187|302:18,1,242.999992584229,4|2,3:0|3:0,0:0:0:0:
400,204,120855,5,0,3:0:0:0:
418,282,120962,2,0,P|409:315|411:374,1,80.9999975280763,8|0,3:2|0:0,0:0:0:0:
325,226,121177,2,0,P|295:242|254:286,1,80.9999975280763,4|0,3:2|0:0,0:0:0:0:
305,79,121391,6,0,P|272:69|213:72,1,80.9999975280763,12|0,3:0|0:0,0:0:0:0:
323,70,121712,2,0,P|253:94|103:23,1,242.999992584229,4|2,3:0|3:0,0:0:0:0:
98,189,122141,5,0,3:0:0:0:
177,172,122248,2,0,P|177:216|169:259,1,80.9999975280763,8|0,3:2|0:0,0:0:0:0:
389,115,122462,2,0,P|350:93|317:64,1,80.9999975280763,4|0,3:2|0:0,0:0:0:0:
332,327,122677,6,0,P|370:305|411:290,1,80.9999975280763,12|0,3:0|0:0,0:0:0:0:
324,349,122998,2,0,P|366:321|488:303,1,161.999995056153,4|0,3:0|0:0,0:0:0:0:
246,326,123320,2,0,P|209:324|145:294,1,80.9999975280763,4|0,3:2|0:0,0:0:0:0:
260,23,123534,5,12,3:2:0:0:
311,36,123605,1,0,3:0:0:0:
353,69,123676,1,0,3:0:0:0:
379,117,123748,1,0,3:0:0:0:
383,170,123819,1,0,3:0:0:0:
366,221,123891,1,0,3:0:0:0:
330,261,123962,6,0,P|277:257|242:219,1,80.9999975280763,12|0,3:0|0:0,0:0:0:0:
316,287,124284,2,0,P|378:257|483:308,1,161.999995056153,4|0,3:0|0:0,0:0:0:0:
243,318,124605,5,2,3:0:0:0:
166,297,124712,1,0,3:0:0:0:
93,328,124820,2,0,P|58:338|9:331,1,80.9999975280763,8|0,3:2|0:0,0:0:0:0:
198,221,125034,2,0,P|233:211|282:218,1,80.9999975280763,4|0,3:2|0:0,0:0:0:0:
12,133,125248,6,0,L|26:229,1,80.9999975280763,12|0,3:0|0:0,0:0:0:0:
19,115,125570,2,0,B|35:218|35:218|78:237|78:237|94:338,1,242.999992584229,4|2,3:0|3:0,0:0:0:0:
272,185,125998,5,0,3:0:0:0:
192,172,126105,2,0,L|111:160,1,80.9999975280763,8|0,3:2|0:0,0:0:0:0:
320,251,126320,2,0,L|400:239,1,80.9999975280763,4|0,3:2|0:0,0:0:0:0:
304,28,126534,6,0,P|296:57|297:111,1,80.9999975280763,12|0,3:0|0:0,0:0:0:0:
322,7,126855,2,0,P|324:64|184:171,1,242.999992584229,4|2,3:0|3:0,0:0:0:0:
34,250,127284,1,0,3:0:0:0:
61,328,127391,6,0,P|103:305|169:297,1,80.9999975280763,8|0,3:2|0:0,0:0:0:0:
320,251,127605,2,0,P|365:264|418:305,1,80.9999975280763,4|0,3:2|0:0,0:0:0:0:
250,373,127820,5,12,3:2:0:0:
230,322,127891,1,0,3:0:0:0:
221,269,127962,1,0,3:0:0:0:
223,215,128034,1,0,3:0:0:0:
235,162,128105,1,0,3:0:0:0:
256,113,128177,1,0,3:0:0:0:
291,72,128248,5,12,3:2:0:0:
285,125,128319,1,2,3:0:0:0:
254,169,128390,1,2,3:0:0:0:
207,192,128462,1,2,3:0:0:0:
153,190,128533,1,2,3:0:0:0:
108,163,128605,1,2,3:0:0:0:
81,116,128676,1,6,3:0:0:0:
148,126,141962,5,4,0:0:0:0:
148,126,142391,6,0,L|244:114,1,72,2|0,3:0|0:0,0:0:0:0:
224,116,142712,1,0,3:0:0:0:
224,116,143034,5,0,3:0:0:0:
373,101,143248,1,8,3:0:0:0:
373,101,143677,5,0,0:0:0:0:
377,109,143891,2,0,L|374:189,1,72,0|0,3:0|3:0,0:0:0:0:
370,267,144320,1,0,0:0:0:0:
370,267,144427,1,0,3:0:0:0:
370,267,144534,1,2,0:0:0:0:
308,327,144748,1,0,3:0:0:0:
456,268,144962,1,8,3:0:0:0:
456,268,145391,2,0,L|461:228,3,36,0|0|0|0,0:0|0:0|0:0|0:0,0:0:0:0:
431,286,145820,6,0,P|401:280|330:294,1,72,2|0,3:0|0:0,0:0:0:0:
355,286,146141,1,0,3:0:0:0:
355,286,146462,5,0,3:0:0:0:
223,335,146677,1,8,3:0:0:0:
223,335,147105,1,0,0:0:0:0:
216,326,147320,2,0,L|224:242,1,72,0|0,3:0|3:0,0:0:0:0:
234,148,147748,1,0,0:0:0:0:
234,148,147855,1,0,3:0:0:0:
234,148,147962,1,2,0:0:0:0:
308,100,148177,1,0,3:0:0:0:
152,114,148391,1,8,3:0:0:0:
152,114,148820,5,0,3:0:0:0:
77,169,149034,1,0,3:0:0:0:
77,169,149141,1,0,3:0:0:0:
77,169,149248,2,0,P|78:207|71:267,1,72,2|0,3:0|0:0,0:0:0:0:
74,246,149570,1,8,0:0:0:0:
74,246,149891,1,0,3:0:0:0:
171,348,150105,1,8,3:0:0:0:
171,348,150534,5,0,0:0:0:0:
259,364,150748,1,0,3:0:0:0:
266,355,150962,2,0,P|272:309|283:265,1,72,0|0,3:0|0:0,0:0:0:0:
280,279,151284,1,0,3:0:0:0:
280,279,151605,5,0,3:0:0:0:
242,135,151820,1,8,3:0:0:0:
242,135,152248,2,0,P|248:96|251:88,3,36,0|0|0|0,3:0|0:0|0:0|0:0,0:0:0:0:
226,152,152677,5,4,3:2:0:0:
238,191,155248,6,2,P|197:186|158:195,1,80.9999975280763,0|0,0:0|0:0,0:0:0:0:
243,271,155677,2,2,P|247:229|238:190,1,80.9999975280763,0|0,0:0|0:0,0:0:0:0:
211,72,156105,6,0,B|177:193|263:160|228:293,1,215.999993408203,4|4,3:0|0:0,0:0:0:0:
447,373,156748,1,0,3:0:0:0:
431,300,156855,1,0,3:0:0:0:
460,231,156962,1,12,3:2:0:0:
315,61,157284,1,0,3:0:0:0:
315,61,157391,2,0,P|248:77|175:56,1,107.999996704102,4|0,0:0|3:0,0:0:0:0:
79,230,157820,6,0,P|151:213|276:246,1,161.999995056153,4|0,3:0|3:0,0:0:0:0:
304,260,158248,1,4,0:0:0:0:
123,120,158462,1,0,3:0:0:0:
395,26,158677,6,0,P|381:86|405:214,1,161.999995056153,12|0,3:2|0:0,0:0:0:0:
193,146,159105,2,0,P|225:198|333:271,1,161.999995056153,12|0,3:2|0:0,0:0:0:0:
412,336,159534,6,0,B|360:354|303:352|322:280|268:288|175:313,1,215.999993408203,4|4,3:0|0:0,0:0:0:0:
18,154,160177,1,0,3:0:0:0:
90,166,160284,1,0,3:0:0:0:
140,221,160391,2,0,P|204:226|260:196,1,107.999996704102,12|0,3:2|0:0,0:0:0:0:
376,128,160712,1,0,3:0:0:0:
376,128,160820,2,0,P|323:121|273:140,1,107.999996704102,4|0,0:0|3:0,0:0:0:0:
460,268,161248,6,0,P|470:193|451:96,1,161.999995056153,4|0,3:0|3:0,0:0:0:0:
409,47,161677,1,4,0:0:0:0:
338,223,161891,1,0,3:0:0:0:
221,73,162105,6,0,P|167:66|117:84,1,107.999996704102,12|0,3:2|3:0,0:0:0:0:
117,84,162427,1,0,3:0:0:0:
44,64,162534,5,12,3:2:0:0:
99,113,162641,1,8,3:2:0:0:
115,186,162748,1,8,3:2:0:0:
86,254,162855,1,8,3:2:0:0:
22,292,162962,6,0,B|140:243|128:331|266:270,1,215.999993408203,4|4,3:0|0:0,0:0:0:0:
456,165,163605,1,0,3:0:0:0:
385,141,163712,1,0,3:0:0:0:
312,156,163819,1,12,3:2:0:0:
87,26,164141,1,0,3:0:0:0:
87,26,164248,2,0,P|99:83|92:142,1,107.999996704102,4|0,0:0|3:0,0:0:0:0:
138,307,164677,6,0,P|189:291|315:329,1,161.999995056153,4|0,3:0|3:0,0:0:0:0:
353,358,165105,1,4,0:0:0:0:
456,165,165320,1,0,3:0:0:0:
285,82,165534,6,0,P|231:73|165:96,1,107.999996704102,12|0,3:2|3:0,0:0:0:0:
75,91,165855,1,0,3:0:0:0:
75,91,165962,2,0,B|105:102|145:104|174:89|174:89|201:75|237:73,1,161.999995056153,12|0,3:2|0:0,0:0:0:0:
370,147,166391,6,0,P|324:142|286:-13,1,215.999993408203,4|4,3:0|0:0,0:0:0:0:
105,226,167034,1,0,3:0:0:0:
174,197,167141,1,0,3:0:0:0:
248,203,167248,2,0,P|251:243|236:310,1,107.999996704102,12|0,3:2|0:0,0:0:0:0:
170,188,167570,1,0,3:0:0:0:
166,179,167677,2,0,P|152:126|154:73,1,107.999996704102,4|0,0:0|3:0,0:0:0:0:
333,37,168105,6,0,P|335:90|321:142,1,107.999996704102,4|0,3:0|0:0,0:0:0:0:
248,203,168427,2,0,P|301:177|396:222,1,161.999995056153,8|0,3:0|3:0,0:0:0:0:
194,256,168962,1,8,3:2:0:0:
142,240,169069,1,0,3:0:0:0:
89,248,169176,1,0,3:0:0:0:
21,374,169391,5,8,3:2:0:0:
73,321,169498,1,8,3:2:0:0:
89,248,169605,1,8,3:2:0:0:
63,178,169712,1,8,3:2:0:0:
3,133,169820,6,0,P|57:157|185:85,1,215.999993408203,4|4,3:0|0:0,0:0:0:0:
403,24,170462,1,0,3:0:0:0:
374,92,170569,1,0,3:0:0:0:
397,162,170676,1,12,3:2:0:0:
251,328,170998,1,0,3:0:0:0:
251,328,171105,2,0,P|264:270|252:219,1,107.999996704102,4|0,0:0|3:0,0:0:0:0:
134,56,171534,6,0,P|123:108|199:194,1,161.999995056153,4|0,3:0|3:0,0:0:0:0:
253,223,171962,1,4,0:0:0:0:
406,177,172177,1,0,3:0:0:0:
306,353,172391,6,0,B|292:311|301:266|337:284|337:235|330:183,1,161.999995056153,12|0,3:2|0:0,0:0:0:0:
491,212,172820,2,0,B|452:192|425:154|464:141|430:106|387:74,1,161.999995056153,12|0,3:2|0:0,0:0:0:0:
194,51,173248,6,0,B|247:43|310:43|287:90|346:101|400:84,1,215.999993408203,4|4,3:0|0:0,0:0:0:0:
235,144,173891,1,0,3:0:0:0:
161,164,173998,1,0,3:0:0:0:
92,126,174105,2,0,P|83:173|94:247,1,107.999996704102,12|0,3:2|0:0,0:0:0:0:
224,280,174427,1,0,3:0:0:0:
224,280,174534,2,0,P|250:319|310:364,1,107.999996704102,4|0,0:0|3:0,0:0:0:0:
504,185,174962,6,0,P|434:158|337:185,1,161.999995056153,4|0,3:0|3:0,0:0:0:0:
284,220,175391,1,4,3:2:0:0:
146,156,175605,1,0,3:0:0:0:
52,361,175820,6,0,P|72:310|75:257,1,107.999996704102,12|0,3:2|3:0,0:0:0:0:
75,257,176141,1,0,3:0:0:0:
31,195,176248,5,8,3:2:0:0:
82,248,176355,1,8,3:2:0:0:
155,262,176462,1,8,3:2:0:0:
223,231,176569,1,8,3:2:0:0:
260,167,176677,6,0,P|339:200|466:135,1,215.999993408203,4|4,3:0|0:0,0:0:0:0:
168,270,177320,1,0,3:0:0:0:
94,253,177427,1,0,3:0:0:0:
21,270,177534,1,12,3:2:0:0:
354,352,177855,1,0,3:0:0:0:
354,352,177962,2,0,P|345:302|351:231,1,107.999996704102,4|0,0:0|3:0,0:0:0:0:
472,141,178391,6,0,P|438:162|357:155,1,107.999996704102,4|0,3:0|0:0,0:0:0:0:
342,71,178712,2,0,P|428:85|478:175,1,161.999995056153,2|0,3:0|3:0,0:0:0:0:
222,276,179248,6,0,P|201:242|208:161,1,107.999996704102,12|0,3:2|3:0,0:0:0:0:
291,146,179570,1,0,3:0:0:0:
291,146,179677,2,0,P|277:232|187:282,1,161.999995056153,12|0,3:2|0:0,0:0:0:0:
66,368,180105,6,0,B|192:316|167:399|304:344,1,215.999993408203,4|4,3:0|0:0,0:0:0:0:
445,152,180748,1,0,3:0:0:0:
416,219,180855,1,0,3:0:0:0:
446,286,180962,2,0,L|428:153,1,107.999996704102,12|0,3:2|0:0,0:0:0:0:
338,95,181284,1,0,3:0:0:0:
337,103,181391,2,0,L|322:210,1,107.999996704102,4|0,0:0|3:0,0:0:0:0:
156,373,181712,5,0,3:0:0:0:
139,288,181820,2,0,P|188:267|242:266,1,107.999996704102,4|0,3:0|0:0,0:0:0:0:
66,239,182141,1,0,3:0:0:0:
80,164,182248,2,0,P|100:114|137:75,1,107.999996704102,4|0,3:0|0:0,0:0:0:0:
66,314,182677,5,0,1:0:0:0:
360,222,182998,1,0,1:0:0:0:
134,14,183320,1,0,1:0:0:0:
90,148,183534,6,0,P|150:125|239:150,1,135,4|0,3:0|3:0,0:0:0:0:
138,218,183962,2,0,P|110:197|95:111,1,90,4|0,0:0|3:0,0:0:0:0:
360,222,184391,5,8,0:0:0:0:
360,222,184712,1,0,3:0:0:0:
355,217,184820,2,0,P|354:159|361:115,1,90,4|0,0:0|0:0,0:0:0:0:
420,278,185141,2,0,P|357:256|274:291,1,135,2|0,3:0|3:0,0:0:0:0:
105,356,185677,5,8,0:0:0:0:
137,179,185891,1,0,3:0:0:0:
293,274,186105,5,8,3:2:0:0:
295,250,186176,1,0,3:0:0:0:
298,226,186247,1,0,3:0:0:0:
301,202,186319,1,0,3:0:0:0:
304,178,186390,1,0,3:0:0:0:
307,154,186462,1,0,3:0:0:0:
310,131,186533,1,12,3:2:0:0:
291,298,186748,1,0,3:0:0:0:
137,178,186962,6,0,P|113:241|116:308,1,135,4|0,3:0|3:0,0:0:0:0:
214,132,187391,2,0,P|224:78|206:27,1,90,4|0,0:0|3:0,0:0:0:0:
291,298,187820,5,8,0:0:0:0:
291,298,188141,1,0,3:0:0:0:
294,304,188248,2,0,P|342:290|414:291,1,90,4|0,0:0|0:0,0:0:0:0:
463,212,188570,1,0,3:0:0:0:
463,212,188677,2,0,P|415:198|343:199,1,90,4|0,0:0|3:0,0:0:0:0:
176,363,189105,5,8,0:0:0:0:
243,223,189320,1,0,3:0:0:0:
57,159,189534,6,0,P|60:186|68:213,1,45,8|0,0:0|0:0,0:0:0:0:
243,223,189748,2,0,P|248:201|250:178,1,45,8|0,3:2|3:0,3:3:0:0:
285,380,189962,5,8,3:2:0:0:
364,363,190070,1,8,3:2:0:0:
347,284,190177,1,8,3:2:0:0:
268,301,190284,1,8,3:2:0:0:
268,301,190391,6,0,P|203:315|119:287,1,135,4|0,3:0|3:0,0:0:0:0:
347,284,190820,2,0,P|391:287|436:324,1,90,4|0,0:0|3:0,0:0:0:0:
447,39,191248,5,8,0:0:0:0:
447,39,191570,1,0,3:0:0:0:
445,45,191677,2,0,P|404:58|323:54,1,90,4|0,0:0|0:0,0:0:0:0:
236,162,191998,2,0,P|292:152|404:184,1,135,2|0,3:0|3:0,0:0:0:0:
132,271,192534,5,8,0:0:0:0:
168,63,192748,1,0,3:0:0:0:
330,198,192962,5,8,3:2:0:0:
353,201,193033,1,0,3:0:0:0:
377,201,193104,1,0,3:0:0:0:
401,197,193176,1,0,3:0:0:0:
423,189,193247,1,0,3:0:0:0:
444,177,193319,1,0,3:0:0:0:
463,162,193390,1,12,3:2:0:0:
310,184,193605,1,0,3:0:0:0:
507,366,193820,6,0,P|463:349|357:360,1,135,4|0,3:0|3:0,0:0:0:0:
289,360,194248,2,0,P|339:365|389:343,1,90,4|0,0:0|3:0,0:0:0:0:
127,252,194677,5,8,0:0:0:0:
127,252,194998,1,0,3:0:0:0:
123,246,195105,2,0,P|125:194|137:150,1,90,4|0,0:0|0:0,0:0:0:0:
280,248,195427,1,0,3:0:0:0:
280,248,195534,2,0,P|233:272|189:283,1,90,4|0,0:0|3:0,0:0:0:0:
435,86,195962,5,8,0:0:0:0:
497,301,196177,1,0,3:0:0:0:
280,248,196391,6,0,P|283:208|285:197,1,45,8|0,0:0|0:0,0:0:0:0:
435,86,196605,2,0,P|437:108|438:130,1,45,8|0,3:2|3:0,3:3:0:0:
222,133,196820,5,8,3:2:0:0:
142,106,196927,1,8,3:2:0:0:
169,26,197034,1,8,3:2:0:0:
249,53,197141,2,0,P|273:45|309:45,1,45,12|0,3:2|0:0,0:0:0:0:
