osu file format v14

[General]
AudioFilename: audio.mp3
AudioLeadIn: 0
PreviewTime: 72144
Countdown: 0
SampleSet: Soft
StackLeniency: 0.5
Mode: 0
LetterboxInBreaks: 0
WidescreenStoryboard: 1

[Editor]
Bookmarks: 14781,29584,44387,59191,73994,103601,118404,133208,162814
DistanceSpacing: 1.4
BeatDivisor: 4
GridSize: 32
TimelineZoom: 1.4

[Metadata]
Title:Radio (Demo Taped Remix)
TitleUnicode:Radio (Demo Taped Remix)
Artist:Sylvan Esso
ArtistUnicode:Sylvan Esso
Creator:Striderin
Version:Normal
Source:
Tags:electronic alternative pop english waefwerf werf mint appleeaterx
BeatmapID:2612307
BeatmapSetID:1242515

[Difficulty]
HPDrainRate:4
CircleSize:4
OverallDifficulty:4
ApproachRate:5
SliderMultiplier:1
SliderTickRate:1

[Events]
//Background and Video events
0,0,"1597614482296.jpg",0,0
//Break Periods
2,103800,117204
//Storyboard Layer 0 (Background)
//Storyboard Layer 1 (Fail)
//Storyboard Layer 2 (Pass)
//Storyboard Layer 3 (Foreground)
//Storyboard Layer 4 (Overlay)
//Storyboard Sound Samples

[TimingPoints]
14781,462.60601387818,4,2,1,90,1,0
29584,-100,4,2,1,90,0,0
30509,-100,4,2,3,90,0,0
30625,-100,4,2,1,90,0,0
32360,-100,4,2,3,90,0,0
32475,-100,4,2,1,90,0,0
34210,-100,4,2,3,90,0,0
34326,-100,4,2,1,90,0,0
36060,-100,4,2,3,90,0,0
36176,-100,4,2,1,90,0,0
37911,-100,4,2,3,90,0,0
38026,-100,4,2,1,90,0,0
39761,-100,4,2,3,90,0,0
39877,-100,4,2,1,90,0,0
41612,-100,4,2,3,90,0,0
41727,-100,4,2,1,90,0,0
43462,-100,4,2,3,90,0,0
43578,-100,4,2,1,90,0,0
44387,-100,4,2,1,90,0,0
73994,-100,4,2,1,100,0,1
79545,-100,4,2,1,100,0,0
80818,-100,4,2,2,100,0,0
81396,-100,4,2,1,100,0,1
86947,-100,4,2,1,100,0,0
88219,-100,4,2,2,100,0,0
88797,-100,4,2,1,100,0,1
94349,-100,4,2,1,100,0,0
95621,-100,4,2,2,100,0,0
96199,-100,4,2,1,100,0,1
101750,-100,4,2,1,100,0,0
103023,-100,4,2,2,100,0,0
103601,-100,4,2,1,90,0,0
110424,-100,4,2,2,65,0,0
111003,-100,4,2,1,90,0,0
117826,-100,4,2,2,90,0,0
118404,-100,4,2,1,90,0,0
133208,-100,4,2,1,100,0,1
138759,-100,4,2,1,100,0,0
140031,-100,4,2,2,100,0,0
140609,-100,4,2,1,100,0,1
146161,-100,4,2,1,100,0,0
147433,-100,4,2,2,100,0,0
148011,-100,4,2,1,100,0,1
153562,-100,4,2,1,100,0,0
154834,-100,4,2,2,100,0,0
155413,-100,4,2,1,100,0,1
160964,-100,4,2,1,100,0,0
162236,-100,4,2,2,100,0,0
162814,-100,4,2,1,90,0,0

[Colours]
Combo1 : 158,214,103
Combo2 : 61,201,169
Combo3 : 141,115,210
Combo4 : 223,169,96

[HitObjects]
256,192,14318,5,10,0:0:0:0:
372,114,14780,2,0,P|432:136|520:191,2,150,0|0|0,3:0|0:0|0:0,0:0:0:0:
166,157,16862,1,2,0:0:0:0:
119,104,17094,1,2,0:0:0:0:
51,121,17325,1,2,0:0:0:0:
36,189,17556,2,0,L|64:308,1,100,2|2,0:0|0:0,0:0:0:0:
189,336,18481,6,0,P|268:305|352:293,3,150
471,307,21026,1,2,0:0:0:0:
454,238,21257,2,0,L|350:218,1,100,2|0,0:0|0:0,0:0:0:0:
227,162,22182,6,0,P|205:90|192:16,2,150
129,348,24264,1,2,0:0:0:0:
193,375,24495,1,2,0:0:0:0:
254,340,24727,1,2,0:0:0:0:
256,270,24958,2,0,L|356:251,1,100,2|2,0:0|0:0,0:0:0:0:
479,315,25883,6,0,P|497:253|511:161,3,150
394,89,28427,1,2,0:0:0:0:
351,145,28659,2,0,L|238:157,1,100,2|0,0:0|0:0,0:0:0:0:
195,112,29353,1,2,0:0:0:0:
131,140,29584,6,0,B|115:211|115:211|123:252,1,100,2|2,3:2|0:0,0:0:0:0:
142,304,30278,1,2,3:0:0:0:
208,281,30509,1,8,0:0:0:0:
341,323,30972,2,0,P|352:247|361:208,1,100,0|0,3:0|0:0,0:0:0:0:
380,158,31666,1,2,0:0:0:0:
351,93,31897,1,2,0:0:0:0:
282,80,32128,1,2,3:2:0:0:
231,129,32360,2,0,L|238:186,2,50,10|2|2,0:0|3:0|0:0,0:0:0:0:
168,98,33053,1,2,3:0:0:0:
111,139,33285,6,0,P|107:189|88:253,2,100,2|0|10,3:2|0:0|0:0,0:0:0:0:
22,30,34673,1,0,3:0:0:0:
161,18,35135,1,0,0:0:0:0:
230,6,35366,1,0,0:0:0:0:
281,53,35598,2,0,L|273:112,1,50,0|0,3:0|0:0,0:0:0:0:
324,150,36060,2,0,L|331:208,1,50,10|0,0:0|3:0,0:0:0:0:
287,255,36523,2,0,L|279:321,1,50,2|2,3:2|0:0,0:0:0:0:
329,355,36986,6,0,B|405:341|405:341|425:314,1,100,2|2,3:2|0:0,0:0:0:0:
454,262,37679,1,2,3:0:0:0:
394,224,37911,1,10,0:0:0:0:
388,84,38373,2,0,P|315:99|289:106,1,100,0|0,3:0|0:0,0:0:0:0:
227,137,39067,1,2,0:0:0:0:
212,205,39299,1,2,0:0:0:0:
260,255,39530,1,2,3:2:0:0:
329,257,39761,2,0,L|358:206,2,50,10|2|2,0:0|3:0|0:0,0:0:0:0:
355,321,40455,1,2,3:0:0:0:
311,375,40686,6,0,P|252:362|193:355,2,100,2|0|10,3:2|0:0|0:0,0:0:0:0:
441,325,42074,2,0,P|455:271|465:211,1,100,0|0,3:0|0:0,0:0:0:0:
418,173,42768,1,0,0:0:0:0:
469,125,42999,2,0,L|466:71,1,50,0|0,3:0|0:0,0:0:0:0:
409,33,43462,2,0,L|348:42,1,50,10|0,0:0|3:0,0:0:0:0:
293,16,43925,1,2,3:2:0:0:
182,101,44387,6,0,P|198:160|245:169,1,100,2|2,0:0|0:0,0:0:0:0:
369,155,45312,2,0,B|395:162|395:162|413:192,2,50,2|2|0,0:0|0:0|0:0,0:0:0:0:
323,208,46006,6,0,P|317:248|215:273,1,150,2|2,0:0|0:0,0:0:0:0:
170,233,46932,1,0,0:0:0:0:
121,183,47163,2,0,L|114:128,2,50,2|2|2,0:0|0:0|0:0,0:0:0:0:
54,206,47857,1,0,0:0:0:0:
33,272,48088,6,0,P|61:330|105:339,1,100,2|2,0:0|0:0,0:0:0:0:
228,309,49013,2,0,B|254:317|254:317|271:346,2,50,2|2|0,0:0|0:0|0:0,0:0:0:0:
246,169,49939,6,0,B|296:179|296:179|344:144,2,100,2|2|2,0:0|0:0|0:0,0:0:0:0:
107,146,51326,1,2,0:0:0:0:
61,278,51789,6,0,P|120:289|142:332,1,100,2|2,0:0|0:0,0:0:0:0:
279,332,52714,2,0,B|291:309|291:309|313:300,2,50,2|2|0,0:0|0:0|0:0,0:0:0:0:
326,383,53408,6,0,P|383:373|410:279,1,150,2|2,0:0|0:0,0:0:0:0:
392,227,54333,1,0,0:0:0:0:
423,164,54565,2,0,L|480:173,2,50,2|2|2,0:0|0:0|0:0,0:0:0:0:
388,102,55259,1,0,0:0:0:0:
318,94,55490,6,0,P|274:116|256:163,1,100,2|2,0:0|0:0,0:0:0:0:
117,178,56415,2,0,B|105:157|105:157|69:148,2,50,2|2|0,0:0|0:0|0:0,0:0:0:0:
90,315,57340,6,0,B|48:287|48:287|-25:295,2,100,2|2|2,0:0|0:0|0:0,0:0:0:0:
213,381,58728,1,2,0:0:0:0:
306,276,59191,6,0,P|316:208|341:108,2,150,2|2|2,0:0|0:0|0:0,0:0:0:0:
145,104,62892,6,0,P|162:176|173:251,2,150,2|2|2,0:0|0:0|0:0,0:0:0:0:
308,39,66592,5,2,0:0:0:0:
234,235,67286,1,2,0:0:0:0:
298,207,67518,2,0,P|348:223|404:253,1,100,0|2,0:0|0:0,0:0:0:0:
70,178,70293,6,0,P|164:146|232:136,2,150,2|2|2,0:0|0:0|0:0,0:0:0:0:
225,42,73994,5,2,3:2:0:0:
301,159,74457,1,2,0:0:0:0:
263,218,74688,1,0,3:0:0:0:
274,287,74919,2,0,P|240:300|214:306,2,50,10|2|0,0:0|0:0|3:0,0:0:0:0:
335,321,75613,6,0,P|378:322|435:280,1,100,2|0,0:0|0:0,0:0:0:0:
460,232,76307,2,0,L|468:178,1,50,2|0,0:0|3:0,0:0:0:0:
434,120,76770,2,0,L|361:131,2,50,10|2|2,0:0|3:0|0:0,0:0:0:0:
461,55,77464,1,2,3:0:0:0:
415,1,77695,5,2,3:2:0:0:
303,85,78158,1,2,0:0:0:0:
235,67,78389,1,0,3:0:0:0:
174,101,78620,2,0,P|178:139|191:171,2,50,10|2|0,0:0|0:0|3:0,0:0:0:0:
49,37,79545,5,0,0:0:0:0:
80,173,80008,1,0,3:0:0:0:
111,309,80471,1,10,0:0:0:0:
244,267,80933,2,0,L|304:291,1,50,2|8,3:0|0:0,0:0:0:0:
357,307,81396,5,2,3:2:0:0:
430,191,81858,1,2,0:0:0:0:
390,132,82090,1,0,3:0:0:0:
408,64,82321,2,0,P|436:57|461:55,2,50,10|2|0,0:0|0:0|3:0,0:0:0:0:
349,24,83015,6,0,P|295:43|269:80,1,100,2|0,0:0|0:0,0:0:0:0:
272,146,83709,2,0,L|286:207,1,50,2|0,0:0|3:0,0:0:0:0:
345,226,84171,2,0,L|406:210,2,50,10|2|2,0:0|3:0|0:0,0:0:0:0:
325,293,84865,1,2,3:0:0:0:
348,359,85097,5,2,3:2:0:0:
219,304,85559,1,2,0:0:0:0:
154,331,85791,1,0,3:0:0:0:
103,282,86022,2,0,P|111:251|132:228,2,50,10|2|0,0:0|0:0|3:0,0:0:0:0:
20,167,86947,5,0,0:0:0:0:
158,145,87410,1,0,3:0:0:0:
296,123,87872,1,10,0:0:0:0:
320,260,88335,2,0,L|289:313,1,50,2|8,3:0|0:0,0:0:0:0:
257,362,88797,5,2,3:2:0:0:
128,307,89260,1,2,0:0:0:0:
122,237,89491,1,0,3:0:0:0:
71,188,89723,2,0,P|29:198|13:207,2,50,10|2|0,0:0|0:0|3:0,0:0:0:0:
104,126,90417,6,0,P|129:85|196:62,1,100,2|0,0:0|0:0,0:0:0:0:
243,76,91110,1,2,0:0:0:0:
284,132,91342,1,0,3:0:0:0:
273,201,91573,2,0,L|224:209,2,50,10|2|2,0:0|3:0|0:0,0:0:0:0:
325,248,92267,1,2,3:0:0:0:
393,233,92498,5,2,3:2:0:0:
460,110,92961,1,2,0:0:0:0:
398,77,93192,1,0,3:0:0:0:
371,11,93424,2,0,P|343:2|314:0,2,50,10|2|0,0:0|0:0|3:0,0:0:0:0:
331,145,94349,5,0,0:0:0:0:
192,123,94811,1,0,3:0:0:0:
53,102,95274,1,10,0:0:0:0:
35,241,95737,2,0,L|57:294,1,50,2|8,3:0|0:0,0:0:0:0:
84,351,96199,5,2,3:2:0:0:
216,304,96662,1,2,0:0:0:0:
276,339,96893,1,0,3:0:0:0:
342,316,97124,2,0,P|351:283|350:259,2,50,10|2|0,0:0|0:0|3:0,0:0:0:0:
385,371,97818,6,0,P|439:363|472:322,1,100,2|0,0:0|0:0,0:0:0:0:
485,262,98512,1,2,0:0:0:0:
460,196,98743,1,0,3:0:0:0:
392,177,98975,2,0,L|378:119,2,50,10|2|2,0:0|3:0|0:0,0:0:0:0:
340,224,99669,1,2,3:0:0:0:
271,210,99900,5,2,3:2:0:0:
143,268,100363,1,2,0:0:0:0:
81,234,100594,1,0,3:0:0:0:
11,245,100825,2,0,P|3:292|8:315,2,50,10|2|0,0:0|0:0|3:0,0:0:0:0:
41,108,101750,5,0,0:0:0:0:
178,82,102213,1,0,3:0:0:0:
315,57,102676,1,10,0:0:0:0:
340,194,103138,2,0,L|324:262,2,50,2|8|0,3:0|0:0|0:0,0:0:0:0:
149,101,118404,6,0,P|116:118|18:197,2,150,0|2|2,3:0|0:0|0:0,0:0:0:0:
357,125,120486,1,2,0:0:0:0:
395,183,120717,1,2,0:0:0:0:
366,247,120949,1,2,0:0:0:0:
296,257,121180,2,0,L|289:310,2,50,2|2|2,0:0|0:0|0:0,0:0:0:0:
249,204,121874,1,2,0:0:0:0:
179,208,122105,6,0,P|165:253|147:368,3,150,2|2|2|2,0:0|0:0|0:0|0:0,0:0:0:0:
19,297,124649,1,2,0:0:0:0:
67,246,124881,2,0,L|120:251,2,50,2|0|0,0:0|0:0|0:0,0:0:0:0:
34,183,125575,1,2,0:0:0:0:
70,123,125806,6,0,P|174:102|237:102,2,150,2|2|2,0:0|0:0|0:0,0:0:0:0:
242,2,127888,1,2,0:0:0:0:
307,26,128119,1,2,0:0:0:0:
329,92,128350,1,2,0:0:0:0:
299,155,128582,2,0,L|240:143,2,50,2|2|2,0:0|0:0|0:0,0:0:0:0:
347,205,129275,1,2,0:0:0:0:
416,197,129507,6,0,P|436:126|446:47,3,150,2|2|2|2,0:0|0:0|0:0|0:0,0:0:0:0:
240,4,132282,2,0,P|256:63|266:115,1,100,2|10,0:0|0:0,0:0:0:0:
238,166,132976,1,0,0:0:0:0:
262,231,133208,5,2,3:2:0:0:
157,323,133670,1,2,0:0:0:0:
111,269,133902,1,0,3:0:0:0:
43,286,134133,2,0,P|32:320|35:341,2,50,10|2|0,0:0|0:0|3:0,0:0:0:0:
10,223,134827,6,0,P|7:167|48:118,1,100,2|0,0:0|0:0,0:0:0:0:
95,108,135521,2,0,L|151:98,1,50,2|0,0:0|3:0,0:0:0:0:
202,138,135983,2,0,L|194:194,2,50,10|2|2,0:0|3:0|0:0,0:0:0:0:
267,112,136677,1,2,3:0:0:0:
320,156,136908,5,2,3:2:0:0:
455,119,137371,1,2,0:0:0:0:
435,51,137602,1,0,3:0:0:0:
367,30,137834,2,0,P|336:38|316:53,2,50,10|2|0,0:0|0:0|3:0,0:0:0:0:
395,167,138759,5,0,0:0:0:0:
257,191,139222,1,0,3:0:0:0:
119,216,139684,1,10,0:0:0:0:
98,77,140147,2,0,L|152:85,1,50,2|8,3:0|0:0,0:0:0:0:
213,61,140609,5,2,3:2:0:0:
305,166,141072,1,2,0:0:0:0:
272,227,141303,1,0,3:0:0:0:
204,245,141535,2,0,P|179:243|155:235,2,50,10|2|0,0:0|0:0|3:0,0:0:0:0:
223,312,142228,6,0,P|197:354|152:373,1,100,2|0,0:0|0:0,0:0:0:0:
95,332,142922,2,0,L|81:260,1,50,2|0,0:0|3:0,0:0:0:0:
47,223,143385,2,0,L|-14:208,2,50,10|2|2,0:0|3:0|0:0,0:0:0:0:
91,168,144079,1,2,3:0:0:0:
156,191,144310,5,2,3:2:0:0:
277,120,144773,1,2,0:0:0:0:
316,177,145004,1,0,3:0:0:0:
385,167,145235,2,0,P|406:203|407:213,2,50,10|2|0,0:0|0:0|3:0,0:0:0:0:
318,44,146161,5,0,0:0:0:0:
297,182,146623,1,0,3:0:0:0:
276,320,147086,1,10,0:0:0:0:
138,293,147548,2,0,L|78:304,1,50,2|10,3:0|0:0,0:0:0:0:
32,344,148011,5,2,3:2:0:0:
6,206,148474,1,2,0:0:0:0:
60,162,148705,1,0,3:0:0:0:
57,92,148936,2,0,P|24:59|7:55,2,50,10|2|0,0:0|0:0|3:0,0:0:0:0:
126,81,149630,6,0,P|180:60|234:64,1,100,2|0,0:0|0:0,0:0:0:0:
276,104,150324,1,2,0:0:0:0:
289,172,150555,1,0,3:0:0:0:
245,226,150787,2,0,L|194:222,2,50,10|2|2,0:0|3:0|0:0,0:0:0:0:
277,288,151481,1,2,3:0:0:0:
236,345,151712,5,2,3:2:0:0:
372,376,152174,1,2,0:0:0:0:
418,323,152406,1,0,3:0:0:0:
395,256,152637,2,0,P|366:229|342:223,2,50,10|2|0,0:0|0:0|3:0,0:0:0:0:
476,141,153562,5,0,0:0:0:0:
336,129,154025,1,0,3:0:0:0:
196,117,154488,1,10,0:0:0:0:
184,256,154950,2,0,L|125:268,1,50,2|10,3:0|0:0,0:0:0:0:
73,231,155413,5,2,3:2:0:0:
102,94,155875,1,2,0:0:0:0:
163,127,156107,1,0,3:0:0:0:
228,103,156338,2,0,P|242:67|242:35,2,50,10|2|0,0:0|0:0|3:0,0:0:0:0:
265,162,157032,6,0,P|272:223|301:269,1,100,2|0,0:0|0:0,0:0:0:0:
350,292,157726,1,2,0:0:0:0:
418,280,157957,1,0,3:0:0:0:
459,223,158188,2,0,L|515:231,2,50,10|2|2,0:0|3:0|0:0,0:0:0:0:
415,168,158882,1,2,3:0:0:0:
437,101,159114,5,2,3:2:0:0:
311,40,159576,1,2,0:0:0:0:
288,106,159807,1,0,3:0:0:0:
332,160,160039,2,0,P|342:195|336:220,2,50,10|2|0,0:0|0:0|3:0,0:0:0:0:
208,93,160964,5,0,0:0:0:0:
190,231,161427,1,0,3:0:0:0:
172,369,161889,1,10,0:0:0:0:
33,348,162352,2,0,L|40:292,1,50,2|10,3:0|0:0,0:0:0:0:
50,229,162814,6,0,P|109:209|210:197,2,150
140,38,164896,1,2,0:0:0:0:
177,96,165127,2,0,L|246:115,1,50,2|2,0:0|0:0,0:0:0:0:
283,70,165590,2,0,L|294:18,2,50,2|2|2,0:0|0:0|0:0,0:0:0:0:
330,121,166284,1,2,0:0:0:0:
399,118,166515,6,0,P|423:170|443:277,3,150
316,322,169060,1,2,0:0:0:0:
276,264,169291,2,0,L|285:183,2,75,2|2|2,0:0|0:0|0:0,0:0:0:0:
215,299,170216,6,0,P|122:271|58:272,2,150
204,88,172298,1,2,0:0:0:0:
143,123,172529,2,0,L|131:188,1,50,2|2,0:0|0:0,0:0:0:0:
77,214,172992,2,0,L|21:204,2,50,2|2|2,0:0|0:0|0:0,0:0:0:0:
111,275,173686,1,2,0:0:0:0:
177,296,173917,6,0,P|223:199|237:141,3,150
366,202,176461,1,2,0:0:0:0:
418,155,176693,2,0,L|406:64,2,75,2|2|2,0:0|0:0|0:0,0:0:0:0:
