osu file format v14

[General]
AudioFilename: audio.mp3
AudioLeadIn: 0
PreviewTime: 72144
Countdown: 0
SampleSet: Soft
StackLeniency: 0.2
Mode: 0
LetterboxInBreaks: 0
WidescreenStoryboard: 1

[Editor]
Bookmarks: 14781,29584,44387,59191,73994,103601,118404,133150,133208,162814
DistanceSpacing: 0.6
BeatDivisor: 4
GridSize: 32
TimelineZoom: 1.4

[Metadata]
Title:Radio (Demo Taped Remix)
TitleUnicode:Radio (Demo Taped Remix)
Artist:Sylvan Esso
ArtistUnicode:Sylvan Esso
Creator:Striderin
Version:Mint's Insane
Source:
Tags:electronic alternative pop english waefwerf werf mint appleeaterx
BeatmapID:2614777
BeatmapSetID:1242515

[Difficulty]
HPDrainRate:5
CircleSize:4.3
OverallDifficulty:7.5
ApproachRate:8.7
SliderMultiplier:1
SliderTickRate:1

[Events]
//Background and Video events
0,0,"1597614482296.jpg",0,0
//Break Periods
2,103801,106657
//Storyboard Layer 0 (Background)
//Storyboard Layer 1 (Fail)
//Storyboard Layer 2 (Pass)
//Storyboard Layer 3 (Foreground)
//Storyboard Layer 4 (Overlay)
//Storyboard Sound Samples

[TimingPoints]
14781,462.60601387818,4,2,1,90,1,0
29584,-80,4,2,1,90,0,0
30509,-80,4,2,3,90,0,0
30625,-80,4,2,1,90,0,0
30972,-66.6666666666667,4,2,1,90,0,0
31203,-80,4,2,1,90,0,0
32360,-80,4,2,3,90,0,0
32475,-80,4,2,1,90,0,0
34210,-80,4,2,3,90,0,0
34326,-80,4,2,1,90,0,0
36060,-80,4,2,3,90,0,0
36176,-80,4,2,1,90,0,0
37911,-80,4,2,3,90,0,0
38026,-80,4,2,1,90,0,0
38373,-66.6666666666667,4,2,1,90,0,0
38604,-80,4,2,1,90,0,0
39761,-80,4,2,3,90,0,0
39877,-80,4,2,1,90,0,0
41612,-80,4,2,3,90,0,0
41727,-80,4,2,1,90,0,0
43462,-80,4,2,3,90,0,0
43578,-80,4,2,1,90,0,0
73994,-100,4,2,1,100,0,0
74688,-66.6666666666667,4,2,1,100,0,0
75382,-50,4,2,1,100,0,0
75613,-100,4,2,1,100,0,0
78389,-66.6666666666667,4,2,1,100,0,0
79083,-50,4,2,1,100,0,0
79545,-100,4,2,1,100,0,0
80818,-100,4,2,2,100,0,0
81396,-100,4,2,1,100,0,0
82090,-66.6666666666667,4,2,1,100,0,0
82784,-50,4,2,1,100,0,0
83015,-100,4,2,1,100,0,0
85791,-66.6666666666667,4,2,1,100,0,0
86484,-50,4,2,1,100,0,0
86947,-100,4,2,1,100,0,0
88219,-100,4,2,2,100,0,0
88797,-90.9090909090909,4,2,1,100,0,0
89491,-66.6666666666667,4,2,1,100,0,0
90185,-50,4,2,1,100,0,0
90417,-90.9090909090909,4,2,1,100,0,0
92469,-90.9090909090909,4,2,1,100,0,0
93163,-66.6666666666667,4,2,1,100,0,0
93857,-50,4,2,1,100,0,0
94089,-90.9090909090909,4,2,1,100,0,0
95621,-90.9090909090909,4,2,2,100,0,0
96170,-90.9090909090909,4,2,2,100,0,0
96199,-90.9090909090909,4,2,1,100,0,0
96864,-66.6666666666667,4,2,1,100,0,0
97558,-50,4,2,1,100,0,0
97790,-90.9090909090909,4,2,1,100,0,0
99871,-90.9090909090909,4,2,1,100,0,0
100565,-66.6666666666667,4,2,1,100,0,0
101259,-50,4,2,1,100,0,0
101491,-90.9090909090909,4,2,1,100,0,0
103023,-90.9090909090909,4,2,2,100,0,0
103601,-90.9090909090909,4,2,1,90,0,0
107302,-100,4,2,1,90,0,0
110424,-100,4,2,2,65,0,0
111003,-100,4,2,1,90,0,0
117826,-100,4,2,2,90,0,0
118404,-80,4,2,1,90,0,0
133150,-100,4,2,1,90,0,0
133208,-100,4,2,1,100,0,0
133844,-66.6666666666667,4,2,1,100,0,0
134538,-50,4,2,1,100,0,0
134769,-100,4,2,1,100,0,0
137545,-66.6666666666667,4,2,1,100,0,0
138239,-50,4,2,1,100,0,0
138701,-100,4,2,1,100,0,0
140031,-100,4,2,2,100,0,0
140609,-100,4,2,1,100,0,0
141246,-66.6666666666667,4,2,1,100,0,0
141940,-50,4,2,1,100,0,0
142171,-100,4,2,1,100,0,0
144947,-66.6666666666667,4,2,1,100,0,0
145640,-50,4,2,1,100,0,0
146103,-100,4,2,1,100,0,0
147433,-100,4,2,2,100,0,0
147953,-90.9090909090909,4,2,2,100,0,0
148011,-90.9090909090909,4,2,1,100,0,0
148647,-66.6666666666667,4,2,1,100,0,0
149341,-50,4,2,1,100,0,0
149573,-90.9090909090909,4,2,1,100,0,0
151625,-90.9090909090909,4,2,1,100,0,0
152319,-66.6666666666667,4,2,1,100,0,0
153013,-50,4,2,1,100,0,0
153245,-90.9090909090909,4,2,1,100,0,0
154834,-90.9090909090909,4,2,2,100,0,0
155326,-90.9090909090909,4,2,2,100,0,0
155413,-90.9090909090909,4,2,1,100,0,0
156020,-66.6666666666667,4,2,1,100,0,0
156714,-50,4,2,1,100,0,0
156946,-90.9090909090909,4,2,1,100,0,0
159027,-90.9090909090909,4,2,1,100,0,0
159721,-66.6666666666667,4,2,1,100,0,0
160415,-50,4,2,1,100,0,0
160647,-90.9090909090909,4,2,1,100,0,0
162236,-90.9090909090909,4,2,2,100,0,0
162814,-133.333333333333,4,2,1,90,0,0

[Colours]
Combo1 : 158,214,103
Combo2 : 61,201,169
Combo3 : 141,115,210
Combo4 : 223,169,96

[HitObjects]
5,358,14781,5,0,3:0:0:0:
78,344,15474,1,0,0:0:0:0:
153,329,16168,1,0,0:0:0:0:
226,315,16861,5,2,0:0:0:0:
362,284,17094,1,2,0:0:0:0:
492,354,17325,1,2,0:0:0:0:
352,378,17556,1,2,0:0:0:0:
352,378,17671,1,2,0:0:0:0:
352,378,17787,1,2,0:0:0:0:
362,284,18019,1,2,0:0:0:0:
377,193,18250,1,2,0:0:0:0:
487,160,18481,5,0,0:0:0:0:
474,81,19175,1,0,0:0:0:0:
459,4,19869,1,0,0:0:0:0:
380,20,20563,1,0,0:0:0:0:
301,48,21026,5,2,0:0:0:0:
162,127,21257,1,2,0:0:0:0:
243,108,21373,2,0,L|180:99,1,50,2|2,0:0|0:0,0:0:0:0:
0,158,21951,1,2,0:0:0:0:
56,93,22182,5,0,0:0:0:0:
78,172,22876,1,0,0:0:0:0:
102,251,23570,1,0,0:0:0:0:
130,326,24264,5,2,0:0:0:0:
302,290,24495,1,2,0:0:0:0:
189,263,24727,1,2,0:0:0:0:
311,379,24958,1,2,0:0:0:0:
311,379,25073,1,2,0:0:0:0:
311,379,25189,1,2,0:0:0:0:
382,355,25420,1,2,0:0:0:0:
459,333,25652,1,2,0:0:0:0:
439,255,25883,5,0,0:0:0:0:
420,174,26577,1,0,0:0:0:0:
401,93,27271,1,0,0:0:0:0:
379,17,27965,1,0,0:0:0:0:
299,33,28427,5,2,0:0:0:0:
251,93,28659,1,2,0:0:0:0:
169,90,28774,2,0,L|219:76,1,50,2|2,0:0|0:0,0:0:0:0:
496,21,29353,1,2,0:0:0:0:
421,55,29584,6,0,L|289:31,1,125,2|2,3:2|0:0,0:0:0:0:
216,23,30162,1,2,0:0:0:0:
207,58,30278,2,0,L|198:97,1,31.25,2|0,3:0|0:0,0:0:0:0:
189,186,30509,6,0,P|231:183|263:161,1,62.5,8|0,0:0|0:0,0:0:0:0:
114,35,30972,2,0,P|74:20|34:24,1,75.0000028610231,0|0,3:0|0:0,0:0:0:0:
0,277,31666,5,2,0:0:0:0:
10,171,31897,1,2,0:0:0:0:
102,135,32128,1,2,3:2:0:0:
95,233,32360,5,10,0:0:0:0:
146,240,32475,1,2,0:0:0:0:
162,284,32591,2,0,L|155:318,1,31.25,2|0,3:0|0:0,0:0:0:0:
263,329,32822,2,0,L|256:363,1,31.25,2|0,0:0|0:0,0:0:0:0:
367,377,33053,1,2,3:0:0:0:
492,304,33285,6,0,P|491:251|443:191,1,125,2|0,3:2|0:0,0:0:0:0:
308,124,33979,1,0,3:0:0:0:
407,108,34210,2,0,P|412:73|432:38,1,62.5,10|2,0:0|0:0,0:0:0:0:
350,209,34673,2,0,P|362:237|366:268,1,62.5,0|0,3:0|0:0,0:0:0:0:
88,373,35366,5,0,0:0:0:0:
11,319,35598,2,0,P|14:288|27:259,1,62.5,0|0,3:0|0:0,0:0:0:0:
147,310,36060,5,10,0:0:0:0:
211,281,36176,2,0,L|180:286,1,31.25,2|0,0:0|3:0,0:0:0:0:
144,156,36407,1,2,0:0:0:0:
83,194,36523,2,0,L|114:189,1,31.25,2|0,3:2|0:0,0:0:0:0:
97,59,36754,2,0,L|128:54,1,31.25,2|0,0:0|0:0,0:0:0:0:
255,19,36986,6,0,P|311:31|350:84,1,125,2|2,3:2|0:0,0:0:0:0:
362,178,37564,1,2,0:0:0:0:
392,169,37679,2,0,L|437:163,1,31.25,2|0,3:0|0:0,0:0:0:0:
498,113,37911,6,0,P|512:154|511:185,1,62.5,10|0,0:0|0:0,0:0:0:0:
441,323,38373,2,0,P|427:282|429:246,1,75.0000028610231,0|0,3:0|0:0,0:0:0:0:
255,19,39067,5,2,0:0:0:0:
159,35,39299,1,2,0:0:0:0:
125,133,39530,1,2,3:2:0:0:
226,107,39761,5,10,0:0:0:0:
265,119,39876,1,2,0:0:0:0:
278,161,39993,2,0,L|285:202,1,31.25,2|0,3:0|0:0,0:0:0:0:
176,213,40224,2,0,L|182:253,1,31.25,2|0,0:0|0:0,0:0:0:0:
64,267,40455,1,2,3:0:0:0:
223,376,40686,6,0,P|283:371|337:318,1,125,2|0,3:2|0:0,0:0:0:0:
459,236,41380,1,0,3:0:0:0:
374,258,41612,2,0,P|371:217|379:189,1,62.5,10|2,0:0|0:0,0:0:0:0:
510,310,42074,2,0,P|513:351|505:379,1,62.5,0|0,3:0|0:0,0:0:0:0:
282,206,42768,5,0,0:0:0:0:
208,165,42999,2,0,P|205:124|213:96,1,62.5,0|0,3:0|0:0,0:0:0:0:
325,60,43462,5,10,0:0:0:0:
410,56,43578,2,0,P|383:40|337:40,1,62.5,2|2,0:0|0:0,0:0:0:0:
250,20,43925,2,0,L|213:27,1,31.25,2|0,3:2|0:0,0:0:0:0:
122,8,44156,2,0,L|85:15,1,31.25,2|0,0:0|0:0,0:0:0:0:
21,81,44387,5,2,0:0:0:0:
42,158,45081,1,0,0:0:0:0:
62,235,45775,1,0,0:0:0:0:
88,311,46469,5,0,0:0:0:0:
145,219,46700,1,2,0:0:0:0:
152,361,46932,1,0,0:0:0:0:
223,257,47164,1,2,0:0:0:0:
223,257,47279,1,0,0:0:0:0:
223,257,47395,1,2,0:0:0:0:
298,286,47626,1,2,0:0:0:0:
373,314,47857,1,0,0:0:0:0:
448,342,48088,5,2,0:0:0:0:
436,262,48782,1,0,0:0:0:0:
416,180,49476,1,0,0:0:0:0:
397,102,50170,1,0,0:0:0:0:
370,24,50632,5,0,0:0:0:0:
231,90,50864,1,2,0:0:0:0:
309,84,50979,2,0,L|229:72,1,62.5
35,3,51558,1,2,0:0:0:0:
15,82,51789,5,2,0:0:0:0:
90,59,52483,1,0,0:0:0:0:
172,40,53177,1,0,0:0:0:0:
246,22,53871,5,0,0:0:0:0:
376,52,54102,1,2,0:0:0:0:
229,101,54333,1,0,0:0:0:0:
364,137,54565,1,2,0:0:0:0:
364,137,54681,1,0,0:0:0:0:
364,137,54797,1,2,0:0:0:0:
347,216,55027,1,2,0:0:0:0:
335,294,55258,1,0,0:0:0:0:
319,374,55490,5,2,0:0:0:0:
240,353,56184,1,0,0:0:0:0:
160,338,56878,1,0,0:0:0:0:
84,322,57572,1,0,0:0:0:0:
5,306,58034,5,0,0:0:0:0:
89,187,58265,1,2,0:0:0:0:
23,222,58381,2,0,L|91:208,1,62.5
110,105,58728,2,0,P|147:125|164:154,1,62.5,2|0,0:0|0:0,0:0:0:0:
479,28,59191,6,0,P|418:33|367:85,1,125,2|0,0:0|0:0,0:0:0:0:
275,186,59885,2,0,P|262:125|288:70,1,125,2|0,0:0|0:0,0:0:0:0:
389,272,60578,2,0,L|325:260,1,62.5,2|0,0:0|0:0,0:0:0:0:
436,148,61041,5,0,0:0:0:0:
441,167,61272,1,0,0:0:0:0:
445,186,61504,1,0,0:0:0:0:
450,205,61735,1,0,0:0:0:0:
296,378,62892,6,0,L|166:355,1,125,2|0,0:0|0:0,0:0:0:0:
3,376,63585,2,0,P|31:313|89:283,1,125,2|0,0:0|0:0,0:0:0:0:
148,212,64279,2,0,P|167:245|166:284,1,62.5,2|0,0:0|0:0,0:0:0:0:
53,196,64742,5,0,0:0:0:0:
58,177,64973,1,0,0:0:0:0:
62,158,65205,1,0,0:0:0:0:
66,138,65436,1,0,0:0:0:0:
258,258,66130,2,0,L|263:295,1,31.25
466,303,66592,5,2,0:0:0:0:
436,384,66708,2,0,L|448:303,1,62.5
351,262,67055,2,0,P|388:246|417:249,1,62.5,0|2,0:0|0:0,0:0:0:0:
490,230,67402,1,0,0:0:0:0:
490,230,67518,1,0,0:0:0:0:
343,176,67749,1,0,0:0:0:0:
456,63,67980,1,2,0:0:0:0:
264,12,68443,5,0,0:0:0:0:
166,10,68674,1,0,0:0:0:0:
217,97,68905,1,0,0:0:0:0:
123,96,69137,1,0,0:0:0:0:
123,96,69252,1,0,0:0:0:0:
123,96,69368,2,0,P|98:128|92:165,1,62.5
119,214,69715,2,0,P|65:186|13:194,1,93.75
15,362,70293,6,0,L|58:353,1,31.25,2|0,0:0|0:0,0:0:0:0:
153,335,70525,2,0,L|196:326,1,31.25
283,304,70756,5,0,0:0:0:0:
394,377,70987,1,2,0:0:0:0:
394,377,71103,1,0,0:0:0:0:
394,377,71218,1,0,0:0:0:0:
512,333,71450,1,0,0:0:0:0:
410,260,71681,2,0,L|436:121,1,125,2|0,0:0|0:0,0:0:0:0:
121,15,73994,6,0,P|82:47|64:103,1,100,2|2,3:2|0:0,0:0:0:0:
0,195,74688,2,0,L|61:179,1,37.5000014305115,0|0,3:0|0:0,0:0:0:0:
136,172,74919,1,10,0:0:0:0:
189,151,75035,1,2,0:0:0:0:
132,157,75151,1,2,0:0:0:0:
9,332,75382,6,0,L|83:313,1,50,0|0,3:0|0:0,0:0:0:0:
101,383,75613,2,0,L|122:284,1,100,2|0,0:0|0:0,0:0:0:0:
201,258,76307,5,2,0:0:0:0:
471,306,76538,1,0,3:0:0:0:
303,198,76770,1,10,0:0:0:0:
291,273,76885,1,2,0:0:0:0:
280,349,77001,1,2,3:0:0:0:
395,240,77232,1,2,0:0:0:0:
377,331,77464,1,2,3:0:0:0:
201,258,77695,6,0,L|220:144,1,100,2|2,3:2|0:0,0:0:0:0:
90,109,78389,2,0,L|141:99,1,37.5000014305115,0|0,3:0|0:0,0:0:0:0:
215,40,78620,1,10,0:0:0:0:
261,43,78736,1,2,0:0:0:0:
217,54,78851,1,2,0:0:0:0:
307,161,79083,2,0,L|368:150,1,50,0|0,3:0|0:0,0:0:0:0:
375,147,79314,1,0,0:0:0:0:
425,67,79545,5,0,0:0:0:0:
385,241,79777,1,2,0:0:0:0:
425,67,80008,1,0,3:0:0:0:
385,241,80239,1,2,0:0:0:0:
192,161,80471,5,10,0:0:0:0:
115,196,80586,2,0,L|173:185,1,50,2|10,0:0|0:0,0:0:0:0:
241,276,80933,2,0,L|276:269,1,25,2|0,3:0|0:0,0:0:0:0:
356,358,81164,1,8,0:0:0:0:
427,340,81280,1,8,0:0:0:0:
501,326,81396,6,0,L|511:264,2,50,2|0|2,3:2|0:0|0:0,0:0:0:0:
385,241,82090,2,0,L|393:193,1,37.5000014305115,0|0,3:0|0:0,0:0:0:0:
481,136,82321,1,10,0:0:0:0:
501,92,82437,1,2,0:0:0:0:
498,139,82552,1,2,0:0:0:0:
325,115,82784,6,0,L|336:57,1,50,0|0,3:0|0:0,0:0:0:0:
416,28,83015,2,0,L|312:45,1,100,2|0,0:0|0:0,0:0:0:0:
207,0,83709,5,2,0:0:0:0:
164,225,83940,1,0,3:0:0:0:
6,39,84171,1,10,0:0:0:0:
78,54,84286,1,2,0:0:0:0:
152,68,84402,1,2,3:0:0:0:
11,128,84634,1,2,0:0:0:0:
105,146,84865,1,2,3:0:0:0:
9,292,85097,6,0,L|76:278,2,50,2|0|2,3:2|0:0|0:0,0:0:0:0:
230,350,85791,2,0,L|188:342,1,37.5000014305115,0|0,3:0|0:0,0:0:0:0:
147,241,86022,1,10,0:0:0:0:
203,241,86137,1,2,0:0:0:0:
151,257,86253,1,2,0:0:0:0:
383,277,86484,2,0,L|311:264,1,50,0|0,3:0|0:0,0:0:0:0:
322,265,86716,1,0,0:0:0:0:
299,173,86947,5,0,0:0:0:0:
260,350,87178,1,2,0:0:0:0:
299,173,87410,1,0,3:0:0:0:
260,350,87641,1,2,0:0:0:0:
147,241,87872,5,10,0:0:0:0:
75,290,87988,2,0,L|145:273,1,50,2|10,0:0|0:0,0:0:0:0:
43,171,88335,2,0,L|83:157,1,25,2|0,3:0|0:0,0:0:0:0:
12,46,88566,1,8,0:0:0:0:
89,27,88682,1,8,0:0:0:0:
175,10,88797,6,0,L|159:86,1,55.0000016784668,2|0,3:2|0:0,0:0:0:0:
256,155,89260,1,2,0:0:0:0:
265,150,89376,1,0,0:0:0:0:
274,143,89491,2,0,L|323:135,1,37.5000014305115,0|0,3:0|0:0,0:0:0:0:
425,170,89723,1,10,0:0:0:0:
481,172,89838,1,2,0:0:0:0:
427,187,89954,1,2,0:0:0:0:
251,284,90185,6,0,L|313:273,1,50,0|0,3:0|0:0,0:0:0:0:
238,381,90417,2,0,L|223:252,1,110.000003356934,2|0,0:0|0:0,0:0:0:0:
186,197,91110,5,2,0:0:0:0:
0,292,91342,1,0,3:0:0:0:
96,80,91573,1,10,0:0:0:0:
80,154,91689,1,2,0:0:0:0:
66,223,91804,2,0,L|25:214,2,27.5000008392334,2|0|2,3:0|0:0|0:0,0:0:0:0:
4,99,92267,1,2,3:0:0:0:
193,15,92498,6,0,L|200:90,2,55.0000016784668,2|0|2,3:2|0:0|0:0,0:0:0:0:
267,192,93192,2,0,L|279:138,1,37.5000014305115,0|0,3:0|0:0,0:0:0:0:
363,24,93424,1,10,0:0:0:0:
361,72,93539,1,2,0:0:0:0:
378,29,93655,1,2,0:0:0:0:
372,249,93886,2,0,L|385:185,1,50,0|0,3:0|0:0,0:0:0:0:
385,189,94117,1,0,0:0:0:0:
458,122,94349,5,0,0:0:0:0:
496,286,94580,1,2,0:0:0:0:
458,122,94811,1,0,3:0:0:0:
496,286,95043,1,2,0:0:0:0:
296,212,95274,5,10,0:0:0:0:
372,249,95390,2,0,L|299:235,1,55.0000016784668,2|10,0:0|0:0,0:0:0:0:
199,292,95737,2,0,L|161:284,1,27.5000008392334,2|0,3:0|0:0,0:0:0:0:
11,351,95968,1,8,0:0:0:0:
49,283,96084,1,8,0:0:0:0:
88,216,96199,6,0,L|80:141,1,55.0000016784668,2|0,3:2|0:0,0:0:0:0:
0,67,96662,1,2,0:0:0:0:
8,57,96777,1,0,0:0:0:0:
17,50,96893,2,0,L|57:40,1,37.5000014305115,0|0,3:0|0:0,0:0:0:0:
165,72,97124,1,10,0:0:0:0:
218,75,97240,1,2,0:0:0:0:
168,88,97356,1,2,0:0:0:0:
305,187,97587,6,0,L|314:130,1,50,0|0,3:0|0:0,0:0:0:0:
406,189,97818,2,0,L|294:208,1,110.000003356934,2|0,0:0|0:0,0:0:0:0:
195,185,98512,5,2,0:0:0:0:
260,370,98743,1,0,3:0:0:0:
36,322,98975,1,10,0:0:0:0:
106,304,99090,1,2,0:0:0:0:
181,289,99206,2,0,L|176:322,2,27.5000008392334,2|0|2,3:0|0:0|0:0,0:0:0:0:
84,214,99669,1,2,3:0:0:0:
260,370,99900,6,0,L|336:359,2,55.0000016784668,2|0|2,3:2|0:0|0:0,0:0:0:0:
461,330,100594,2,0,L|417:321,1,37.5000014305115,0|0,3:0|0:0,0:0:0:0:
284,239,100825,1,10,0:0:0:0:
332,260,100941,1,2,0:0:0:0:
282,258,101057,1,2,0:0:0:0:
488,223,101288,2,0,L|438:213,1,50,0|0,3:0|0:0,0:0:0:0:
428,211,101519,1,0,0:0:0:0:
340,154,101750,5,0,0:0:0:0:
489,93,101982,1,2,0:0:0:0:
296,77,102213,1,0,3:0:0:0:
449,15,102445,1,2,0:0:0:0:
165,45,102676,5,10,0:0:0:0:
252,5,102791,2,0,L|177:14,1,55.0000016784668,2|10,0:0|0:0,0:0:0:0:
93,94,103138,2,0,L|43:102,1,27.5000008392334,2|0,3:0|0:0,0:0:0:0:
0,236,103370,5,8,0:0:0:0:
82,218,103485,1,8,0:0:0:0:
110,211,103601,1,0,0:0:0:0:
512,316,107302,5,0,3:0:0:0:
401,264,107533,1,0,3:0:0:0:
501,203,107764,1,0,3:0:0:0:
501,203,107880,1,0,3:0:0:0:
501,203,107996,1,0,3:0:0:0:
416,374,108227,2,0,P|360:349|301:354,1,100,8|0,0:0|3:0,0:0:0:0:
5,347,109615,6,0,P|43:342|65:329,1,50,0|0,3:0|0:0,0:0:0:0:
149,383,110077,2,0,L|159:316,1,50,8|0,0:0|0:0,0:0:0:0:
106,279,110424,1,8,0:0:0:0:
33,60,110771,5,8,0:0:0:0:
28,95,110887,1,8,0:0:0:0:
21,130,111003,1,0,3:0:0:0:
101,172,111234,2,0,L|161:160,1,50,0|0,3:0|0:0,0:0:0:0:
239,109,111696,1,0,3:0:0:0:
239,109,111812,1,0,3:0:0:0:
239,109,111928,2,0,P|278:127|311:172,1,100,8|0,0:0|3:0,0:0:0:0:
429,361,112853,6,0,L|448:246,1,100,0|0,0:0|3:0,0:0:0:0:
460,188,113470,5,0,3:0:0:0:
475,261,113624,5,0,3:0:0:0:
437,190,113778,6,0,L|461:80,1,100,8|0,0:0|0:0,0:0:0:0:
295,21,114703,5,0,3:0:0:0:
201,34,114935,1,0,3:0:0:0:
110,57,115166,1,0,3:0:0:0:
110,57,115281,1,0,3:0:0:0:
110,57,115397,1,0,3:0:0:0:
13,124,115629,5,8,0:0:0:0:
109,145,115860,1,0,0:0:0:0:
201,167,116091,1,0,3:0:0:0:
298,189,116323,1,0,0:0:0:0:
112,288,116554,6,0,L|104:229,2,50,0|0|0,0:0|0:0|3:0,0:0:0:0:
133,370,117248,1,0,0:0:0:0:
295,276,117479,6,0,L|346:287,1,50,8|0,0:0|0:0,0:0:0:0:
422,268,117826,1,8,0:0:0:0:
428,294,117942,1,0,0:0:0:0:
506,63,118173,1,8,0:0:0:0:
430,30,118289,1,8,0:0:0:0:
389,98,118404,6,0,L|262:75,1,125,0|0,3:0|0:0,0:0:0:0:
90,4,119098,2,0,P|164:30|188:79,1,125,2|0,0:0|0:0,0:0:0:0:
217,137,119792,1,2,0:0:0:0:
0,307,120486,5,2,0:0:0:0:
132,255,120717,1,2,0:0:0:0:
31,178,120948,1,2,0:0:0:0:
98,379,121180,1,2,0:0:0:0:
139,364,121296,1,2,0:0:0:0:
184,346,121411,1,2,0:0:0:0:
265,311,121642,1,2,0:0:0:0:
350,277,121874,1,2,0:0:0:0:
438,291,122105,6,0,P|487:321|512:397,1,125,2|0,0:0|0:0,0:0:0:0:
350,277,122799,2,0,P|351:219|404:159,1,125,2|0,0:0|0:0,0:0:0:0:
465,204,123493,1,2,0:0:0:0:
345,0,123956,5,0,0:0:0:0:
260,71,124187,1,2,0:0:0:0:
158,28,124418,1,0,0:0:0:0:
158,28,124534,1,0,0:0:0:0:
158,28,124649,1,2,0:0:0:0:
122,143,124881,5,2,0:0:0:0:
44,138,124996,2,0,L|107:125,1,62.5,2|2,0:0|0:0,0:0:0:0:
202,148,125343,1,0,0:0:0:0:
178,255,125575,1,2,0:0:0:0:
158,377,125806,6,0,L|230:361,1,62.5,2|0,0:0|0:0,0:0:0:0:
384,324,126269,1,0,0:0:0:0:
444,357,126384,2,0,L|401:348,1,31.25
318,377,126616,2,0,P|297:328|325:213,1,156.25
262,2,127888,5,2,0:0:0:0:
240,111,128120,1,2,0:0:0:0:
219,219,128351,1,2,0:0:0:0:
199,340,128582,1,2,0:0:0:0:
243,331,128697,1,2,0:0:0:0:
293,323,128813,1,2,0:0:0:0:
313,229,129044,1,2,0:0:0:0:
334,135,129275,1,2,0:0:0:0:
351,52,129507,6,0,P|295:16|226:28,1,125,2|0,0:0|0:0,0:0:0:0:
5,74,130201,2,0,L|139:57,1,125,2|0,0:0|0:0,0:0:0:0:
203,96,130895,1,2,0:0:0:0:
29,203,131357,6,0,P|13:244|15:268,1,62.5,0|2,0:0|0:0,0:0:0:0:
78,353,131704,1,0,0:0:0:0:
98,329,131820,2,0,L|136:323,1,31.25
238,344,132051,2,0,L|276:338,1,31.25,2|0,0:0|0:0,0:0:0:0:
446,323,132282,5,2,0:0:0:0:
373,360,132398,2,0,L|446:346,1,62.5,2|2,0:0|0:0,0:0:0:0:
512,374,132745,1,10,0:0:0:0:
476,212,132976,1,0,0:0:0:0:
442,58,133208,6,0,P|392:25|335:21,1,100,2|2,3:2|0:0,0:0:0:0:
191,66,133902,2,0,L|249:57,1,37.5000014305115,0|0,3:0|0:0,0:0:0:0:
358,124,134133,1,10,0:0:0:0:
314,105,134249,1,2,0:0:0:0:
361,110,134364,1,2,0:0:0:0:
156,184,134595,6,0,L|218:174,1,50,0|0,3:0|0:0,0:0:0:0:
310,217,134827,2,0,L|205:200,1,100,2|0,0:0|0:0,0:0:0:0:
159,273,135521,5,2,0:0:0:0:
4,137,135752,1,0,3:0:0:0:
12,315,135983,1,10,0:0:0:0:
85,292,136098,1,2,0:0:0:0:
159,273,136214,1,2,3:0:0:0:
24,225,136446,1,2,0:0:0:0:
68,381,136677,1,2,3:0:0:0:
112,198,136908,6,0,L|134:79,1,100
355,37,137602,2,0,L|304:28,1,37.5000014305115,0|0,3:0|0:0,0:0:0:0:
202,6,137833,1,10,0:0:0:0:
217,51,137949,1,2,0:0:0:0:
214,3,138064,1,2,0:0:0:0:
394,139,138296,2,0,L|328:126,1,50,0|0,3:0|0:0,0:0:0:0:
335,127,138528,1,0,0:0:0:0:
507,72,138759,5,0,0:0:0:0:
477,251,138990,1,2,0:0:0:0:
507,72,139222,1,0,3:0:0:0:
477,251,139453,1,2,0:0:0:0:
335,127,139684,5,10,0:0:0:0:
407,161,139800,2,0,L|344:150,1,50,2|10,0:0|0:0,0:0:0:0:
278,269,140147,2,0,L|238:262,1,25,2|0,3:0|0:0,0:0:0:0:
177,377,140378,1,8,0:0:0:0:
98,352,140494,1,8,0:0:0:0:
19,327,140609,6,0,L|35:255,2,50,2|0|2,3:2|0:0|0:0,0:0:0:0:
9,134,141303,2,0,L|18:181,1,37.5000014305115,0|0,3:0|0:0,0:0:0:0:
132,271,141535,1,10,0:0:0:0:
123,218,141650,1,2,0:0:0:0:
146,265,141766,1,2,0:0:0:0:
186,31,141997,6,0,L|191:86,1,50,0|0,3:0|0:0,0:0:0:0:
113,117,142228,2,0,L|212:98,1,100,2|0,0:0|0:0,0:0:0:0:
276,22,142922,5,2,0:0:0:0:
455,173,143154,1,0,3:0:0:0:
370,2,143386,1,10,0:0:0:0:
355,71,143501,1,2,0:0:0:0:
340,142,143617,1,2,3:0:0:0:
455,173,143848,1,2,0:0:0:0:
483,59,144079,1,2,3:0:0:0:
422,283,144310,6,0,L|361:270,2,50,2|0|2,3:2|0:0|0:0,0:0:0:0:
281,379,145004,2,0,L|290:338,1,37.5000014305115,0|0,3:0|0:0,0:0:0:0:
228,201,145235,1,10,0:0:0:0:
250,244,145351,1,2,0:0:0:0:
243,198,145467,1,2,0:0:0:0:
95,384,145698,2,0,L|107:328,1,50,0|0,3:0|0:0,0:0:0:0:
107,324,145929,1,0,0:0:0:0:
23,295,146161,5,0,0:0:0:0:
60,132,146392,1,2,0:0:0:0:
23,295,146623,1,0,3:0:0:0:
60,132,146855,1,2,0:0:0:0:
243,198,147086,5,10,0:0:0:0:
159,243,147201,2,0,L|229:230,1,50,2|10,0:0|0:0,0:0:0:0:
197,124,147548,2,0,L|232:118,1,25,2|0,3:0|0:0,0:0:0:0:
259,9,147780,1,10,0:0:0:0:
341,25,147896,1,10,0:0:0:0:
424,42,148011,6,0,L|413:102,1,55.0000016784668,2|0,3:2|0:0,0:0:0:0:
501,219,148474,1,2,0:0:0:0:
495,208,148589,1,0,0:0:0:0:
489,200,148705,2,0,L|449:189,1,37.5000014305115,0|0,3:0|0:0,0:0:0:0:
340,187,148936,1,10,0:0:0:0:
298,169,149052,1,2,0:0:0:0:
342,170,149168,1,2,0:0:0:0:
423,373,149399,6,0,L|368:361,1,50,0|0,3:0|0:0,0:0:0:0:
251,360,149630,2,0,L|369:343,1,110.000003356934,2|0,0:0|0:0,0:0:0:0:
404,277,150324,5,2,0:0:0:0:
190,164,150555,1,0,3:0:0:0:
358,117,150787,1,10,0:0:0:0:
340,187,150903,1,2,0:0:0:0:
323,262,151018,2,0,L|287:253,2,27.5000008392334,2|0|2,3:0|0:0|0:0,0:0:0:0:
431,176,151481,1,2,3:0:0:0:
235,21,151712,6,0,L|223:88,2,55.0000016784668,2|0|2,3:2|0:0|0:0,0:0:0:0:
40,160,152406,2,0,L|49:116,1,37.5000014305115,0|0,3:0|0:0,0:0:0:0:
121,50,152637,1,10,0:0:0:0:
118,3,152753,1,2,0:0:0:0:
137,46,152868,1,2,0:0:0:0:
53,320,153100,2,0,L|63:265,1,50,0|0,3:0|0:0,0:0:0:0:
64,261,153331,1,0,0:0:0:0:
147,195,153562,5,0,0:0:0:0:
319,254,153794,1,2,0:0:0:0:
159,283,154025,1,0,3:0:0:0:
338,343,154257,1,2,0:0:0:0:
424,186,154488,5,10,0:0:0:0:
437,282,154603,2,0,L|450:214,1,55.0000016784668,2|10,0:0|0:0,0:0:0:0:
507,131,154950,2,0,L|516:85,1,27.5000008392334,2|0,3:0|0:0,0:0:0:0:
406,0,155181,1,10,0:0:0:0:
331,20,155297,1,10,0:0:0:0:
259,44,155413,6,0,L|267:105,1,55.0000016784668,2|0,3:2|0:0,0:0:0:0:
192,222,155875,1,2,0:0:0:0:
182,215,155991,1,0,0:0:0:0:
173,210,156107,2,0,L|180:167,1,37.5000014305115,0|0,3:0|0:0,0:0:0:0:
333,183,156338,1,10,0:0:0:0:
279,187,156454,1,2,0:0:0:0:
330,200,156569,1,2,0:0:0:0:
94,310,156801,6,0,L|106:247,1,50,0|0,3:0|0:0,0:0:0:0:
0,360,157032,2,0,L|112:337,1,110.000003356934,2|0,0:0|0:0,0:0:0:0:
205,379,157726,5,2,0:0:0:0:
179,172,157957,1,0,3:0:0:0:
370,312,158188,1,10,0:0:0:0:
295,288,158304,1,2,0:0:0:0:
222,269,158420,6,0,L|265:258,1,27.5000008392334,2|0,3:0|0:0,0:0:0:0:
359,236,158651,2,0,L|402:225,1,27.5000008392334,2|0,0:0|0:0,0:0:0:0:
482,205,158882,1,2,3:0:0:0:
299,52,159114,6,0,L|235:42,2,55.0000016784668,2|0|2,3:2|0:0|0:0,0:0:0:0:
102,13,159807,2,0,L|109:59,1,37.5000014305115,0|0,3:0|0:0,0:0:0:0:
166,169,160039,1,10,0:0:0:0:
181,123,160154,1,2,0:0:0:0:
179,172,160270,1,2,0:0:0:0:
18,138,160501,2,0,L|26:208,1,50,0|0,3:0|0:0,0:0:0:0:
27,206,160733,1,0,0:0:0:0:
47,315,160964,5,0,0:0:0:0:
224,273,161195,1,2,0:0:0:0:
401,231,161427,1,0,3:0:0:0:
224,273,161658,1,2,0:0:0:0:
327,106,161889,5,10,0:0:0:0:
253,152,162005,2,0,L|326:138,1,55.0000016784668,2|10,0:0|0:0,0:0:0:0:
365,25,162352,2,0,L|405:15,1,27.5000008392334,2|0,3:0|0:0,0:0:0:0:
503,99,162583,5,10,0:0:0:0:
492,175,162699,1,10,0:0:0:0:
480,252,162814,1,0,0:0:0:0:
310,376,163508,2,0,P|299:335|319:267,1,112.500004291535
365,208,164896,5,2,0:0:0:0:
266,185,165127,1,2,0:0:0:0:
169,169,165358,1,2,0:0:0:0:
42,261,165590,1,2,0:0:0:0:
78,253,165705,1,2,0:0:0:0:
115,246,165821,1,2,0:0:0:0:
169,169,166053,1,2,0:0:0:0:
88,114,166284,1,2,0:0:0:0:
115,246,166515,6,0,L|97:361,2,112.500004291535
176,377,168597,1,0,0:0:0:0:
256,361,169060,5,2,0:0:0:0:
336,345,169291,1,2,0:0:0:0:
328,330,169407,2,0,L|333:286,1,37.5000014305115,2|2,0:0|0:0,0:0:0:0:
375,50,169985,1,2,0:0:0:0:
442,83,170216,6,0,P|460:114|459:194,2,112.500004291535
378,125,172298,5,2,0:0:0:0:
360,227,172529,1,2,0:0:0:0:
343,334,172760,1,2,0:0:0:0:
200,268,172992,1,2,0:0:0:0:
236,260,173107,1,2,0:0:0:0:
273,253,173223,1,2,0:0:0:0:
290,171,173454,1,2,0:0:0:0:
360,227,173686,1,2,0:0:0:0:
211,143,173917,6,0,L|234:26,2,112.500004291535
158,24,175999,1,0,0:0:0:0:
87,54,176461,5,2,0:0:0:0:
88,138,176693,1,2,0:0:0:0:
14,133,176808,2,0,L|53:121,1,37.5000014305115,2|2,0:0|0:0,0:0:0:0:
362,48,177387,5,2,0:0:0:0:
