osu file format v14

[General]
AudioFilename: audio.mp3
AudioLeadIn: 0
PreviewTime: 45346
Countdown: 0
SampleSet: Normal
StackLeniency: 0.7
Mode: 1
LetterboxInBreaks: 0
WidescreenStoryboard: 1

[Editor]
Bookmarks: 45346,66680,88013,109346,141346
DistanceSpacing: 0.7
BeatDivisor: 3
GridSize: 32
TimelineZoom: 1.2

[Metadata]
Title:she grand on my finals till i hb3
TitleUnicode:she grand on my finals till i hb3
Artist:Sydosys
ArtistUnicode:Sydosys
Creator:Irone OSU
Version:Muzukashii
Source:osu!mania 4K Chinese National Cup 2023
Tags:[LS]Ham Sydosys mcnc 4k 2023 gf grand finals custom jersey bass baile remix electronic instrumental sv slowjam
BeatmapID:4290051
BeatmapSetID:2053499

[Difficulty]
HPDrainRate:6
CircleSize:2
OverallDifficulty:5
ApproachRate:2
SliderMultiplier:1.4
SliderTickRate:1

[Events]
//Background and Video events
0,0,"IMG_1197(20230811-230631).jpg",0,0
//Break Periods
//Storyboard Layer 0 (Background)
//Storyboard Layer 1 (Fail)
//Storyboard Layer 2 (Pass)
//Storyboard Layer 3 (Foreground)
//Storyboard Layer 4 (Overlay)
//Storyboard Sound Samples

[TimingPoints]
18,333.333333333333,4,1,0,20,1,0
18,-111.111111111111,4,1,0,20,0,0
351,-111.111111111111,4,1,0,21,0,0
685,-111.111111111111,4,1,0,22,0,0
1018,-111.111111111111,4,1,0,23,0,0
1351,-111.111111111111,4,1,0,24,0,0
1685,-111.111111111111,4,1,0,25,0,0
2018,-111.111111111111,4,1,0,26,0,0
2351,-111.111111111111,4,1,0,27,0,0
2685,-111.111111111111,4,1,0,28,0,0
3018,-111.111111111111,4,1,0,29,0,0
3351,-111.111111111111,4,1,0,30,0,0
3685,-111.111111111111,4,1,0,30,0,0
4018,-111.111111111111,4,1,0,31,0,0
4351,-111.111111111111,4,1,0,32,0,0
4685,-111.111111111111,4,1,0,33,0,0
5018,-111.111111111111,4,1,0,34,0,0
5351,-111.111111111111,4,1,0,35,0,0
5685,-111.111111111111,4,1,0,36,0,0
6018,-111.111111111111,4,1,0,37,0,0
6351,-111.111111111111,4,1,0,38,0,0
6685,-111.111111111111,4,1,0,39,0,0
7018,-111.111111111111,4,1,0,40,0,0
7351,-111.111111111111,4,1,0,41,0,0
7685,-111.111111111111,4,1,0,42,0,0
8018,-111.111111111111,4,1,0,43,0,0
8351,-111.111111111111,4,1,0,44,0,0
8685,-111.111111111111,4,1,0,45,0,0
9018,-111.111111111111,4,1,0,46,0,0
9351,-111.111111111111,4,1,0,47,0,0
9685,-111.111111111111,4,1,0,48,0,0
10018,-111.111111111111,4,1,0,49,0,0
10351,-111.111111111111,4,1,0,50,0,0
10685,-111.111111111111,4,1,0,50,0,0
11018,-111.111111111111,4,1,0,51,0,0
11351,-111.111111111111,4,1,0,52,0,0
11685,-111.111111111111,4,1,0,53,0,0
12018,-111.111111111111,4,1,0,54,0,0
12351,-111.111111111111,4,1,0,55,0,0
12685,-111.111111111111,4,1,0,56,0,0
13018,-111.111111111111,4,1,0,57,0,0
13351,-111.111111111111,4,1,0,58,0,0
13685,-111.111111111111,4,1,0,59,0,0
14018,-111.111111111111,4,1,0,60,0,0
14351,-111.111111111111,4,1,0,61,0,0
14685,-111.111111111111,4,1,0,62,0,0
15018,-111.111111111111,4,1,0,63,0,0
15351,-111.111111111111,4,1,0,64,0,0
15685,-111.111111111111,4,1,0,65,0,0
16018,-111.111111111111,4,1,0,66,0,0
16351,-111.111111111111,4,1,0,67,0,0
16685,-111.111111111111,4,1,0,68,0,0
17018,-111.111111111111,4,1,0,69,0,0
17351,-111.111111111111,4,1,0,70,0,0
17685,-111.111111111111,4,1,0,70,0,0
18018,-111.111111111111,4,1,0,71,0,0
18351,-111.111111111111,4,1,0,72,0,0
18685,-111.111111111111,4,1,0,73,0,0
19018,-111.111111111111,4,1,0,74,0,0
19351,-111.111111111111,4,1,0,75,0,0
19685,-111.111111111111,4,1,0,76,0,0
20018,-111.111111111111,4,1,0,77,0,0
20351,-111.111111111111,4,1,0,78,0,0
20685,-111.111111111111,4,1,0,79,0,0
21017,-111.111111111111,4,1,0,80,0,0
21351,-100,4,1,0,80,0,0
42679,-100,4,1,0,40,0,0
42767,-105.263157894737,4,1,0,40,0,0
44679,-105.26316,4,1,0,40,0,0
44762,-104.59242,4,1,0,45,0,0
44845,-103.925964,4,1,0,50,0,0
44929,-103.25578,4,1,0,55,0,0
45012,-102.59784,4,1,0,60,0,0
45095,-101.94408,4,1,0,65,0,0
45179,-101.28669,4,1,0,70,0,0
45262,-100.64128,4,1,0,75,0,0
45345,-100.020905,4,1,0,80,0,0
66684,-100,4,1,0,90,0,1
88017,-100,4,1,0,40,0,0
108017,-100,4,1,0,40,0,0
108350,-100,4,1,0,40,0,0
108684,-100,4,1,0,40,0,0
109017,-100,4,1,0,40,0,0
109323,-100,4,1,0,80,0,0
140128,-100,4,1,0,70,0,0
140350,-100,4,1,0,60,0,0
140684,-100,4,1,0,50,0,0
141017,-100,4,1,0,40,0,0
141350,-100,4,1,0,30,0,0

[HitObjects]
256,181,21351,5,0,0:0:0:0:
256,181,21517,1,2,0:0:0:0:
256,181,21601,1,2,0:0:0:0:
256,181,21851,1,2,0:0:0:0:
256,181,22017,1,0,0:0:0:0:
256,181,22101,1,0,0:0:0:0:
256,181,22184,1,0,0:0:0:0:
256,181,22351,1,2,0:0:0:0:
256,181,22684,1,0,0:0:0:0:
256,181,22851,1,2,0:0:0:0:
256,181,22934,1,2,0:0:0:0:
256,181,23184,1,2,0:0:0:0:
256,181,23350,1,0,0:0:0:0:
256,181,23434,1,0,0:0:0:0:
256,181,23517,1,0,0:0:0:0:
256,181,23684,1,2,0:0:0:0:
256,181,24017,1,2,0:0:0:0:
256,181,24184,1,0,0:0:0:0:
256,181,24267,1,0,0:0:0:0:
256,181,24517,1,0,0:0:0:0:
256,181,24684,1,2,0:0:0:0:
256,181,24767,1,2,0:0:0:0:
256,181,24850,1,2,0:0:0:0:
256,181,25017,1,0,0:0:0:0:
256,181,25350,1,2,0:0:0:0:
256,181,25517,1,0,0:0:0:0:
256,181,25600,1,0,0:0:0:0:
256,181,25850,1,0,0:0:0:0:
256,181,26017,1,2,0:0:0:0:
256,181,26350,1,0,0:0:0:0:
256,181,26684,1,2,0:0:0:0:
256,181,27100,1,2,0:0:0:0:
256,181,27184,1,2,0:0:0:0:
256,181,27350,1,0,0:0:0:0:
256,181,27517,1,0,0:0:0:0:
256,181,27600,1,0,0:0:0:0:
256,181,27684,1,0,0:0:0:0:
256,181,27850,1,0,0:0:0:0:
256,181,28017,1,2,0:0:0:0:
256,181,28434,1,2,0:0:0:0:
256,181,28517,1,2,0:0:0:0:
256,181,28684,1,0,0:0:0:0:
256,181,28850,1,0,0:0:0:0:
256,181,28934,1,0,0:0:0:0:
256,181,29017,1,0,0:0:0:0:
256,181,29184,1,2,0:0:0:0:
256,181,29350,1,0,0:0:0:0:
256,181,29767,1,0,0:0:0:0:
256,181,29850,1,0,0:0:0:0:
256,181,30017,1,0,0:0:0:0:
256,181,30184,1,2,0:0:0:0:
256,181,30267,1,2,0:0:0:0:
256,181,30350,1,2,0:0:0:0:
256,181,30517,1,2,0:0:0:0:
256,181,30684,1,0,0:0:0:0:
256,181,31100,1,0,0:0:0:0:
256,181,31184,1,0,0:0:0:0:
256,181,31350,1,0,0:0:0:0:
256,181,31517,1,2,0:0:0:0:
256,181,32017,1,2,0:0:0:0:
256,181,32184,1,0,0:0:0:0:
256,181,32267,1,0,0:0:0:0:
256,181,32517,1,0,0:0:0:0:
256,181,32684,1,2,0:0:0:0:
256,181,32767,1,2,0:0:0:0:
256,181,32850,1,2,0:0:0:0:
256,181,33017,1,0,0:0:0:0:
256,181,33350,1,2,0:0:0:0:
256,181,33517,1,0,0:0:0:0:
256,181,33600,1,0,0:0:0:0:
256,181,33850,1,0,0:0:0:0:
256,181,34017,1,2,0:0:0:0:
256,181,34100,1,2,0:0:0:0:
256,181,34184,1,2,0:0:0:0:
256,181,34350,1,0,0:0:0:0:
256,181,34684,1,0,0:0:0:0:
256,181,34850,1,2,0:0:0:0:
256,181,34934,1,2,0:0:0:0:
256,181,35184,1,2,0:0:0:0:
256,181,35350,1,0,0:0:0:0:
256,181,35434,1,0,0:0:0:0:
256,181,35517,1,0,0:0:0:0:
256,181,35684,1,2,0:0:0:0:
256,181,36017,1,0,0:0:0:0:
256,181,36184,1,2,0:0:0:0:
256,181,36267,1,2,0:0:0:0:
256,181,36517,1,2,0:0:0:0:
256,181,36684,1,0,0:0:0:0:
256,181,37017,1,2,0:0:0:0:
256,181,37350,1,0,0:0:0:0:
256,181,37767,1,2,0:0:0:0:
256,181,37850,1,2,0:0:0:0:
256,181,38017,1,0,0:0:0:0:
256,181,38184,1,0,0:0:0:0:
256,181,38267,1,0,0:0:0:0:
256,181,38350,1,0,0:0:0:0:
256,181,38517,1,2,0:0:0:0:
256,181,38684,1,0,0:0:0:0:
256,181,39100,1,2,0:0:0:0:
256,181,39184,1,2,0:0:0:0:
256,181,39350,1,0,0:0:0:0:
256,181,39517,1,0,0:0:0:0:
256,181,39600,1,0,0:0:0:0:
256,181,39684,1,0,0:0:0:0:
256,181,39850,1,2,0:0:0:0:
256,181,40017,1,2,0:0:0:0:
256,181,40434,1,0,0:0:0:0:
256,181,40517,1,0,0:0:0:0:
256,181,40684,1,0,0:0:0:0:
256,181,40850,1,2,0:0:0:0:
256,181,40934,1,2,0:0:0:0:
256,181,41017,1,2,0:0:0:0:
256,181,41184,1,0,0:0:0:0:
256,181,41350,1,2,0:0:0:0:
256,181,41767,1,0,0:0:0:0:
256,181,41850,1,0,0:0:0:0:
256,181,42017,1,0,0:0:0:0:
256,181,42184,1,0,0:0:0:0:
256,181,42684,1,0,0:0:0:0:
254,177,43017,1,2,0:0:0:0:
254,177,43184,1,0,0:0:0:0:
254,177,43350,1,0,0:0:0:0:
254,177,43684,1,2,0:0:0:0:
254,177,44017,1,0,0:0:0:0:
254,177,44184,1,0,0:0:0:0:
254,177,44350,1,2,0:0:0:0:
254,177,44517,1,0,0:0:0:0:
254,177,44684,1,0,0:0:0:0:
254,177,44767,1,0,0:0:0:0:
254,177,44850,1,0,0:0:0:0:
254,177,45017,1,2,0:0:0:0:
254,177,45100,1,2,0:0:0:0:
254,177,45184,1,2,0:0:0:0:
254,177,45350,1,0,0:0:0:0:
257,175,45684,1,2,0:0:0:0:
257,175,46017,1,0,0:0:0:0:
257,175,46267,1,0,0:0:0:0:
257,175,46350,1,2,0:0:0:0:
257,175,46517,1,0,0:0:0:0:
257,175,46684,1,0,0:0:0:0:
257,175,47017,1,2,0:0:0:0:
257,175,47350,1,0,0:0:0:0:
257,175,47684,1,2,0:0:0:0:
257,175,47850,1,0,0:0:0:0:
257,175,47934,1,0,0:0:0:0:
257,175,48017,1,0,0:0:0:0:
257,175,48350,1,2,0:0:0:0:
257,175,48684,1,0,0:0:0:0:
257,175,48934,1,0,0:0:0:0:
257,175,49017,1,2,0:0:0:0:
257,175,49184,1,0,0:0:0:0:
257,175,49350,1,0,0:0:0:0:
257,175,49684,1,2,0:0:0:0:
257,175,50017,1,0,0:0:0:0:
257,175,50350,1,2,0:0:0:0:
257,175,50517,1,0,0:0:0:0:
257,175,50600,1,0,0:0:0:0:
254,177,50684,1,0,0:0:0:0:
257,175,51017,1,2,0:0:0:0:
257,175,51184,1,0,0:0:0:0:
257,175,51350,1,0,0:0:0:0:
257,175,51600,1,0,0:0:0:0:
257,175,51684,1,2,0:0:0:0:
257,175,51850,1,0,0:0:0:0:
257,175,52017,1,0,0:0:0:0:
257,175,52350,1,2,0:0:0:0:
257,175,52684,1,0,0:0:0:0:
257,175,53017,1,2,0:0:0:0:
257,175,53184,1,0,0:0:0:0:
257,175,53267,1,0,0:0:0:0:
257,175,53350,1,0,0:0:0:0:
257,175,53684,1,2,0:0:0:0:
257,175,53850,1,0,0:0:0:0:
257,175,54017,1,0,0:0:0:0:
257,175,54267,1,0,0:0:0:0:
257,175,54350,1,2,0:0:0:0:
257,175,54517,1,0,0:0:0:0:
257,175,54684,1,0,0:0:0:0:
257,175,55017,1,2,0:0:0:0:
257,175,55350,1,0,0:0:0:0:
257,175,55684,1,2,0:0:0:0:
257,175,55850,1,0,0:0:0:0:
257,175,55934,1,0,0:0:0:0:
254,177,56017,1,0,0:0:0:0:
257,175,56350,1,2,0:0:0:0:
257,175,56517,1,0,0:0:0:0:
257,175,56684,1,2,0:0:0:0:
257,175,56934,1,0,0:0:0:0:
257,175,57017,1,2,0:0:0:0:
257,175,57184,1,0,0:0:0:0:
257,175,57350,1,2,0:0:0:0:
257,175,57684,1,2,0:0:0:0:
257,175,58017,1,2,0:0:0:0:
257,175,58350,1,2,0:0:0:0:
257,175,58517,1,0,0:0:0:0:
257,175,58600,1,0,0:0:0:0:
257,175,58684,1,0,0:0:0:0:
257,175,59017,1,2,0:0:0:0:
257,175,59184,1,0,0:0:0:0:
257,175,59350,1,2,0:0:0:0:
257,175,59600,1,0,0:0:0:0:
257,175,59684,1,2,0:0:0:0:
257,175,59850,1,0,0:0:0:0:
257,175,60017,1,2,0:0:0:0:
257,175,60350,1,2,0:0:0:0:
257,175,60684,1,2,0:0:0:0:
257,175,61017,1,2,0:0:0:0:
257,175,61100,1,2,0:0:0:0:
257,175,61184,1,2,0:0:0:0:
254,177,61350,1,0,0:0:0:0:
257,175,61684,1,0,0:0:0:0:
257,175,61850,1,2,0:0:0:0:
257,175,61934,1,2,0:0:0:0:
257,175,62017,1,2,0:0:0:0:
257,175,62267,1,0,0:0:0:0:
257,175,62350,1,2,0:0:0:0:
257,175,62517,1,0,0:0:0:0:
257,175,62684,1,2,0:0:0:0:
257,175,63017,1,2,0:0:0:0:
257,175,63350,1,2,0:0:0:0:
257,175,63684,1,2,0:0:0:0:
257,175,63850,1,0,0:0:0:0:
257,175,63934,1,0,0:0:0:0:
257,175,64017,1,0,0:0:0:0:
257,175,64350,1,0,0:0:0:0:
257,175,64517,1,2,0:0:0:0:
257,175,64600,1,2,0:0:0:0:
257,175,64684,1,2,0:0:0:0:
257,175,64934,1,0,0:0:0:0:
257,175,65017,1,2,0:0:0:0:
257,175,65184,1,0,0:0:0:0:
257,175,65350,1,2,0:0:0:0:
257,175,65684,1,2,0:0:0:0:
257,175,66017,1,2,0:0:0:0:
257,175,66350,1,2,0:0:0:0:
257,175,66434,1,2,0:0:0:0:
257,175,66517,1,2,0:0:0:0:
254,177,66684,1,0,0:0:0:0:
254,177,66850,1,0,0:0:0:0:
257,175,67017,1,2,0:0:0:0:
257,175,67184,1,2,0:0:0:0:
257,175,67350,1,0,0:0:0:0:
257,175,67684,1,2,0:0:0:0:
257,175,67850,1,0,0:0:0:0:
257,175,68017,1,2,0:0:0:0:
257,175,68100,1,2,0:0:0:0:
257,175,68184,1,2,0:0:0:0:
257,175,68350,1,0,0:0:0:0:
257,175,68517,1,2,0:0:0:0:
257,175,68684,1,0,0:0:0:0:
257,175,69017,1,2,0:0:0:0:
257,175,69184,1,0,0:0:0:0:
257,175,69267,1,0,0:0:0:0:
257,175,69350,1,0,0:0:0:0:
257,175,69517,1,0,0:0:0:0:
257,175,69684,1,2,0:0:0:0:
257,175,70017,1,0,0:0:0:0:
257,175,70350,1,2,0:0:0:0:
257,175,70684,1,0,0:0:0:0:
257,175,70767,1,0,0:0:0:0:
257,175,70850,1,0,0:0:0:0:
257,175,71017,1,2,0:0:0:0:
257,175,71184,1,2,0:0:0:0:
257,175,71350,1,0,0:0:0:0:
257,175,71684,1,2,0:0:0:0:
257,175,71767,1,2,0:0:0:0:
257,175,71850,1,2,0:0:0:0:
254,177,72017,1,0,0:0:0:0:
254,177,72184,1,2,0:0:0:0:
254,177,72350,1,0,0:0:0:0:
254,177,72517,1,0,0:0:0:0:
254,177,72684,1,2,0:0:0:0:
257,175,73017,1,0,0:0:0:0:
257,175,73184,1,2,0:0:0:0:
257,175,73350,1,0,0:0:0:0:
257,175,73434,1,0,0:0:0:0:
257,175,73517,1,0,0:0:0:0:
257,175,73684,1,2,0:0:0:0:
257,175,73850,1,0,0:0:0:0:
257,175,74017,1,2,0:0:0:0:
257,175,74350,1,0,0:0:0:0:
257,175,74517,1,2,0:0:0:0:
257,175,74600,1,2,0:0:0:0:
257,175,74684,1,2,0:0:0:0:
257,175,74850,1,2,0:0:0:0:
257,175,75017,1,0,0:0:0:0:
257,175,75350,1,2,0:0:0:0:
257,175,75684,1,0,0:0:0:0:
257,175,76017,1,0,0:0:0:0:
257,175,76184,1,0,0:0:0:0:
257,175,76350,1,2,0:0:0:0:
257,175,76517,1,2,0:0:0:0:
257,175,76684,1,0,0:0:0:0:
257,175,76767,1,0,0:0:0:0:
257,175,76850,1,0,0:0:0:0:
257,175,77017,1,2,0:0:0:0:
257,175,77100,1,2,0:0:0:0:
257,175,77184,1,2,0:0:0:0:
254,177,77350,1,0,0:0:0:0:
254,177,77517,1,0,0:0:0:0:
257,175,77684,1,2,0:0:0:0:
254,177,77767,1,2,0:0:0:0:
254,177,77850,1,2,0:0:0:0:
254,177,78017,1,2,0:0:0:0:
257,175,78350,1,2,0:0:0:0:
257,175,78517,1,0,0:0:0:0:
257,175,78684,1,2,0:0:0:0:
257,175,78767,1,2,0:0:0:0:
257,175,78850,1,2,0:0:0:0:
257,175,79017,1,0,0:0:0:0:
257,175,79184,1,0,0:0:0:0:
257,175,79350,1,2,0:0:0:0:
257,175,79684,1,2,0:0:0:0:
257,175,79850,1,0,0:0:0:0:
257,175,79934,1,0,0:0:0:0:
257,175,80017,1,0,0:0:0:0:
257,175,80184,1,0,0:0:0:0:
257,175,80350,1,2,0:0:0:0:
257,175,80684,1,2,0:0:0:0:
257,175,81017,1,2,0:0:0:0:
257,175,81350,1,2,0:0:0:0:
257,175,81434,1,2,0:0:0:0:
257,175,81517,1,2,0:0:0:0:
257,175,81684,1,0,0:0:0:0:
257,175,81767,1,0,0:0:0:0:
257,175,81850,1,0,0:0:0:0:
257,175,82017,1,2,0:0:0:0:
257,175,82350,1,0,0:0:0:0:
257,175,82434,1,0,0:0:0:0:
257,175,82517,1,0,0:0:0:0:
254,177,82684,1,2,0:0:0:0:
254,177,82850,1,2,0:0:0:0:
254,177,83017,1,0,0:0:0:0:
254,177,83100,1,0,0:0:0:0:
254,177,83184,1,0,0:0:0:0:
254,177,83350,1,0,0:0:0:0:
257,175,83684,1,0,0:0:0:0:
257,175,83850,1,2,0:0:0:0:
257,175,84017,1,0,0:0:0:0:
257,175,84100,1,0,0:0:0:0:
257,175,84184,1,0,0:0:0:0:
257,175,84350,1,2,0:0:0:0:
257,175,84517,1,2,0:0:0:0:
257,175,84684,1,0,0:0:0:0:
257,175,85017,1,0,0:0:0:0:
257,175,85184,1,2,0:0:0:0:
257,175,85267,1,2,0:0:0:0:
257,175,85350,1,2,0:0:0:0:
257,175,85517,1,2,0:0:0:0:
257,175,85684,1,0,0:0:0:0:
257,175,86017,1,0,0:0:0:0:
257,175,86350,1,0,0:0:0:0:
257,175,86684,1,0,0:0:0:0:
257,175,86767,1,0,0:0:0:0:
257,175,86850,1,0,0:0:0:0:
257,175,87017,1,2,0:0:0:0:
257,175,87100,1,2,0:0:0:0:
257,175,87184,1,2,0:0:0:0:
257,175,87350,1,0,0:0:0:0:
257,175,87517,1,2,0:0:0:0:
257,175,87600,1,2,0:0:0:0:
257,175,87684,1,2,0:0:0:0:
257,175,87850,1,0,0:0:0:0:
256,192,88017,12,0,108017,0:0:0:0:
256,179,109350,5,0,0:0:0:0:
256,179,109573,1,2,0:0:0:0:
256,179,109795,1,2,0:0:0:0:
256,179,110017,1,0,0:0:0:0:
256,179,110128,1,2,0:0:0:0:
256,179,110573,1,0,0:0:0:0:
256,179,110684,1,0,0:0:0:0:
256,179,110906,1,2,0:0:0:0:
256,179,111128,1,2,0:0:0:0:
256,179,111350,1,0,0:0:0:0:
256,179,111684,1,0,0:0:0:0:
256,179,112017,1,0,0:0:0:0:
256,179,112239,1,2,0:0:0:0:
256,179,112462,1,2,0:0:0:0:
256,179,112684,1,0,0:0:0:0:
256,179,112795,1,2,0:0:0:0:
256,179,113239,1,0,0:0:0:0:
256,179,113350,1,0,0:0:0:0:
256,179,113573,1,2,0:0:0:0:
256,179,113795,1,2,0:0:0:0:
256,179,114017,1,0,0:0:0:0:
256,179,114350,1,0,0:0:0:0:
256,179,114684,1,0,0:0:0:0:
256,179,115128,1,2,0:0:0:0:
256,179,115350,1,0,0:0:0:0:
256,179,115462,1,2,0:0:0:0:
256,179,115684,1,0,0:0:0:0:
256,179,116017,1,0,0:0:0:0:
256,179,116239,1,2,0:0:0:0:
256,179,116462,1,2,0:0:0:0:
256,179,116684,1,0,0:0:0:0:
256,179,116795,1,2,0:0:0:0:
256,179,117017,1,2,0:0:0:0:
256,179,117239,1,0,0:0:0:0:
256,179,117350,1,0,0:0:0:0:
256,179,117795,1,2,0:0:0:0:
256,179,118017,1,0,0:0:0:0:
256,179,118128,1,2,0:0:0:0:
256,179,118350,1,2,0:0:0:0:
256,179,118795,1,2,0:0:0:0:
256,179,119017,1,0,0:0:0:0:
256,179,119128,1,2,0:0:0:0:
256,179,119350,1,0,0:0:0:0:
256,179,119462,1,2,0:0:0:0:
256,179,120017,1,0,0:0:0:0:
256,179,120239,1,2,0:0:0:0:
256,179,120462,1,2,0:0:0:0:
256,179,120684,1,0,0:0:0:0:
256,179,120795,1,2,0:0:0:0:
256,179,121239,1,0,0:0:0:0:
256,179,121350,1,0,0:0:0:0:
256,179,121573,1,2,0:0:0:0:
256,179,121795,1,2,0:0:0:0:
256,179,122017,1,0,0:0:0:0:
256,179,122350,1,0,0:0:0:0:
256,179,122684,1,0,0:0:0:0:
256,179,122906,1,2,0:0:0:0:
256,179,123128,1,2,0:0:0:0:
256,179,123350,1,0,0:0:0:0:
256,179,123462,1,2,0:0:0:0:
256,179,123906,1,0,0:0:0:0:
256,179,124017,1,0,0:0:0:0:
256,179,124239,1,2,0:0:0:0:
256,179,124462,1,2,0:0:0:0:
256,179,124684,1,0,0:0:0:0:
256,179,125017,1,0,0:0:0:0:
256,179,125350,1,0,0:0:0:0:
256,179,125795,1,2,0:0:0:0:
256,179,126017,1,0,0:0:0:0:
256,179,126128,1,2,0:0:0:0:
256,179,126350,1,0,0:0:0:0:
256,179,126684,1,0,0:0:0:0:
256,179,126906,1,2,0:0:0:0:
256,179,127128,1,2,0:0:0:0:
256,179,127350,1,0,0:0:0:0:
256,179,127462,1,2,0:0:0:0:
256,179,127684,1,2,0:0:0:0:
256,179,127906,1,0,0:0:0:0:
256,179,128017,1,0,0:0:0:0:
256,179,128462,1,2,0:0:0:0:
256,179,128684,1,0,0:0:0:0:
256,179,128795,1,2,0:0:0:0:
256,179,129017,1,2,0:0:0:0:
256,179,129462,1,2,0:0:0:0:
256,179,129684,1,0,0:0:0:0:
256,179,129795,1,2,0:0:0:0:
256,179,130017,1,0,0:0:0:0:
256,179,130128,1,2,0:0:0:0:
256,179,130684,1,0,0:0:0:0:
256,179,130906,1,2,0:0:0:0:
256,179,131239,1,0,0:0:0:0:
256,179,131350,1,0,0:0:0:0:
256,179,131684,1,0,0:0:0:0:
256,179,132017,1,2,0:0:0:0:
256,179,132239,1,0,0:0:0:0:
256,179,132350,1,0,0:0:0:0:
256,179,132684,1,2,0:0:0:0:
256,179,132906,1,2,0:0:0:0:
256,179,133128,1,2,0:0:0:0:
256,179,133350,1,0,0:0:0:0:
256,179,133906,1,0,0:0:0:0:
256,179,134017,1,0,0:0:0:0:
256,179,134239,1,0,0:0:0:0:
256,179,134573,1,0,0:0:0:0:
256,179,134684,1,0,0:0:0:0:
256,179,134906,1,0,0:0:0:0:
256,179,135017,1,0,0:0:0:0:
256,179,135350,1,2,0:0:0:0:
256,179,135462,1,2,0:0:0:0:
256,179,135573,1,2,0:0:0:0:
256,179,135795,1,0,0:0:0:0:
256,179,136017,1,0,0:0:0:0:
256,179,136573,1,0,0:0:0:0:
256,179,136684,1,0,0:0:0:0:
256,179,136906,1,0,0:0:0:0:
256,179,137017,1,0,0:0:0:0:
256,179,137239,1,2,0:0:0:0:
256,179,137573,1,0,0:0:0:0:
256,179,137684,1,0,0:0:0:0:
256,179,137906,1,0,0:0:0:0:
256,179,138017,1,0,0:0:0:0:
256,179,138239,1,2,0:0:0:0:
256,179,138462,1,2,0:0:0:0:
256,179,138684,1,2,0:0:0:0:
256,179,138906,1,0,0:0:0:0:
256,179,139128,1,0,0:0:0:0:
256,179,139350,1,0,0:0:0:0:
256,179,139462,1,0,0:0:0:0:
256,179,139684,1,0,0:0:0:0:
256,179,139906,1,0,0:0:0:0:
256,192,140128,12,0,141351,0:0:0:0:
