osu file format v14

[General]
AudioFilename: audio.mp3
AudioLeadIn: 0
PreviewTime: 99850
Countdown: 0
SampleSet: Drum
StackLeniency: 0.5
Mode: 0
LetterboxInBreaks: 0
WidescreenStoryboard: 0

[Editor]
DistanceSpacing: 1.2
BeatDivisor: 4
GridSize: 32
TimelineZoom: 2.3

[Metadata]
Title:Calm Down Juliet (What A Drama Queen)
TitleUnicode:Calm Down Juliet (What A Drama Queen)
Artist:SycAmour
ArtistUnicode:SycAmour
Creator:Maaadbot
Version:Plastic Love
Source:
Tags:album indulgence a saga of lights rock vocal male banter kirishima- Pepekcz english
BeatmapID:3011287
BeatmapSetID:1466264

[Difficulty]
HPDrainRate:5.6
CircleSize:4
OverallDifficulty:9.5
ApproachRate:9.6
SliderMultiplier:2.02
SliderTickRate:1

[Events]
//Background and Video events
0,0,"bg.jpg",0,0
//Break Periods
2,243752,245307
//Storyboard Layer 0 (Background)
//Storyboard Layer 1 (Fail)
//Storyboard Layer 2 (Pass)
//Storyboard Layer 3 (Foreground)
//Storyboard Layer 4 (Overlay)
//Storyboard Sound Samples

[TimingPoints]
1290,566.037735849057,4,3,1,55,1,0
10346,-75.7575757575758,4,3,1,55,0,0
10771,-98.0392156862744,4,3,1,5,0,0
10912,-121.951219512195,4,3,1,55,0,0
18695,-121.951219512195,4,3,1,5,0,0
18837,-121.951219512195,4,3,1,55,0,0
19261,-121.951219512195,4,3,1,5,0,0
19403,-75.7575757575758,4,3,1,65,0,0
20535,-98.0392156862745,4,3,1,65,0,0
21525,-98.0392156862745,4,3,1,5,0,0
21667,-75.7575757575758,4,3,1,65,0,0
22799,-98.0392156862745,4,3,1,65,0,0
23790,-98.0392156862745,4,3,1,5,0,0
23931,-75.7575757575758,4,3,1,65,0,0
24356,-75.7575757575758,4,3,1,5,0,0
24497,-75.7575757575758,4,3,1,65,0,0
24922,-75.7575757575758,4,3,1,5,0,0
25063,-75.7575757575758,4,3,1,65,0,0
25488,-75.7575757575758,4,3,1,5,0,0
25629,-75.7575757575758,4,3,1,65,0,0
26054,-75.7575757575758,4,3,1,5,0,0
26195,-75.7575757575758,4,3,1,65,0,0
28318,-75.7575757575758,4,3,1,5,0,0
28459,-75.7575757575758,4,3,1,65,0,0
30157,-75.7575757575758,4,3,1,5,0,0
30299,-75.7575757575758,4,3,1,65,0,0
30582,-75.7575757575758,4,3,1,5,0,0
30723,-75.7575757575758,4,3,1,65,0,0
32422,-75.7575757575758,4,3,1,5,0,0
32563,-75.7575757575758,4,3,1,65,0,0
32846,-75.7575757575758,4,3,1,5,0,0
32988,-75.7575757575758,4,3,1,65,0,0
34686,-75.7575757575758,4,3,1,5,0,0
34827,-75.7575757575758,4,3,1,65,0,0
35110,-75.7575757575758,4,3,1,5,0,0
35252,-75.7575757575758,4,3,1,65,0,0
36950,-75.7575757575758,4,3,9,65,0,0
37516,-75.7575757575758,4,3,1,65,0,0
39214,-75.7575757575758,4,3,1,5,0,0
39356,-75.7575757575758,4,3,1,65,0,0
39639,-75.7575757575758,4,3,1,5,0,0
39780,-75.7575757575758,4,3,1,65,0,0
41478,-75.7575757575758,4,3,1,5,0,0
41620,-75.7575757575758,4,3,1,65,0,0
41903,-75.7575757575758,4,3,1,5,0,0
42044,-75.7575757575758,4,3,1,65,0,0
43742,-75.7575757575758,4,3,1,5,0,0
43884,-75.7575757575758,4,3,1,65,0,0
44167,-75.7575757575758,4,3,1,5,0,0
44308,-75.7575757575758,4,3,1,65,0,0
44591,-75.7575757575758,4,3,1,5,0,0
45299,-75.7575757575758,4,3,1,85,0,0
45440,283.018867924528,4,3,1,85,1,0
46147,-100,4,3,9,85,0,0
46430,-89.2857142857143,4,3,1,85,0,1
47633,-89.2857142857143,4,3,1,5,0,1
47704,-89.2857142857143,4,3,1,85,0,1
49897,-89.2857142857143,4,3,1,5,0,1
49968,-89.2857142857143,4,3,1,85,0,1
55133,-89.2857142857143,4,3,9,85,0,1
55487,-89.2857142857143,4,3,1,85,0,1
62633,-89.2857142857143,4,3,1,5,0,1
62704,-89.2857142857143,4,3,1,85,0,1
64685,-89.2857142857143,4,3,1,85,0,0
68647,-89.2857142857143,4,3,9,85,0,0
69213,-89.2857142857143,4,3,1,85,0,0
69496,-89.2857142857143,4,3,1,5,0,0
69638,-89.2857142857143,4,3,1,85,0,0
69921,-89.2857142857143,4,3,1,5,0,0
70062,-89.2857142857143,4,3,1,85,0,0
70274,-89.2857142857143,4,3,1,5,0,0
70345,-89.2857142857143,4,3,1,85,0,0
70770,-89.2857142857143,4,3,1,5,0,0
70911,-89.2857142857143,4,3,1,85,0,0
71760,-89.2857142857143,4,3,1,5,0,0
71902,-89.2857142857143,4,3,1,85,0,0
72185,-89.2857142857143,4,3,1,5,0,0
72326,-89.2857142857143,4,3,1,85,0,0
72539,-89.2857142857143,4,3,1,5,0,0
72609,-89.2857142857143,4,3,1,85,0,0
73034,-89.2857142857143,4,3,1,5,0,0
73175,-89.2857142857143,4,3,9,85,0,0
73741,-108.695652173913,4,3,1,65,0,0
73954,-108.695652173913,4,3,1,5,0,0
74024,-108.695652173913,4,3,1,65,0,0
74166,-108.695652173913,4,3,1,5,0,0
74237,-108.695652173913,4,3,1,65,0,0
76218,-108.695652173913,4,3,1,5,0,0
76289,-108.695652173913,4,3,1,65,0,0
76430,-108.695652173913,4,3,1,5,0,0
76501,-108.695652173913,4,3,1,65,0,0
78270,-161.290322580645,4,3,1,65,0,0
80463,-161.290322580645,4,3,1,5,0,0
80534,-108.695652173913,4,3,1,65,0,0
80746,-108.695652173913,4,3,1,5,0,0
80817,-108.695652173913,4,3,1,65,0,0
80958,-108.695652173913,4,3,1,5,0,0
81029,-108.695652173913,4,3,1,65,0,0
82421,-108.695652173913,4,3,9,65,0,0
82799,566.037735849057,4,3,1,45,1,0
82799,-138.888888888889,4,3,1,45,0,0
98648,-108.695652173913,4,3,1,45,0,0
99780,283.018867924528,4,3,1,85,1,0
100487,-100,4,3,9,85,0,0
100770,-89.2857142857143,4,3,1,85,0,1
101973,-89.2857142857143,4,3,1,5,0,1
102044,-89.2857142857143,4,3,1,85,0,1
104237,-89.2857142857143,4,3,1,5,0,1
104308,-89.2857142857143,4,3,1,85,0,1
109473,-89.2857142857143,4,3,9,85,0,1
109827,-89.2857142857143,4,3,1,85,0,1
116973,-89.2857142857143,4,3,1,5,0,1
117044,-89.2857142857143,4,3,1,85,0,1
119025,-89.2857142857143,4,3,1,85,0,0
122987,-89.2857142857143,4,3,9,85,0,0
123553,-89.2857142857143,4,3,1,85,0,0
127138,-89.2857142857143,4,3,9,85,0,0
127515,-89.2857142857143,4,3,1,85,0,0
127704,-89.2857142857143,4,3,9,85,0,0
128081,566.037735849057,4,3,1,45,1,0
128081,-138.888888888889,4,3,1,45,0,0
137137,-75.7575757575758,4,3,1,65,0,0
138269,-98.0392156862745,4,3,1,65,0,0
139401,-75.7575757575758,4,3,1,65,0,0
140533,-98.0392156862745,4,3,1,65,0,0
141665,-75.7575757575758,4,3,1,65,0,0
142090,-75.7575757575758,4,3,1,5,0,0
142231,-75.7575757575758,4,3,1,65,0,0
142656,-75.7575757575758,4,3,1,5,0,0
142797,-75.7575757575758,4,3,1,65,0,0
143222,-75.7575757575758,4,3,1,5,0,0
143364,-75.7575757575758,4,3,1,65,0,0
143788,-75.7575757575758,4,3,1,5,0,0
143930,-75.7575757575758,4,3,1,65,0,0
144213,-75.7575757575758,4,3,1,5,0,0
144354,-238.095238095238,4,3,1,65,0,0
145203,-75.7575757575758,4,3,1,5,0,0
146194,-238.095238095238,4,3,1,65,0,0
146335,-75.7575757575758,4,3,1,5,0,0
147326,-75.7575757575758,4,3,1,65,0,0
148316,-75.7575757575758,4,3,1,5,0,0
148458,283.018867924528,4,3,1,75,1,0
148458,-108.695652173913,4,3,1,75,0,0
149165,-108.695652173913,4,3,1,5,0,0
149307,-108.695652173913,4,3,1,75,0,0
149448,-108.695652173913,4,3,1,5,0,0
149590,-108.695652173913,4,3,1,75,0,0
150085,-108.695652173913,4,3,1,5,0,0
150156,-108.695652173913,4,3,1,75,0,0
150509,-108.695652173913,4,3,1,5,0,0
150580,-108.695652173913,4,3,1,75,0,0
151217,-108.695652173913,4,3,1,5,0,0
151288,-192.307692307692,4,3,1,75,0,0
151783,-192.307692307692,4,3,1,5,0,0
151854,-108.695652173913,4,3,1,75,0,0
152066,-108.695652173913,4,3,1,5,0,0
152137,-161.290322580645,4,3,1,75,0,0
152349,-161.290322580645,4,3,1,5,0,0
152420,-108.695652173913,4,3,1,75,0,0
152632,-108.695652173913,4,3,1,5,0,0
152703,-161.290322580645,4,3,1,75,0,0
152915,-161.290322580645,4,3,1,5,0,0
152986,-108.695652173913,4,3,1,75,0,0
153198,-108.695652173913,4,3,1,5,0,0
153269,-108.695652173913,4,3,1,75,0,0
153623,-108.695652173913,4,3,1,5,0,0
153693,-108.695652173913,4,3,1,75,0,0
153835,-161.290322580645,4,3,1,75,0,0
154047,-161.290322580645,4,3,1,5,0,0
154118,-108.695652173913,4,3,1,75,0,0
154259,-108.695652173913,4,3,1,5,0,0
154401,-108.695652173913,4,3,1,75,0,0
154755,-108.695652173913,4,3,1,5,0,0
154825,-108.695652173913,4,3,1,75,0,0
155179,-108.695652173913,4,3,1,5,0,0
155250,-108.695652173913,4,3,1,75,0,0
156028,-108.695652173913,4,3,1,5,0,0
156099,-108.695652173913,4,3,1,75,0,0
156877,-108.695652173913,4,3,1,5,0,0
156948,-108.695652173913,4,3,1,75,0,0
157868,-108.695652173913,4,3,1,5,0,0
157939,-108.695652173913,4,3,1,75,0,0
158222,-108.695652173913,4,3,1,5,0,0
158363,-108.695652173913,4,3,1,75,0,0
158505,-108.695652173913,4,3,1,5,0,0
158646,-108.695652173913,4,3,1,75,0,0
159141,-108.695652173913,4,3,1,5,0,0
159212,-108.695652173913,4,3,1,75,0,0
159566,-108.695652173913,4,3,1,5,0,0
159637,-108.695652173913,4,3,1,75,0,0
160840,-108.695652173913,4,3,1,5,0,0
160910,-108.695652173913,4,3,1,75,0,0
161123,-108.695652173913,4,3,1,5,0,0
161193,-161.290322580645,4,3,1,75,0,0
161406,-161.290322580645,4,3,1,5,0,0
161476,-108.695652173913,4,3,1,75,0,0
161689,-108.695652173913,4,3,1,5,0,0
161759,-161.290322580645,4,3,1,75,0,0
161972,-161.290322580645,4,3,1,5,0,0
162042,-108.695652173913,4,3,1,75,0,0
162255,-108.695652173913,4,3,1,5,0,0
162325,-108.695652173913,4,3,1,75,0,0
162679,-108.695652173913,4,3,1,5,0,0
162750,-108.695652173913,4,3,1,75,0,0
163104,-108.695652173913,4,3,1,5,0,0
163174,-108.695652173913,4,3,1,75,0,0
163316,-108.695652173913,4,3,1,5,0,0
163458,-108.695652173913,4,3,1,75,0,0
163811,-108.695652173913,4,3,1,5,0,0
163882,-108.695652173913,4,3,1,75,0,0
164236,-108.695652173913,4,3,1,5,0,0
164307,-108.695652173913,4,3,1,75,0,0
165085,-108.695652173913,4,3,1,5,0,0
165156,-108.695652173913,4,3,1,75,0,0
165934,-108.695652173913,4,3,1,5,0,0
166005,-108.695652173913,4,3,1,75,0,0
168693,-108.695652173913,4,3,1,5,0,0
168835,-108.695652173913,4,3,1,75,0,0
169118,-108.695652173913,4,3,9,75,0,0
169967,-108.695652173913,4,3,1,75,0,0
170179,-108.695652173913,4,3,1,5,0,0
170250,-108.695652173913,4,3,1,75,0,0
171028,-108.695652173913,4,3,1,5,0,0
171099,-108.695652173913,4,3,1,75,0,0
175486,-108.695652173913,4,3,1,5,0,0
175627,-161.290322580645,4,3,1,75,0,0
177821,-161.290322580645,4,3,1,5,0,0
177891,-108.695652173913,4,3,1,75,0,0
178174,-108.695652173913,4,3,9,75,0,0
179024,-108.695652173913,4,3,1,75,0,0
179236,-108.695652173913,4,3,1,5,0,0
179307,-108.695652173913,4,3,1,75,0,0
180085,-108.695652173913,4,3,1,5,0,0
180156,-108.695652173913,4,3,1,75,0,0
183835,-108.695652173913,4,3,1,5,0,0
183976,-108.695652173913,4,3,1,75,0,0
185179,-108.695652173913,4,3,1,5,0,0
185250,-108.695652173913,4,3,1,75,0,0
185745,-108.695652173913,4,3,1,5,0,0
185816,-108.695652173913,4,3,1,75,0,0
186028,-108.695652173913,4,3,1,5,0,0
186099,-108.695652173913,4,3,1,75,0,0
186453,-108.695652173913,4,3,1,5,0,0
186524,-108.695652173913,4,3,1,75,0,0
187443,-108.695652173913,4,3,1,5,0,0
187514,-108.695652173913,4,3,1,75,0,0
187868,-108.695652173913,4,3,1,5,0,0
187939,-108.695652173913,4,3,1,75,0,0
188434,-108.695652173913,4,3,1,5,0,0
188505,-108.695652173913,4,3,1,75,0,0
188717,-108.695652173913,4,3,1,5,0,0
188788,-108.695652173913,4,3,1,75,0,0
189707,-108.695652173913,4,3,1,5,0,0
189778,-108.695652173913,4,3,1,75,0,0
190274,-108.695652173913,4,3,1,5,0,0
190344,-108.695652173913,4,3,1,75,0,0
190557,-108.695652173913,4,3,1,5,0,0
190627,-108.695652173913,4,3,1,75,0,0
190981,-108.695652173913,4,3,1,5,0,0
191052,-108.695652173913,4,3,1,75,0,0
191406,-108.695652173913,4,3,1,5,0,0
191476,-108.695652173913,4,3,1,75,0,0
191972,-108.695652173913,4,3,1,5,0,0
192042,-108.695652173913,4,3,1,75,0,0
192821,-108.695652173913,4,3,1,5,0,0
192891,-108.695652173913,4,3,1,75,0,0
193245,-108.695652173913,4,3,1,5,0,0
193316,-108.695652173913,4,3,1,75,0,0
194236,-108.695652173913,4,3,1,5,0,0
194307,-108.695652173913,4,3,1,75,0,0
194802,-108.695652173913,4,3,1,5,0,0
194873,-108.695652173913,4,3,1,75,0,0
195085,-108.695652173913,4,3,1,5,0,0
195156,-108.695652173913,4,3,1,75,0,0
195509,-108.695652173913,4,3,1,5,0,0
195580,-108.695652173913,4,3,1,75,0,0
195934,-108.695652173913,4,3,1,5,0,0
196005,-108.695652173913,4,3,1,75,0,0
196500,-108.695652173913,4,3,1,5,0,0
196571,-108.695652173913,4,3,1,75,0,0
196924,-108.695652173913,4,3,1,5,0,0
196995,-108.695652173913,4,3,1,75,0,0
197349,-108.695652173913,4,3,1,5,0,0
197420,-108.695652173913,4,3,1,75,0,0
197774,-108.695652173913,4,3,1,5,0,0
197844,-108.695652173913,4,3,1,75,0,0
197986,-108.695652173913,4,3,9,75,0,0
198269,-108.695652173913,4,3,1,75,0,0
198764,-108.695652173913,4,3,1,5,0,0
198835,-108.695652173913,4,3,1,75,0,0
199330,-108.695652173913,4,3,1,5,0,0
199401,-108.695652173913,4,3,1,75,0,0
199613,-108.695652173913,4,3,1,5,0,0
199684,-108.695652173913,4,3,1,75,0,0
200038,-108.695652173913,4,3,1,5,0,0
200108,-108.695652173913,4,3,1,75,0,0
200462,-108.695652173913,4,3,1,5,0,0
200533,-108.695652173913,4,3,1,75,0,0
200674,-108.695652173913,4,3,1,5,0,0
200816,-108.695652173913,4,3,1,75,0,0
201807,-108.695652173913,4,3,1,5,0,0
201948,-108.695652173913,4,3,1,75,0,0
202231,-108.695652173913,4,3,9,75,0,0
202797,-108.695652173913,4,3,1,75,0,0
202939,-108.695652173913,4,3,1,5,0,0
203080,-108.695652173913,4,3,1,75,0,0
204212,-108.695652173913,4,3,9,75,0,0
204778,-108.695652173913,4,3,1,75,0,0
204920,-89.2857142857143,4,3,1,85,0,1
206123,-89.2857142857143,4,3,1,5,0,1
206193,-89.2857142857143,4,3,1,85,0,1
208387,-89.2857142857143,4,3,1,5,0,1
208457,-89.2857142857143,4,3,1,85,0,1
213623,-89.2857142857143,4,3,9,85,0,1
213976,-89.2857142857143,4,3,1,85,0,1
221123,-89.2857142857143,4,3,1,5,0,1
221193,-89.2857142857143,4,3,1,85,0,1
223174,-108.695652173913,4,3,1,75,0,0
223670,-108.695652173913,4,3,1,5,0,0
223741,-108.695652173913,4,3,1,75,0,0
224519,-108.695652173913,4,3,1,5,0,0
224590,-108.695652173913,4,3,1,75,0,0
224802,-108.695652173913,4,3,1,5,0,0
224873,-108.695652173913,4,3,1,75,0,0
225651,-108.695652173913,4,3,1,5,0,0
225722,-108.695652173913,4,3,1,75,0,0
226783,-108.695652173913,4,3,1,5,0,0
226854,-108.695652173913,4,3,1,75,0,0
227066,-108.695652173913,4,3,1,5,0,0
227137,-108.695652173913,4,3,1,75,0,0
227420,-108.695652173913,4,3,9,75,0,0
227703,-108.695652173913,4,3,1,75,0,0
228057,-108.695652173913,4,3,1,5,0,0
228127,-108.695652173913,4,3,1,75,0,0
229047,-108.695652173913,4,3,1,5,0,0
229118,-108.695652173913,4,3,1,75,0,0
229330,-108.695652173913,4,3,1,5,0,0
229401,-108.695652173913,4,3,1,75,0,0
229755,-108.695652173913,4,3,1,5,0,0
229825,-108.695652173913,4,3,1,75,0,0
230321,-108.695652173913,4,3,1,5,0,0
230391,-108.695652173913,4,3,1,75,0,0
230887,-108.695652173913,4,3,1,5,0,0
230957,-108.695652173913,4,3,1,75,0,0
231453,-108.695652173913,4,3,1,5,0,0
231524,-108.695652173913,4,3,1,75,0,0
232090,-89.2857142857143,4,3,1,85,0,1
239094,-89.2857142857143,4,3,1,5,0,1
239165,-89.2857142857143,4,3,1,85,0,1
241288,-121.951219512195,4,3,1,55,0,0
243481,-121.951219512195,4,3,1,5,0,0
243552,-121.951219512195,4,3,1,55,0,0
248080,-98.0392156862745,4,3,1,75,0,0
248575,-98.0392156862745,4,3,1,5,0,0
248646,-98.0392156862745,4,3,1,75,0,0
249141,-98.0392156862745,4,3,1,5,0,0
249212,-98.0392156862745,4,3,1,75,0,0
249778,-238.095238095238,4,3,1,75,0,0
250274,-238.095238095238,4,3,1,5,0,0
250344,-81.9672131147541,4,3,1,95,0,1
254307,-81.9672131147541,4,3,9,95,0,1
254873,-81.9672131147541,4,3,1,95,0,1
258552,-81.9672131147541,4,3,9,95,0,1
258835,-81.9672131147541,4,3,1,95,0,1
259401,-98.0392156862745,4,3,1,75,0,0
259755,-98.0392156862745,4,3,1,5,0,0
259825,-98.0392156862745,4,3,1,75,0,0
260179,-98.0392156862745,4,3,1,5,0,0
260250,-98.0392156862745,4,3,1,75,0,0
260462,-98.0392156862745,4,3,1,5,0,0
260533,-98.0392156862745,4,3,1,75,0,0
262019,-98.0392156862745,4,3,1,5,0,0
262090,-98.0392156862745,4,3,1,75,0,0
262443,-98.0392156862745,4,3,1,5,0,0
262514,-98.0392156862745,4,3,1,75,0,0
262726,-98.0392156862745,4,3,1,5,0,0
262797,-98.0392156862745,4,3,1,75,0,0
262939,-98.0392156862745,4,3,9,75,0,0
263363,-98.0392156862745,4,3,1,75,0,0
264283,-98.0392156862745,4,3,1,5,0,0
264354,-98.0392156862745,4,3,1,75,0,0
264707,-98.0392156862745,4,3,1,5,0,0
264778,-98.0392156862745,4,3,1,75,0,0
264991,-98.0392156862745,4,3,1,5,0,0
265061,-98.0392156862745,4,3,1,75,0,0
266547,-98.0392156862745,4,3,1,5,0,0
266618,-98.0392156862745,4,3,1,75,0,0
266972,-98.0392156862745,4,3,1,5,0,0
267042,-98.0392156862745,4,3,1,75,0,0
267255,-98.0392156862745,4,3,1,5,0,0
267325,-98.0392156862745,4,3,1,75,0,0
267821,-98.0392156862745,4,3,1,5,0,0
267891,-98.0392156862745,4,3,1,75,0,0
268387,-98.0392156862745,4,3,1,5,0,0
268451,566.037735849057,4,3,1,45,1,0
268451,-138.888888888889,4,3,1,45,0,0
271847,-138.888888888889,4,3,1,5,0,0

[Colours]
Combo1 : 107,107,107
Combo2 : 34,108,183
Combo3 : 135,184,233
Combo4 : 200,200,200

[HitObjects]
122,80,10346,6,0,B|208:67|208:67|242:79|242:79|319:69,1,199.979999389709,6|0,3:0|3:0,3:0:0:0:
369,1,10912,2,0,B|401:28|401:28|403:74,1,82.8200012637329,2|2,3:0|3:0,3:0:0:0:
484,65,11478,2,0,B|487:106|487:106|456:140,1,82.8200012637329,2|2,3:0|3:0,3:0:0:0:
512,196,12044,2,0,B|484:227|484:227|438:229,1,82.8200012637329,2|2,3:0|3:0,3:0:0:0:
353,166,12610,6,0,B|321:184|321:184|318:188|318:188|270:218,1,82.8200012637329,2|2,3:0|3:0,3:0:0:0:
212,128,13176,2,0,B|203:163|203:163|203:168|203:168|190:223,1,82.8200012637329,2|2,3:0|3:0,3:0:0:0:
85,200,13742,2,0,B|103:231|103:231|107:234|107:234|137:282,1,82.8200012637329,2|2,3:0|3:0,3:0:0:0:
46,340,14308,2,0,B|81:348|81:348|86:348|86:348|141:361,1,82.8200012637329,2|2,3:0|3:0,3:0:0:0:
283,210,14874,6,0,B|241:245|241:245|265:294|265:294|264:305|264:305|298:376,1,165.640002527466,2|2,3:0|3:0,3:0:0:0:
374,249,15723,1,2,3:0:0:0:
374,249,16006,2,0,B|390:210|390:210|376:168,1,82.8200012637329,2|2,3:0|3:0,3:0:0:0:
225,68,16573,2,0,B|250:101|250:101|294:110,1,82.8200012637329,2|2,3:0|3:0,3:0:0:0:
419,15,17139,6,0,B|427:50|427:50|427:55|427:55|440:110,1,82.8200012637329,2|2,3:0|3:0,3:0:0:0:
272,190,17705,2,0,B|280:154|280:154|280:149|280:149|293:94,1,82.8200012637329,2|2,3:0|3:0,3:0:0:0:
121,11,18271,2,0,P|80:48|99:109,1,124.230001895599,2|0,3:0|3:0,3:0:0:0:
170,176,18837,2,0,P|158:121|96:107,1,124.230001895599,2|0,3:0|3:0,3:0:0:0:
25,304,19403,6,0,B|86:321|140:297|140:297|172:309|172:309|225:269|297:289,1,266.639999186279,6|10,3:0|3:0,3:0:0:0:
348,120,20252,1,2,3:0:0:0:
348,120,20535,2,0,P|298:152|298:199,1,103.020000628784,2|2,3:0|3:0,3:0:0:0:
473,269,21101,2,0,B|452:241|422:248|422:248|330:308,1,154.530000943176,8|0,3:0|3:0,3:0:0:0:
242,361,21667,6,0,B|189:313|120:356|120:356|120:361|120:361|60:406|-8:360,1,266.639999186279,6|10,3:0|3:0,3:0:0:0:
62,208,22516,1,2,3:0:0:0:
62,208,22799,2,0,B|105:241|105:241|99:298,1,103.020000628784,2|2,3:0|3:0,3:0:0:0:
203,57,23365,2,0,B|163:89|163:89|177:129|177:129|177:136|177:136|200:201,1,154.530000943176,10|0,3:0|3:0,3:0:0:0:
289,258,23931,6,0,P|362:206|464:283,1,199.979999389709,6|0,3:0|3:0,3:0:0:0:
371,297,24497,2,0,B|386:224|386:224|375:177|375:177|392:73,1,199.979999389709,6|0,3:0|3:0,3:0:0:0:
438,36,25063,2,0,B|468:83|468:83|308:56,1,199.979999389709,6|0,3:0|3:0,3:0:0:0:
264,0,25629,2,0,B|311:28|311:28|288:87|288:87|294:94|294:94|266:181,1,199.979999389709,6|0,3:0|3:0,3:0:0:0:
233,235,26195,5,6,0:0:0:0:
256,192,27327,12,0,28318,3:0:0:0:
460,101,28459,6,0,B|365:25|232:60|277:346|167:388|63:315,1,533.279998372559,6|8,3:0|3:0,3:0:0:0:
0,234,29874,2,0,B|63:220|63:220|73:223|73:223|141:208,1,133.31999959314,2|0,3:0|3:0,3:0:0:0:
187,143,30299,2,0,B|123:129|123:129|113:132|113:132|45:117,1,133.31999959314,2|0,3:0|3:0,3:0:0:0:
2,55,30723,6,0,B|79:-51|386:-17|161:236|449:220,1,533.279998372559,2|8,3:0|3:0,3:0:0:0:
418,357,32139,2,0,B|355:338|355:338|349:342|349:342|277:321,1,133.31999959314,2|0,3:0|3:0,3:0:0:0:
221,261,32563,2,0,B|284:242|284:242|290:246|290:246|362:225,1,133.31999959314,2|0,3:0|3:0,3:0:0:0:
296,153,32988,6,0,B|251:82|150:78|89:145|90:222|123:268|123:268|159:326|126:399|48:407|6:366,1,533.279998372559,2|8,3:0|3:0,3:0:0:0:
224,371,34403,2,0,B|287:352|287:352|293:356|293:356|365:335,1,133.31999959314,2|0,3:0|3:0,3:0:0:0:
419,275,34827,2,0,B|356:256|356:256|350:260|350:260|278:239,1,133.31999959314,2|0,3:0|3:0,3:0:0:0:
249,178,35252,5,2,3:0:0:0:
221,155,35346,1,8,3:0:0:0:
182,146,35440,1,8,3:0:0:0:
141,165,35535,1,8,3:0:0:0:
116,206,35629,1,8,3:0:0:0:
66,224,35723,1,8,3:0:0:0:
11,202,35818,5,0,3:0:0:0:
63,177,35912,1,0,3:0:0:0:
108,204,36006,1,0,3:0:0:0:
122,251,36101,1,8,3:0:0:0:
127,294,36195,1,8,3:0:0:0:
150,326,36290,1,8,3:0:0:0:
184,334,36384,5,0,3:0:0:0:
207,301,36478,1,8,3:0:0:0:
244,277,36573,1,8,3:0:0:0:
292,272,36667,1,8,3:0:0:0:
334,304,36761,1,8,3:0:0:0:
391,314,36856,1,8,3:0:0:0:
444,282,36950,2,0,P|459:256|456:223,1,44.4399998643799,0|0,3:0|3:0,3:0:0:0:
313,145,37139,2,0,P|328:170|357:185,1,44.4399998643799,0|0,3:0|3:0,3:0:0:0:
497,100,37327,1,0,3:0:0:0:
448,41,37422,1,0,3:0:0:0:
373,25,37516,6,0,B|220:32|185:118|237:208|90:247|16:210|16:210|67:226|116:192,1,533.279998372559,6|8,3:0|3:0,3:0:0:0:
15,0,38931,2,0,B|32:60|32:60|30:72|30:72|50:146,1,133.31999959314,2|0,3:0|3:0,3:0:0:0:
136,124,39356,2,0,B|119:184|119:184|121:196|121:196|101:270,1,133.31999959314,2|0,3:0|3:0,3:0:0:0:
45,326,39780,6,0,B|137:391|247:349|202:63|335:28|430:104,1,533.279998372559,6|8,3:0|3:0,3:0:0:0:
512,214,41195,2,0,B|452:231|452:231|440:228|440:228|366:249,1,133.31999959314,2|0,3:0|3:0,3:0:0:0:
387,336,41620,2,0,B|327:319|327:319|315:321|315:321|241:301,1,133.31999959314,2|0,3:0|3:0,3:0:0:0:
186,373,42044,6,0,B|138:343|125:280|159:230|205:220|205:220|300:217|351:76|208:-6|118:79|134:156,1,533.279998372559,6|8,3:0|3:0,3:0:0:0:
302,187,43459,2,0,B|319:127|319:127|316:115|316:115|337:41,1,133.31999959314,6|0,3:0|3:0,3:0:0:0:
406,3,43884,2,0,B|423:63|423:63|420:75|420:75|441:149,1,133.31999959314,2|0,3:0|3:0,3:0:0:0:
509,179,44308,6,0,B|492:239|492:239|495:251|495:251|474:325,1,133.31999959314,6|0,3:0|3:0,3:0:0:0:
271,247,45299,5,0,0:0:0:0:
312,156,45440,1,8,0:0:0:0:
320,353,45581,1,0,0:0:0:0:
266,60,45723,1,8,0:0:0:0:
327,384,45864,1,0,0:0:0:0:
30,115,46006,1,8,0:0:0:0:
62,77,46076,1,8,0:0:0:0:
110,60,46147,1,0,0:0:0:0:
159,68,46218,1,0,0:0:0:0:
198,99,46289,2,0,P|211:130|209:161,1,50.5
65,361,46430,6,0,B|36:339|1:348|1:348|21:295|113:283|166:334,1,226.240002761719,6|0,0:0|0:0,0:0:0:0:
406,354,46855,2,0,B|437:343|455:318|455:318|431:341|399:337,1,113.120001380859,10|0,0:0|0:0,0:0:0:0:
195,237,47138,1,2,0:0:0:0:
322,384,47279,1,0,0:0:0:0:
401,148,47421,2,0,B|433:106|424:52|424:52|418:93|381:114,1,169.680002071289,10|0,0:0|0:0,0:0:0:0:
305,125,47704,6,0,P|294:71|345:43,1,113.120001380859,2|0,0:0|0:0,0:0:0:0:
280,288,47987,1,8,0:0:0:0:
174,77,48128,1,0,0:0:0:0:
374,245,48270,2,0,B|422:230|422:230|432:233|432:233|487:214,1,113.120001380859,2|0,0:0|0:0,0:0:0:0:
228,11,48553,1,8,0:0:0:0:
79,311,48694,6,0,B|45:303|32:276|32:276|77:251|125:272|112:288|151:317|205:293,1,226.240002761719,6|0,0:0|0:0,0:0:0:0:
395,186,49119,1,10,0:0:0:0:
170,106,49260,1,2,0:0:0:0:
425,187,49402,1,2,0:0:0:0:
187,298,49543,1,2,0:0:0:0:
407,92,49685,2,0,B|430:83|453:92|453:92|429:58|362:64|341:118,1,169.680002071289,10|0,0:0|0:0,0:0:0:0:
314,173,49968,5,2,0:0:0:0:
156,0,50109,1,0,0:0:0:0:
62,282,50251,2,0,B|50:229|50:229|51:222|51:222|37:158,1,113.120001380859,8|0,0:0|0:0,0:0:0:0:
266,31,50534,1,2,0:0:0:0:
179,266,50675,1,0,0:0:0:0:
37,47,50817,1,8,0:0:0:0:
314,173,50958,6,0,B|360:199|425:145|354:101|423:39|489:76,1,226.240002761719,6|0,0:0|0:0,0:0:0:0:
392,291,51383,1,8,0:0:0:0:
171,118,51524,2,0,B|164:87|132:70|132:70|192:60|238:115|217:193,1,226.240002761719
28,305,51949,2,0,B|38:254|38:254|37:246|37:246|52:177,1,113.120001380859,8|0,0:0|0:0,0:0:0:0:
247,375,52232,5,0,0:0:0:0:
265,135,52373,1,0,0:0:0:0:
157,285,52515,1,8,0:0:0:0:
40,47,52656,2,0,B|54:15|99:-1|99:-1|161:23|161:23|163:26|163:26|240:56,1,226.240002761719
405,143,53081,1,8,0:0:0:0:
151,286,53223,6,0,B|213:238|275:307|250:341|294:384|360:355,1,226.240002761719,6|0,0:0|0:0,0:0:0:0:
245,135,53647,1,10,0:0:0:0:
69,377,53789,2,0,B|56:276|56:276|60:263|60:263|44:131,1,226.240002761719,6|0,0:0|0:0,0:0:0:0:
248,0,54213,1,10,0:0:0:0:
352,292,54355,6,0,B|278:265|278:265|269:268|269:268|187:236|187:236|246:212,1,226.240002761719,6|2,0:0|0:0,0:0:0:0:
512,99,54779,1,10,0:0:0:0:
311,369,54921,1,0,0:0:0:0:
177,59,55062,1,10,0:0:0:0:
230,48,55132,1,0,0:0:0:0:
267,88,55203,1,0,0:0:0:0:
255,140,55274,1,0,0:0:0:0:
204,159,55345,2,0,L|139:145,1,56.5600006904297
445,0,55487,6,0,B|503:30|503:30|484:100|484:100|486:109|486:109|460:205,1,226.240002761719,6|0,0:0|0:0,0:0:0:0:
220,362,55911,1,8,0:0:0:0:
473,272,56053,1,0,0:0:0:0:
193,173,56194,1,0,0:0:0:0:
447,262,56336,1,0,0:0:0:0:
191,367,56477,2,0,B|158:374|126:361|126:361|155:366|186:350,1,113.120001380859,8|0,0:0|0:0,0:0:0:0:
299,102,56760,6,0,B|310:155|310:155|310:165|310:165|325:228,1,113.120001380859,2|0,0:0|0:0,0:0:0:0:
27,152,57043,2,0,B|38:98|38:98|38:88|38:88|53:25,1,113.120001380859,8|0,0:0|0:0,0:0:0:0:
231,267,57326,1,2,0:0:0:0:
150,69,57468,1,0,0:0:0:0:
73,320,57609,1,8,0:0:0:0:
299,102,57751,6,0,B|327:72|368:80|368:80|336:46|246:73|230:140,1,226.240002761719,6|0,0:0|0:0,0:0:0:0:
182,369,58175,1,8,0:0:0:0:
355,171,58317,1,0,0:0:0:0:
176,342,58458,2,0,B|165:292|165:292|165:279|165:279|152:217,1,113.120001380859,2|0,0:0|0:0,0:0:0:0:
0,71,58741,1,8,0:0:0:0:
69,312,58883,1,0,0:0:0:0:
239,116,59024,6,0,B|258:73|336:46|368:80|368:80|327:72|299:102,1,226.240002761719,2|8,0:0|0:0,0:0:0:0:
335,313,59449,1,0,0:0:0:0:
462,149,59590,2,0,B|456:95|456:95|459:88|459:88|450:11,1,113.120001380859,2|0,0:0|0:0,0:0:0:0:
329,277,59873,1,8,0:0:0:0:
131,0,60015,6,0,B|66:47|66:47|90:103|90:103|87:107|87:107|120:195,1,226.240002761719,6|0,0:0|0:0,0:0:0:0:
333,355,60439,2,0,B|298:357|278:340|278:340|267:370|227:378,1,113.120001380859,8|0,0:0|0:0,0:0:0:0:
36,225,60723,1,0,0:0:0:0:
268,192,60864,1,0,0:0:0:0:
101,384,61006,2,0,B|108:334|108:334|105:325|105:325|112:259,1,113.120001380859,8|0,0:0|0:0,0:0:0:0:
248,62,61289,5,2,0:0:0:0:
16,196,61430,1,2,0:0:0:0:
196,0,61572,1,8,0:0:0:0:
299,278,61713,2,0,B|367:251|367:251|376:252|376:252|452:221|452:221|484:242|489:288,1,226.240002761719,2|0,0:0|0:0,0:0:0:0:
226,161,62138,1,8,0:0:0:0:
422,49,62279,1,0,0:0:0:0:
299,278,62421,6,0,B|229:266|229:266|191:277|191:277|123:266,1,169.680002071289,6|0,0:0|0:0,0:0:0:0:
59,253,62704,1,8,0:0:0:0:
245,45,62845,2,0,B|319:17|351:81|329:93|380:162|443:128,1,226.240002761719,6|0,0:0|0:0,0:0:0:0:
193,152,63270,1,8,0:0:0:0:
418,340,63411,6,0,B|446:322|485:322|485:322|429:285|356:311|338:373,1,226.240002761719,6|0,0:0|0:0,0:0:0:0:
378,77,63836,1,8,0:0:0:0:
256,288,63977,1,0,0:0:0:0:
155,27,64119,1,8,0:0:0:0:
407,212,64260,1,8,0:0:0:0:
129,11,64402,1,8,0:0:0:0:
432,226,64543,1,8,0:0:0:0:
64,353,64685,5,14,0:0:0:0:
238,64,64826,1,0,0:0:0:0:
273,321,64968,1,0,0:0:0:0:
26,103,65109,5,10,0:0:0:0:
355,65,65251,1,0,0:0:0:0:
193,295,65392,1,0,0:0:0:0:
108,0,65534,5,10,0:0:0:0:
360,213,65675,1,0,0:0:0:0:
84,209,65817,1,0,0:0:0:0:
370,29,65958,5,10,0:0:0:0:
169,270,66100,1,0,0:0:0:0:
271,51,66241,1,0,0:0:0:0:
391,342,66383,2,0,B|380:290|380:290|383:281|383:281|371:215,1,113.120001380859,10|0,0:0|0:0,0:0:0:0:
166,30,66666,2,0,B|155:82|155:82|158:91|158:91|146:157,1,113.120001380859,10|0,0:0|0:0,0:0:0:0:
5,379,66949,5,14,0:0:0:0:
272,164,67090,1,0,0:0:0:0:
122,366,67232,1,0,0:0:0:0:
37,88,67373,5,10,0:0:0:0:
302,247,67515,1,0,0:0:0:0:
64,235,67656,1,0,0:0:0:0:
274,2,67798,5,10,0:0:0:0:
359,316,67939,1,0,0:0:0:0:
156,163,68081,1,0,0:0:0:0:
469,36,68223,5,10,0:0:0:0:
274,275,68364,1,0,0:0:0:0:
178,52,68506,1,0,0:0:0:0:
482,290,68647,5,0,0:0:0:0:
309,82,68789,1,0,0:0:0:0:
384,272,68930,1,0,0:0:0:0:
396,141,69072,1,0,0:0:0:0:
194,370,69213,6,0,B|148:396|89:338|133:308|66:256|6:290,1,226.240002761719,6|0,0:0|0:0,0:0:0:0:
241,76,69638,2,0,B|310:103|310:103|282:164|282:164|284:173|284:173|256:253,1,226.240002761719,2|0,0:0|0:0,0:0:0:0:
9,179,70062,2,0,B|29:118|29:118|25:85|25:85|48:14,1,169.680002071289,2|0,0:0|0:0,0:0:0:0:
125,0,70345,1,8,0:0:0:0:
217,271,70487,6,0,B|252:294|282:290|320:260|312:248|303:237|321:205|375:184|427:222,1,226.240002761719,2|0,0:0|0:0,0:0:0:0:
193,358,70911,2,0,L|208:284,1,56.5600006904297,2|0,0:0|0:0,0:0:0:0:
266,73,71053,1,2,0:0:0:0:
217,271,71194,1,2,0:0:0:0:
256,109,71336,1,2,0:0:0:0:
373,380,71477,6,0,B|453:384|491:318|491:318|463:268|407:283,1,226.240002761719,2|0,0:0|0:0,0:0:0:0:
195,369,71902,2,0,B|180:266|180:266|183:253|183:253|164:115,1,226.240002761719,2|0,0:0|0:0,0:0:0:0:
364,62,72326,2,0,B|381:184|381:184|335:142,1,169.680002071289,2|0,0:0|0:0,0:0:0:0:
289,98,72609,1,8,0:0:0:0:
292,325,72751,6,0,B|363:299|363:299|371:290|371:290|441:264|441:264|435:345,1,226.240002761719,2|0,0:0|0:0,0:0:0:0:
137,136,73175,1,0,0:0:0:0:
366,377,73317,1,0,0:0:0:0:
244,189,73458,1,0,0:0:0:0:
292,325,73600,1,0,0:0:0:0:
342,36,73741,6,0,B|300:21|266:45|285:62|240:80|195:54,1,139.379995321106,6|0,0:0|0:0,0:0:0:0:
96,66,74024,2,0,P|136:96|133:143,1,92.9199968807374,6|0,0:0|0:0,0:0:0:0:
267,244,76006,6,0,B|309:229|343:253|324:270|369:288|414:262,1,139.379995321106,6|0,0:0|0:0,0:0:0:0:
512,268,76289,2,0,P|472:298|475:345,1,92.9199968807374,6|0,0:0|0:0,0:0:0:0:
152,212,78270,6,0,B|94:277|-20:257|-115:145|-20:-36|162:-24|281:60|252:188|276:245|398:277|474:262|490:196|490:196|420:269|329:190,1,970.609961493135,6|0,0:0|0:0,0:0:0:0:
413,152,80534,6,0,B|423:222|423:222|420:232|420:232|430:302,1,139.379995321106,6|0,0:0|0:0,0:0:0:0:
477,358,80817,2,0,B|450:362|436:377|436:377|413:362|382:362,1,92.9199968807374,6|0,0:0|0:0,0:0:0:0:
117,107,82138,5,8,0:0:0:0:
192,77,82232,5,8,0:0:0:0:
262,115,82326,5,8,0:0:0:0:
300,184,82421,5,0,0:0:0:0:
380,185,82515,5,0,0:0:0:0:
421,156,82609,5,0,0:0:0:0:
417,115,82704,5,0,0:0:0:0:
399,89,82799,6,0,B|333:54|278:104|311:123|252:178|197:130,1,218.160005326172,2|2,0:0|0:0,0:0:0:0:
70,8,83931,2,0,B|100:22|132:32|132:32|114:95|114:95|117:105|117:105|94:185,1,218.160005326172,10|0,0:0|0:0,0:0:0:0:
0,324,85063,6,0,B|52:290|108:326|108:326|112:334|112:334|154:375|214:346,1,218.160005326172
353,175,86195,2,0,B|347:129|386:104|386:104|340:105|297:165|308:223,1,218.160005326172,10|2,0:0|0:0,0:0:0:0:
303,339,87327,5,0,0:0:0:0:
129,193,87610,2,0,B|140:123|140:123|139:109|139:109|151:39,1,145.440003550781,0|2,0:0|0:0,0:0:0:0:
507,82,88459,2,0,B|445:52|394:101|415:121|378:183|320:155,1,218.160005326172,10|2,0:0|0:0,0:0:0:0:
183,370,89591,6,0,B|269:334|269:334|282:362|320:370,1,145.440003550781,2|0,0:0|0:0,0:0:0:0:
419,224,90440,1,0,0:0:0:0:
261,19,90723,2,0,B|209:13|167:55|158:100|158:100|111:114|73:77,1,218.160005326172,10|0,0:0|0:0,0:0:0:0:
405,8,91855,6,0,B|421:109|421:109|417:119|417:119|434:239,1,218.160005326172,2|2,0:0|0:0,0:0:0:0:
182,242,92987,2,0,B|211:182|272:191|272:191|310:244|264:299,1,218.160005326172,10|2,0:0|0:0,0:0:0:0:
36,237,94119,6,0,B|25:195|48:171|48:171|52:171|52:171|72:133|47:90,1,145.440003550781,2|2,0:0|0:0,0:0:0:0:
142,331,94968,1,2,0:0:0:0:
280,124,95251,2,0,B|354:89|385:150|365:168|416:232|486:187,1,218.160005326172,10|2,0:0|0:0,0:0:0:0:
312,27,96383,5,2,0:0:0:0:
204,231,96666,2,0,B|192:167|192:167|195:149|195:149|179:67,1,145.440003550781
0,277,97515,2,0,B|53:218|162:254|111:335|223:314,1,218.160005326172,10|0,0:0|0:0,0:0:0:0:
351,204,98648,6,0,B|305:191|305:191|300:193|300:193|255:179,1,92.9199968807374
353,294,99072,2,0,L|398:287,1,46.4599984403687,10|0,0:0|0:0,0:0:0:0:
340,109,99355,1,0,0:0:0:0:
209,251,99497,2,0,L|152:238,1,46.4599984403687,10|0,0:0|0:0,0:0:0:0:
273,38,99780,5,0,0:0:0:0:
351,204,99921,1,10,0:0:0:0:
351,204,99992,1,10,0:0:0:0:
351,204,100063,1,10,0:0:0:0:
200,131,100204,1,8,0:0:0:0:
441,141,100346,1,10,0:0:0:0:
118,204,100487,1,0,0:0:0:0:
475,130,100629,1,2,0:0:0:0:
118,3,100770,6,0,B|46:41|46:41|73:100|73:100|71:105|71:105|108:187,1,226.240002761719,6|0,0:0|0:0,0:0:0:0:
338,373,101195,2,0,B|349:324|349:324|353:317|353:317|365:259,1,113.120001380859,10|0,0:0|0:0,0:0:0:0:
165,91,101478,1,2,0:0:0:0:
254,313,101619,1,0,0:0:0:0:
420,63,101761,2,0,B|367:62|329:102|329:102|365:82|404:99,1,169.680002071289,10|0,0:0|0:0,0:0:0:0:
472,130,102044,6,0,B|485:164|479:189|479:189|453:215|450:254,1,113.120001380859,2|0,0:0|0:0,0:0:0:0:
247,93,102327,1,8,0:0:0:0:
388,294,102468,1,0,0:0:0:0:
122,304,102610,2,0,B|134:247|134:247|132:239|132:239|144:178,1,113.120001380859,2|0,0:0|0:0,0:0:0:0:
335,68,102893,1,8,0:0:0:0:
293,346,103034,6,0,B|232:290|166:338|198:378|129:416|79:361,1,226.240002761719,6|0,0:0|0:0,0:0:0:0:
371,206,103459,1,10,0:0:0:0:
122,304,103600,1,2,0:0:0:0:
402,206,103742,1,2,0:0:0:0:
144,108,103883,1,2,0:0:0:0:
371,323,104025,2,0,B|474:278|474:278|502:286|516:324,1,169.680002071289,10|0,0:0|0:0,0:0:0:0:
455,371,104308,5,2,0:0:0:0:
282,199,104449,1,0,0:0:0:0:
512,89,104591,2,0,B|500:142|500:142|501:149|501:149|487:213,1,113.120001380859,8|0,0:0|0:0,0:0:0:0:
244,272,104874,1,2,0:0:0:0:
346,64,105015,1,0,0:0:0:0:
226,301,105157,1,8,0:0:0:0:
84,51,105298,6,0,B|80:-3|144:-25|223:13|146:142,1,226.240002761719,6|0,0:0|0:0,0:0:0:0:
29,326,105723,1,8,0:0:0:0:
297,181,105864,2,0,B|365:215|365:215|336:276|336:276|340:284|340:284|304:363,1,226.240002761719
65,218,106289,2,0,B|52:185|60:149|60:149|69:180|104:199,1,113.120001380859,8|0,0:0|0:0,0:0:0:0:
213,355,106572,5,0,0:0:0:0:
306,157,106713,1,0,0:0:0:0:
112,302,106855,1,8,0:0:0:0:
386,370,106996,2,0,B|401:267|401:267|397:263|397:263|414:140,1,226.240002761719
272,0,107421,1,8,0:0:0:0:
216,244,107563,6,0,B|172:266|128:223|153:189|91:120|29:168,1,226.240002761719,6|2,0:0|0:0,0:0:0:0:
221,351,107987,1,10,0:0:0:0:
431,84,108129,2,0,B|411:55|333:55|297:97|297:97|340:83|373:108,1,226.240002761719,6|0,0:0|0:0,0:0:0:0:
510,289,108553,1,8,0:0:0:0:
221,351,108695,6,0,B|144:321|144:321|142:315|142:315|79:288|79:288|29:349,1,226.240002761719,6|0,0:0|0:0,0:0:0:0:
229,50,109119,1,8,0:0:0:0:
327,358,109261,1,0,0:0:0:0:
30,206,109402,1,8,0:0:0:0:
72,169,109472,1,0,0:0:0:0:
127,160,109543,1,0,0:0:0:0:
179,181,109614,1,0,0:0:0:0:
212,226,109685,2,0,P|233:249|266:253,1,56.5600006904297
512,34,109827,6,0,B|452:2|396:54|432:89|368:138|311:92,1,226.240002761719,10|0,0:0|0:0,0:0:0:0:
28,13,110251,1,8,0:0:0:0:
120,243,110393,1,0,0:0:0:0:
255,20,110534,1,0,0:0:0:0:
23,158,110676,1,0,0:0:0:0:
311,286,110817,2,0,B|364:274|364:274|373:277|373:277|434:266,1,113.120001380859,10|0,0:0|0:0,0:0:0:0:
163,84,111100,6,0,B|143:139|143:139|193:197,1,113.120001380859,2|0,0:0|0:0,0:0:0:0:
414,158,111383,2,0,B|376:113|376:113|300:127,1,113.120001380859,8|0,0:0|0:0,0:0:0:0:
275,359,111666,1,2,0:0:0:0:
469,225,111808,1,0,0:0:0:0:
233,118,111949,1,8,0:0:0:0:
450,337,112091,6,0,B|481:362|521:349|521:349|494:387|401:373|376:308,1,226.240002761719,6|0,0:0|0:0,0:0:0:0:
279,51,112515,1,8,0:0:0:0:
469,225,112657,1,0,0:0:0:0:
239,354,112798,2,0,B|188:343|188:343|176:343|176:343|114:330,1,113.120001380859,2|0,0:0|0:0,0:0:0:0:
14,67,113081,1,8,0:0:0:0:
227,216,113223,1,0,0:0:0:0:
0,380,113364,6,0,B|18:288|18:288|15:273|15:273|39:153,1,226.240002761719,2|8,0:0|0:0,0:0:0:0:
217,337,113789,1,0,0:0:0:0:
237,106,113930,2,0,B|179:119|179:119|172:117|172:117|112:130,1,113.120001380859,2|0,0:0|0:0,0:0:0:0:
353,247,114213,1,8,0:0:0:0:
97,372,114355,6,0,B|115:312|166:293|202:309|205:319|212:328|246:342|293:314|299:264,1,226.240002761719,6|0,0:0|0:0,0:0:0:0:
388,23,114779,2,0,B|371:53|347:68|347:68|369:91|375:138,1,113.120001380859,8|0,0:0|0:0,0:0:0:0:
452,309,115063,1,0,0:0:0:0:
267,201,115204,1,0,0:0:0:0:
497,84,115346,2,0,B|490:134|490:134|493:143|493:143|486:209,1,113.120001380859,10|0,0:0|0:0,0:0:0:0:
242,73,115629,5,2,0:0:0:0:
321,328,115770,1,2,0:0:0:0:
233,42,115912,1,10,0:0:0:0:
32,321,116053,2,0,B|100:294|100:294|109:295|109:295|185:264|185:264|225:330,1,226.240002761719,2|0,0:0|0:0,0:0:0:0:
336,92,116478,1,8,0:0:0:0:
125,199,116619,1,0,0:0:0:0:
394,384,116761,6,0,B|405:314|405:314|394:276|394:276|405:208,1,169.680002071289,6|0,0:0|0:0,0:0:0:0:
464,164,117044,1,8,0:0:0:0:
225,94,117185,2,0,B|151:66|119:130|141:142|90:211|27:177,1,226.240002761719,6|0,0:0|0:0,0:0:0:0:
271,18,117610,1,8,0:0:0:0:
421,300,117751,6,0,B|455:292|468:265|468:265|423:240|375:261|388:277|349:306|295:282,1,226.240002761719,6|0,0:0|0:0,0:0:0:0:
110,95,118176,1,8,0:0:0:0:
313,192,118317,1,0,0:0:0:0:
112,336,118459,1,8,0:0:0:0:
240,85,118600,1,8,0:0:0:0:
100,361,118742,1,8,0:0:0:0:
255,54,118883,1,8,0:0:0:0:
302,355,119025,5,14,0:0:0:0:
79,140,119166,1,0,0:0:0:0:
369,128,119308,1,0,0:0:0:0:
95,333,119449,5,10,0:0:0:0:
228,46,119591,1,0,0:0:0:0:
373,274,119732,1,0,0:0:0:0:
45,239,119874,5,10,0:0:0:0:
372,101,120015,1,0,0:0:0:0:
204,298,120157,1,0,0:0:0:0:
140,5,120298,5,10,0:0:0:0:
361,251,120440,1,0,0:0:0:0:
115,154,120581,1,0,0:0:0:0:
391,21,120723,2,0,B|443:10|443:10|452:13|452:13|518:1,1,113.120001380859,10|0,0:0|0:0,0:0:0:0:
112,191,121006,2,0,B|60:180|60:180|51:183|51:183|-15:171,1,113.120001380859,10|0,0:0|0:0,0:0:0:0:
362,369,121289,5,14,0:0:0:0:
253,89,121430,1,0,0:0:0:0:
134,337,121572,1,0,0:0:0:0:
411,194,121713,5,10,0:0:0:0:
113,90,121855,1,0,0:0:0:0:
259,310,121996,1,0,0:0:0:0:
376,9,122138,5,10,0:0:0:0:
138,222,122279,1,0,0:0:0:0:
441,191,122421,1,0,0:0:0:0:
182,7,122563,5,10,0:0:0:0:
230,329,122704,1,0,0:0:0:0:
356,108,122846,1,0,0:0:0:0:
30,202,122987,5,2,0:0:0:0:
312,245,123129,1,0,0:0:0:0:
128,135,123270,1,2,0:0:0:0:
226,193,123412,1,0,0:0:0:0:
14,365,123553,5,14,0:0:0:0:
335,225,123695,1,0,0:0:0:0:
96,120,123836,1,0,0:0:0:0:
306,349,123978,5,10,0:0:0:0:
309,44,124119,1,0,0:0:0:0:
128,261,124261,1,0,0:0:0:0:
451,146,124402,5,14,0:0:0:0:
168,27,124544,1,0,0:0:0:0:
239,280,124685,1,0,0:0:0:0:
391,4,124827,5,10,0:0:0:0:
127,221,124968,1,0,0:0:0:0:
400,225,125110,1,0,0:0:0:0:
201,22,125251,2,0,B|190:73|190:73|193:82|193:82|181:149,1,113.120001380859,8|0,0:0|0:0,0:0:0:0:
349,384,125534,2,0,B|338:332|338:332|341:323|341:323|329:257,1,113.120001380859,8|0,0:0|0:0,0:0:0:0:
13,284,125817,6,0,B|88:346|160:290|160:290|118:309|81:279,1,226.240002761719,10|0,0:0|0:0,0:0:0:0:
410,83,126242,2,0,B|341:37|281:106|323:121|255:181|191:124,1,226.240002761719,10|0,0:0|0:0,0:0:0:0:
349,375,126666,2,0,B|402:361|402:361|411:363|411:363|462:350,1,113.120001380859,10|0,0:0|0:0,0:0:0:0:
176,72,126949,6,0,B|139:95|139:95|133:148,1,75.4133342539063,8|0,0:0|0:0,0:0:0:0:
109,290,127138,2,0,B|147:310|147:310|196:289,1,75.4133342539063
331,238,127327,2,0,B|329:194|329:194|286:162,1,75.4133342539063
155,91,127515,6,0,B|126:118|126:118|130:165,1,75.4133342539063,8|0,0:0|0:0,0:0:0:0:
136,295,127704,2,0,B|172:305|172:305|212:277,1,75.4133342539063
322,208,127893,2,0,B|312:169|312:169|268:149,1,75.4133342539063
208,203,128081,6,0,L|117:223,3,72.7200017753907,2|0|2|0,0:0|0:0|0:0|0:0,0:0:0:0:
288,276,129213,2,0,L|380:296,3,72.7200017753907,0|0|2|0,0:0|0:0|0:0|0:0,0:0:0:0:
230,157,130345,2,0,L|139:177,3,72.7200017753907,2|0|0|0,0:0|0:0|0:0|0:0,0:0:0:0:
287,303,131477,2,0,L|379:323,3,72.7200017753907,2|2|2|2,0:0|0:0|0:0|0:0,0:0:0:0:
137,360,132609,6,0,B|111:329|111:329|117:295,3,72.7200017753907,2|0|2|0,0:0|0:0|0:0|0:0,0:0:0:0:
30,278,133741,2,0,B|34:238|34:238|62:218,3,72.7200017753907,0|0|2|0,0:0|0:0|0:0|0:0,0:0:0:0:
188,204,134873,2,0,B|185:164|185:164|157:144,3,72.7200017753907,2|0|0|2,0:0|0:0|0:0|0:0,0:0:0:0:
206,71,136005,2,0,B|175:45|175:45|141:51,3,72.7200017753907,2|2|2|2,0:0|0:0|0:0|0:0,0:0:0:0:
292,257,137137,6,0,B|359:298|422:237|381:196|447:138|516:181,1,266.639999186279,6|0,0:0|0:0,0:0:0:0:
390,347,137986,1,0,0:0:0:0:
390,347,138269,2,0,B|345:358|345:358|338:356|338:356|289:368,1,103.020000628784
136,384,138835,1,2,0:0:0:0:
136,384,139118,1,2,0:0:0:0:
10,188,139401,6,0,B|94:221|94:221|101:219|101:219|171:247|171:247|232:225|233:153,1,266.639999186279,6|0,0:0|0:0,0:0:0:0:
139,17,140250,1,2,0:0:0:0:
139,17,140533,2,0,B|114:23|100:44|100:44|135:72|177:49|160:34|206:8|253:35,1,206.040001257568,2|0,0:0|0:0,0:0:0:0:
507,217,141382,1,2,0:0:0:0:
507,217,141665,6,0,B|471:251|431:241|413:211|415:204|419:199|394:167|361:161|323:195,1,199.979999389709,6|0,0:0|0:0,0:0:0:0:
278,283,142231,2,0,B|331:251|331:251|304:197|304:197|303:187|303:187|265:109,1,199.979999389709,6|0,0:0|0:0,0:0:0:0:
233,50,142797,2,0,B|173:39|147:91|185:123|149:195|65:155,1,199.979999389709,6|0,0:0|0:0,0:0:0:0:
26,211,143364,2,0,B|76:268|150:237|150:237|142:278|85:286,1,199.979999389709,6|0,0:0|0:0,0:0:0:0:
36,373,143930,6,0,B|92:359|92:359|103:362|103:362|175:344,1,133.31999959314,6|0,0:0|0:0,0:0:0:0:
292,90,145062,2,0,P|249:80|201:164,1,148.469995469055,2|0,0:0|0:0,0:0:0:0:
211,270,146194,2,0,P|240:237|191:154,1,148.469995469055,2|0,0:0|0:0,0:0:0:0:
256,192,147326,12,0,148316,0:0:0:0:
5,161,148458,6,0,B|76:108|153:188|102:215|181:297|244:232,1,278.759990642212,6|2,0:0|0:0,0:0:0:0:
270,61,149025,2,0,B|243:54|212:77|212:77|232:65|257:78,1,92.9199968807374,2|0,0:0|0:0,0:0:0:0:
394,180,149308,2,0,B|420:173|451:196|451:196|431:184|406:197,1,92.9199968807374,2|0,0:0|0:0,0:0:0:0:
271,325,149590,5,10,0:0:0:0:
414,377,149731,1,2,0:0:0:0:
241,321,149873,2,0,B|176:338|176:338|168:335|168:335|106:351,1,139.379995321106,2|0,0:0|0:0,0:0:0:0:
32,366,150157,1,2,0:0:0:0:
161,140,150297,2,0,B|186:134|207:151|207:151|188:105|127:98,1,139.379995321106,2|0,0:0|0:0,0:0:0:0:
65,120,150580,1,2,0:0:0:0:
287,232,150723,6,0,B|395:277|421:154|372:145|440:28|517:77,1,325.219989082581,6|0,0:0|0:0,0:0:0:0:
489,156,151288,2,0,B|432:188|394:133|421:115|373:61|324:102,1,183.819998878052,2|0,0:0|0:0,0:0:0:0:
272,155,151854,6,0,B|261:114|234:97|234:97|265:73|269:31,1,139.379995321106,8|0,0:0|0:0,0:0:0:0:
186,33,152137,2,0,B|152:50|120:42|120:42|143:35|149:15,1,93.9299962735292,2|0,0:0|0:0,0:0:0:0:
45,5,152420,2,0,B|38:67|38:67|42:77|42:77|34:159,1,139.379995321106,2|0,0:0|0:0,0:0:0:0:
84,216,152703,2,0,B|99:202|122:191|122:191|120:163|120:119,1,93.9299962735292,2|0,0:0|0:0,0:0:0:0:
21,319,152986,6,0,B|83:303|83:303|89:296|89:296|166:271,1,139.379995321106,6|0,0:0|0:0,0:0:0:0:
223,250,153269,1,2,0:0:0:0:
493,196,153410,2,0,B|431:180|431:180|425:173|425:173|348:148,1,139.379995321106,2|0,0:0|0:0,0:0:0:0:
291,127,153693,1,2,0:0:0:0:
409,320,153835,2,0,B|440:305|451:277|451:277|434:294|413:296,1,93.9299962735292,2|0,0:0|0:0,0:0:0:0:
331,346,154118,6,0,B|287:336|287:336|280:338|280:338|230:325,1,92.9199968807374,8|0,0:0|0:0,0:0:0:0:
15,289,154401,2,0,B|72:318|124:257|79:221|126:153|198:185,1,232.299992201844,2|0,0:0|0:0,0:0:0:0:
176,266,154825,2,0,B|119:295|67:234|112:198|65:130|-7:162,1,232.299992201844,2|0,0:0|0:0,0:0:0:0:
22,27,155250,6,0,B|115:-57|396:36|135:228|411:264,1,511.059982844056,6|0,3:0|3:0,3:0:0:0:
470,280,156099,1,2,0:0:0:0:
353,107,156241,1,2,0:0:0:0:
247,332,156382,6,0,B|194:383|94:389|33:334|33:334|86:363|140:333,1,325.219989082581,6|0,0:0|0:0,0:0:0:0:
178,282,156948,1,8,0:0:0:0:
0,76,157090,1,0,0:0:0:0:
176,186,157231,1,2,0:0:0:0:
2,172,157373,1,2,0:0:0:0:
237,33,157514,6,0,B|309:-5|351:64|325:82|374:137|428:113,1,232.299992201844,6|0,0:0|0:0,0:0:0:0:
411,33,157939,1,2,0:0:0:0:
234,203,158080,2,0,B|207:209|176:186|176:186|196:198|221:185,1,92.9199968807374,2|0,0:0|0:0,0:0:0:0:
381,310,158363,2,0,B|407:316|438:293|438:293|418:305|393:292,1,92.9199968807374,2|0,0:0|0:0,0:0:0:0:
175,362,158646,5,10,0:0:0:0:
331,234,158788,1,2,0:0:0:0:
147,361,158929,2,0,B|83:343|83:343|74:348|74:348|3:329,1,139.379995321106,2|0,0:0|0:0,0:0:0:0:
3,255,159212,1,2,0:0:0:0:
263,69,159354,2,0,B|245:133|245:133|250:142|250:142|231:213,1,139.379995321106,2|0,0:0|0:0,0:0:0:0:
157,213,159637,1,2,0:0:0:0:
6,53,159778,6,0,B|128:-44|299:0|241:368|383:422|516:328,1,696.89997660553,6|0,3:0|3:0,3:0:0:0:
424,283,160910,6,0,B|366:301|366:301|352:319|352:319|286:341,1,139.379995321106,8|0,0:0|0:0,0:0:0:0:
222,376,161193,2,0,B|218:336|218:336|220:329|220:329|213:270,1,93.9299962735292,2|0,0:0|0:0,0:0:0:0:
133,309,161476,2,0,B|77:310|40:281|40:281|61:293|95:281,1,139.379995321106,2|0,0:0|0:0,0:0:0:0:
146,221,161759,2,0,B|113:190|113:190|85:208|53:204,1,93.9299962735292,2|0,0:0|0:0,0:0:0:0:
65,123,162042,6,0,B|155:87|155:87|193:117,1,139.379995321106,6|0,0:0|0:0,0:0:0:0:
244,165,162325,1,2,0:0:0:0:
445,45,162467,2,0,B|355:9|355:9|317:39,1,139.379995321106,2|0,0:0|0:0,0:0:0:0:
265,87,162750,1,2,0:0:0:0:
460,213,162891,2,0,B|496:171|489:120|489:120|457:131|458:170,1,139.379995321106,2|0,0:0|0:0,0:0:0:0:
383,243,163174,6,0,B|390:294|390:294|388:302|388:302|395:351,1,92.9199968807374,8|0,0:0|0:0,0:0:0:0:
100,245,163458,2,0,B|141:198|195:202|221:232|220:242|222:253|247:280|302:275|330:233,1,232.299992201844,2|0,0:0|0:0,0:0:0:0:
330,179,163882,2,0,B|270:160|225:192|219:230|225:238|229:249|221:285|172:309|126:286,1,232.299992201844,2|0,0:0|0:0,0:0:0:0:
49,306,164307,6,0,B|3:277|-9:217|23:169|67:160|67:160|157:157|206:22|69:-55|-15:25|0:99,1,511.059982844056,6|0,3:0|3:0,3:0:0:0:
69,85,165156,1,2,0:0:0:0:
300,5,165297,1,2,0:0:0:0:
241,282,165439,6,0,B|203:280|171:246|171:162|313:123|295:255|339:280|385:286|443:239,1,325.219989082581,6|0,0:0|0:0,0:0:0:0:
488,210,166005,1,8,0:0:0:0:
286,354,166146,1,0,0:0:0:0:
508,194,166288,1,8,0:0:0:0:
268,371,166429,1,8,0:0:0:0:
422,73,166571,5,6,0:0:0:0:
256,192,166641,12,0,168693,0:0:0:0:
184,147,168835,5,8,0:0:0:0:
8,90,168976,1,0,0:0:0:0:
212,155,169118,2,0,B|256:145|256:145|267:148|267:148|310:137,1,92.9199968807374
144,15,169401,1,0,0:0:0:0:
79,196,169542,1,0,0:0:0:0:
83,218,169612,1,0,0:0:0:0:
88,241,169683,1,0,0:0:0:0:
209,120,169825,1,0,0:0:0:0:
290,323,169967,6,0,B|354:308|354:308|370:312|370:312|432:296,1,139.379995321106,4|0,0:0|0:0,0:0:0:0:
376,232,170250,2,0,B|260:180|183:282|242:307|142:391|53:326|53:326|128:352|177:277,1,511.059982844056,4|0,0:0|0:0,0:0:0:0:
88,241,171099,5,4,0:0:0:0:
256,192,171170,12,0,175486,0:0:0:0:
5,161,175627,6,0,B|101:106|239:203|239:203|329:241|447:161|361:-82|142:38|167:151|232:200|232:200|359:320|452:221,1,970.609961493135,6|0,0:0|0:0,0:0:0:0:
477,156,177891,5,8,0:0:0:0:
273,134,178033,1,0,0:0:0:0:
354,352,178174,2,0,B|360:309|360:309|359:302|359:302|366:252,1,92.9199968807374
256,104,178457,1,0,0:0:0:0:
163,286,178599,1,0,0:0:0:0:
163,286,178670,1,0,0:0:0:0:
163,286,178741,1,0,0:0:0:0:
365,166,178882,1,0,0:0:0:0:
143,30,179024,6,0,B|79:14|49:56|49:56|70:38|96:42,1,139.379995321106,4|0,0:0|0:0,0:0:0:0:
114,119,179307,2,0,B|210:66|283:157|224:217|324:339|421:266|421:266|357:309|292:240,1,511.059982844056,4|0,0:0|0:0,0:0:0:0:
370,195,180156,5,4,0:0:0:0:
256,192,180226,12,0,183835,0:0:0:0:
117,197,183976,5,0,0:0:0:0:
117,197,184047,1,0,0:0:0:0:
117,197,184118,1,8,0:0:0:0:
184,352,184259,1,0,0:0:0:0:
100,164,184401,1,0,0:0:0:0:
200,380,184542,1,0,0:0:0:0:
325,84,184684,6,0,B|311:19|242:13|242:13|163:45|163:45|155:44|155:44|38:97,1,325.219989082581,4|0,0:0|0:0,0:0:0:0:
10,175,185250,2,0,B|162:192|162:192|172:188|172:188|353:208,1,325.219989082581,8|0,0:0|0:0,0:0:0:0:
386,289,185816,6,0,B|340:279|311:314|311:314|311:354|263:381,1,139.379995321106,6|0,0:0|0:0,0:0:0:0:
229,300,186099,1,0,0:0:0:0:
311,134,186241,2,0,B|375:115|375:115|383:117|383:117|451:100,1,139.379995321106,8|0,0:0|0:0,0:0:0:0:
441,25,186524,1,0,0:0:0:0:
185,208,186665,2,0,B|140:195|140:195|134:197|134:197|88:185,1,92.9199968807374,10|0,0:0|0:0,0:0:0:0:
305,380,186948,6,0,B|421:384|435:265|388:269|428:151|536:180,1,325.219989082581,6|0,0:0|0:0,0:0:0:0:
506,266,187514,2,0,B|428:241|428:241|425:236|425:236|352:211|352:211|305:271,1,232.299992201844,10|0,0:0|0:0,0:0:0:0:
243,316,187939,2,0,L|230:258,1,46.4599984403687
169,84,188080,6,0,B|207:39|306:54|324:92|324:92|297:67|248:77,1,232.299992201844,6|0,0:0|0:0,0:0:0:0:
189,174,188505,2,0,B|121:160|121:160|113:163|113:163|43:147,1,139.379995321106,10|0,0:0|0:0,0:0:0:0:
13,81,188788,1,0,0:0:0:0:
111,324,188929,1,10,0:0:0:0:
4,54,189071,1,10,0:0:0:0:
123,348,189212,6,0,B|187:400|264:351|264:351|262:346|262:346|341:270|419:342,1,325.219989082581,6|0,0:0|0:0,0:0:0:0:
341,384,189778,2,0,B|326:236|326:236|329:229|329:229|313:43,1,325.219989082581,10|0,0:0|0:0,0:0:0:0:
384,10,190344,6,0,B|426:33|426:33|412:73|412:73|413:76|413:76|398:121,1,139.379995321106,2|0,0:0|0:0,0:0:0:0:
446,185,190627,1,0,0:0:0:0:
220,74,190769,2,0,B|158:57|158:57|152:61|152:61|72:41,1,139.379995321106,8|0,0:0|0:0,0:0:0:0:
15,20,191052,1,0,0:0:0:0:
159,238,191193,2,0,B|189:196|174:152|174:152|179:182|164:207,1,139.379995321106,8|0,0:0|0:0,0:0:0:0:
130,338,191476,6,0,B|234:305|234:305|238:297|238:297|355:260|355:260|401:334,1,325.219989082581,6|0,0:0|0:0,0:0:0:0:
315,356,192042,2,0,B|297:293|327:247|327:247|314:203|314:203|351:148|329:60,1,278.759990642212,8|0,0:0|0:0,0:0:0:0:
277,25,192538,1,0,0:0:0:0:
277,25,192608,6,0,B|245:39|209:35|209:35|224:77|189:117,1,139.379995321106,6|0,0:0|0:0,0:0:0:0:
239,172,192891,1,0,0:0:0:0:
11,72,193033,2,0,B|25:42|52:34|52:34|141:60,1,139.379995321106,8|0,0:0|0:0,0:0:0:0:
200,101,193316,1,0,0:0:0:0:
7,242,193457,1,8,0:0:0:0:
222,81,193599,1,8,0:0:0:0:
324,351,193741,6,0,B|366:361|388:343|400:292|347:238|275:252|239:305|277:329|212:389|132:326,1,325.219989082581,6|0,0:0|0:0,0:0:0:0:
116,269,194307,2,0,B|86:276|75:309|75:309|87:240|158:227|155:262|222:249|230:189|230:189|218:222|178:230,1,325.219989082581,10|0,0:0|0:0,0:0:0:0:
157,139,194873,6,0,B|196:128|210:94|210:94|241:121|292:115,1,139.379995321106,6|0,0:0|0:0,0:0:0:0:
356,128,195156,1,0,0:0:0:0:
506,298,195297,2,0,B|466:289|449:256|449:256|420:285|369:283,1,139.379995321106,8|0,0:0|0:0,0:0:0:0:
306,300,195580,1,0,0:0:0:0:
481,71,195722,2,0,B|503:75|519:103|519:103|480:76|431:91,1,139.379995321106,10|0,0:0|0:0,0:0:0:0:
356,128,196005,6,0,B|295:171|241:151|210:109|216:101|220:93|179:36|123:38|70:73,1,325.219989082581,6|0,0:0|0:0,0:0:0:0:
47,173,196571,2,0,B|144:130|144:130|155:132|155:132|267:81,1,232.299992201844,8|0,0:0|0:0,0:0:0:0:
333,51,196995,1,0,0:0:0:0:
311,276,197137,6,0,B|246:259|246:259|237:262|237:262|170:244,1,139.379995321106,6|0,0:0|0:0,0:0:0:0:
96,249,197420,1,0,0:0:0:0:
297,370,197561,2,0,B|362:353|362:353|371:356|371:356|438:338,1,139.379995321106,8|0,0:0|0:0,0:0:0:0:
512,343,197844,1,0,0:0:0:0:
297,173,197986,1,0,0:0:0:0:
448,227,198127,1,8,0:0:0:0:
233,57,198269,6,0,B|162:23|79:102|151:137|101:274|-6:216,1,325.219989082581,6|0,0:0|0:0,0:0:0:0:
7,138,198835,2,0,B|78:104|161:183|89:218|139:355|246:297,1,325.219989082581,8|0,0:0|0:0,0:0:0:0:
293,218,199401,6,0,B|310:282|310:282|308:291|308:291|326:368,1,139.379995321106,2|0,0:0|0:0,0:0:0:0:
399,377,199684,1,0,0:0:0:0:
209,159,199825,2,0,B|226:95|226:95|224:86|224:86|242:9,1,139.379995321106,10|0,0:0|0:0,0:0:0:0:
315,0,200108,1,0,0:0:0:0:
502,214,200250,2,0,B|412:177|412:177|376:215,1,139.379995321106
343,303,200533,6,0,B|386:289|386:289|395:290|395:290|448:274,1,92.9199968807374,6|0,0:0|0:0,0:0:0:0:
321,64,200816,1,8,0:0:0:0:
267,54,200887,1,8,0:0:0:0:
214,67,200957,1,8,0:0:0:0:
182,111,201028,1,8,0:0:0:0:
177,166,201099,1,8,0:0:0:0:
201,214,201170,1,8,0:0:0:0:
210,268,201241,1,8,0:0:0:0:
188,318,201311,1,8,0:0:0:0:
140,343,201382,1,8,0:0:0:0:
85,339,201453,1,8,0:0:0:0:
46,300,201524,1,8,0:0:0:0:
40,246,201594,1,8,0:0:0:0:
72,201,201665,6,0,B|126:189|126:189|131:192|131:192|197:177,1,92.9199968807374,6|0,0:0|0:0,0:0:0:0:
444,187,201948,1,8,0:0:0:0:
485,142,202019,1,8,0:0:0:0:
484,80,202090,1,8,0:0:0:0:
443,35,202160,1,8,0:0:0:0:
381,24,202231,5,0,0:0:0:0:
378,56,202302,1,0,0:0:0:0:
373,92,202373,1,0,0:0:0:0:
368,128,202443,1,0,0:0:0:0:
337,156,202514,5,0,0:0:0:0:
339,174,202585,1,0,0:0:0:0:
341,192,202656,1,0,0:0:0:0:
343,210,202726,1,0,0:0:0:0:
345,228,202797,6,0,B|391:218|391:218|395:220|395:220|451:208,1,92.9199968807374,6|0,0:0|0:0,0:0:0:0:
227,366,203080,1,8,0:0:0:0:
170,383,203151,1,8,0:0:0:0:
113,363,203222,1,8,0:0:0:0:
81,314,203292,1,8,0:0:0:0:
84,254,203363,1,8,0:0:0:0:
124,210,203434,1,8,0:0:0:0:
175,183,203505,1,8,0:0:0:0:
213,138,203575,1,8,0:0:0:0:
216,78,203646,1,8,0:0:0:0:
188,26,203717,1,8,0:0:0:0:
132,2,203788,1,8,0:0:0:0:
75,18,203858,1,8,0:0:0:0:
42,66,203929,6,0,P|33:102|43:133,1,46.4599984403687
237,266,204071,1,8,0:0:0:0:
307,286,204141,1,8,0:0:0:0:
374,254,204212,1,0,0:0:0:0:
378,179,204283,5,0,0:0:0:0:
403,134,204354,1,0,0:0:0:0:
451,118,204424,1,0,0:0:0:0:
498,138,204495,2,0,P|515:174|512:197,1,46.4599984403687
281,160,204637,2,0,P|282:134|304:108,1,46.4599984403687
480,254,204778,1,8,0:0:0:0:
473,304,204849,1,8,0:0:0:0:
463,356,204920,6,0,B|406:318|350:359|350:359|350:362|350:362|300:406|233:364,1,226.240002761719,6|0,0:0|0:0,0:0:0:0:
189,91,205345,2,0,B|200:140|200:140|204:147|204:147|216:205,1,113.120001380859,10|0,0:0|0:0,0:0:0:0:
11,353,205628,1,2,0:0:0:0:
258,268,205769,1,0,0:0:0:0:
0,97,205910,2,0,B|-27:158|1:208|1:208|-2:176|20:148,1,169.680002071289,10|0,0:0|0:0,0:0:0:0:
79,108,206193,6,0,B|133:97|133:97|140:100|140:100|193:91,1,113.120001380859,2|0,0:0|0:0,0:0:0:0:
405,302,206477,1,8,0:0:0:0:
203,181,206618,1,0,0:0:0:0:
449,39,206759,2,0,B|464:68|481:91|481:91|469:111|458:144,1,113.120001380859,2|0,0:0|0:0,0:0:0:0:
265,6,207043,1,8,0:0:0:0:
198,313,207184,6,0,B|126:348|92:288|120:278|62:198|1:250,1,226.240002761719,6|0,0:0|0:0,0:0:0:0:
306,123,207609,1,10,0:0:0:0:
31,155,207750,1,2,0:0:0:0:
320,272,207891,1,2,0:0:0:0:
63,158,208032,1,2,0:0:0:0:
375,33,208174,2,0,B|424:53|424:53|408:99|408:99|410:108|410:108|390:175,1,169.680002071289,10|0,0:0|0:0,0:0:0:0:
417,241,208458,5,2,0:0:0:0:
202,115,208599,1,0,0:0:0:0:
395,352,208741,2,0,B|407:299|407:299|406:292|406:292|420:228,1,113.120001380859,8|0,0:0|0:0,0:0:0:0:
267,47,209024,1,2,0:0:0:0:
172,282,209165,1,0,0:0:0:0:
393,164,209307,1,8,0:0:0:0:
118,24,209448,6,0,B|53:5|-3:60|5:109|5:109|31:60|88:58,1,226.240002761719,6|0,0:0|0:0,0:0:0:0:
263,181,209873,1,8,0:0:0:0:
1,302,210014,2,0,B|51:268|93:293|106:325|100:332|96:340|128:381|163:382|205:350,1,226.240002761719
390,216,210439,2,0,B|387:180|365:151|365:151|372:184|358:216,1,113.120001380859,8|0,0:0|0:0,0:0:0:0:
473,379,210722,5,0,0:0:0:0:
253,268,210863,1,0,0:0:0:0:
486,144,211005,1,8,0:0:0:0:
357,384,211146,2,0,B|342:281|342:281|346:277|346:277|327:153,1,226.240002761719
174,5,211571,1,8,0:0:0:0:
66,266,211712,6,0,B|136:238|136:238|139:240|139:240|217:209|217:209|256:275,1,226.240002761719,6|2,0:0|0:0,0:0:0:0:
356,43,212137,1,10,0:0:0:0:
70,160,212278,2,0,B|28:158|7:123|7:123|40:74|103:66|154:97,1,226.240002761719,6|2,0:0|0:0,0:0:0:0:
178,330,212703,1,10,0:0:0:0:
397,112,212844,6,0,B|462:150|462:150|438:216|438:216|440:223|440:223|410:309,1,226.240002761719,6|2,0:0|0:0,0:0:0:0:
156,172,213269,1,10,0:0:0:0:
442,47,213411,1,0,0:0:0:0:
303,344,213552,1,10,0:0:0:0:
251,362,213622,1,0,0:0:0:0:
207,329,213693,1,0,0:0:0:0:
209,275,213764,1,0,0:0:0:0:
255,246,213835,2,0,P|285:247|319:279,1,56.5600006904297
20,357,213976,6,0,B|32:255|32:255|29:242|29:242|43:113,1,226.240002761719,6|0,0:0|0:0,0:0:0:0:
268,18,214401,1,8,0:0:0:0:
136,208,214543,1,0,0:0:0:0:
332,68,214684,1,0,0:0:0:0:
398,290,214826,1,0,0:0:0:0:
198,59,214967,2,0,B|173:32|132:36|132:36|165:40|182:65,1,113.120001380859,10|0,0:0|0:0,0:0:0:0:
338,224,215250,6,0,B|386:214|386:214|394:209|394:209|462:195,1,113.120001380859,2|0,0:0|0:0,0:0:0:0:
139,357,215533,2,0,B|90:347|90:347|82:342|82:342|14:328,1,113.120001380859,8|0,0:0|0:0,0:0:0:0:
212,146,215816,1,2,0:0:0:0:
318,363,215958,1,0,0:0:0:0:
78,211,216099,1,8,0:0:0:0:
341,20,216241,6,0,B|406:58|406:58|382:124|382:124|384:131|384:131|354:217,1,226.240002761719,6|0,0:0|0:0,0:0:0:0:
139,357,216665,1,8,0:0:0:0:
393,284,216807,1,0,0:0:0:0:
179,100,216948,2,0,B|155:158|155:158|180:210,1,113.120001380859,2|0,0:0|0:0,0:0:0:0:
341,20,217231,1,8,0:0:0:0:
88,67,217373,1,0,0:0:0:0:
294,278,217514,6,0,B|383:333|446:265|446:265|412:293|366:278,1,226.240002761719,2|8,0:0|0:0,0:0:0:0:
155,215,217939,1,0,0:0:0:0:
415,84,218080,2,0,B|402:142|402:142|404:149|404:149|391:209,1,113.120001380859,2|0,0:0|0:0,0:0:0:0:
203,50,218363,1,8,0:0:0:0:
102,381,218505,6,0,B|120:321|171:302|207:318|210:328|217:337|251:351|298:323|304:273,1,226.240002761719,6|0,0:0|0:0,0:0:0:0:
310,69,218929,2,0,B|304:58|310:40|310:40|281:79|293:119,1,113.120001380859,8|0,0:0|0:0,0:0:0:0:
399,312,219213,1,0,0:0:0:0:
385,112,219354,1,0,0:0:0:0:
190,245,219495,2,0,B|184:192|184:192|187:183|187:183|180:133,1,113.120001380859,8|0,0:0|0:0,0:0:0:0:
406,225,219778,5,2,0:0:0:0:
163,337,219920,1,2,0:0:0:0:
424,204,220062,1,10,0:0:0:0:
183,43,220203,2,0,B|112:20|74:78|110:104|56:161|-17:121,1,226.240002761719,2|0,0:0|0:0,0:0:0:0:
284,152,220627,1,8,0:0:0:0:
92,256,220769,1,0,0:0:0:0:
363,322,220910,6,0,B|473:285|473:285|521:328,1,169.680002071289,6|0,0:0|0:0,0:0:0:0:
455,374,221194,1,8,0:0:0:0:
284,152,221335,2,0,B|236:82|282:13|282:13|269:63|304:97,1,226.240002761719,6|0,0:0|0:0,0:0:0:0:
512,211,221759,1,8,0:0:0:0:
221,317,221901,6,0,B|184:335|145:306|158:290|110:269|65:294|65:294|78:321|112:329,1,226.240002761719,6|0,0:0|0:0,0:0:0:0:
223,97,222326,1,8,0:0:0:0:
306,347,222467,1,0,0:0:0:0:
477,66,222608,5,10,0:0:0:0:
299,382,222750,1,0,0:0:0:0:
256,23,222891,1,8,0:0:0:0:
502,287,223033,1,0,0:0:0:0:
120,223,223174,6,0,B|67:193|81:144|150:93|192:124|225:185|198:211|269:257|328:210,1,325.219989082581,6|0,0:0|0:0,0:0:0:0:
292,136,223741,2,0,B|244:174|244:174|265:224|265:224|266:235|266:235|296:305,1,185.839993761475,10|2,0:0|0:0,0:0:0:0:
464,170,224165,1,10,0:0:0:0:
315,24,224307,6,0,B|252:38|252:38|246:46|246:46|171:68,1,139.379995321106,2|0,0:0|0:0,0:0:0:0:
148,132,224590,2,0,B|85:118|85:118|79:110|79:110|4:88,1,139.379995321106
17,15,224873,1,8,0:0:0:0:
132,223,225014,6,0,B|168:280|145:328|145:328|102:407|21:322|104:273|145:328|145:328|200:388|274:343,1,418.139985963318,6|0,0:0|0:0,0:0:0:0:
324,294,225722,2,0,B|289:264|289:264|237:268,1,92.9199968807374,2|2,0:0|0:0,0:0:0:0:
405,375,226005,2,0,B|416:293|416:293|414:278|414:278|425:173,1,185.839993761475,10|2,0:0|0:0,0:0:0:0:
479,59,226429,1,0,0:0:0:0:
347,151,226571,6,0,B|282:135|282:135|277:137|277:137|206:118,1,139.379995321106,6|0,0:0|0:0,0:0:0:0:
152,52,226854,2,0,B|217:36|217:36|222:38|222:38|293:19,1,139.379995321106,2|0,0:0|0:0,0:0:0:0:
360,63,227137,1,10,0:0:0:0:
144,225,227278,1,8,0:0:0:0:
314,149,227420,1,0,0:0:0:0:
190,139,227561,1,0,0:0:0:0:
342,349,227703,6,0,B|379:345|389:317|389:317|347:294|296:319|322:333|276:370|222:339,1,232.299992201844,4|0,0:0|0:0,0:0:0:0:
158,306,228127,1,2,0:0:0:0:
393,218,228269,2,0,B|405:130|405:130|402:123|402:123|415:16,1,185.839993761475,14|2,0:0|0:0,0:0:0:0:
251,210,228693,1,0,0:0:0:0:
140,59,228835,6,0,B|135:28|111:10|111:10|162:26|174:85,1,139.379995321106,6|0,0:0|0:0,0:0:0:0:
130,163,229118,2,0,B|105:182|102:212|102:212|90:160|135:120,1,139.379995321106,2|0,0:0|0:0,0:0:0:0:
204,139,229401,1,10,0:0:0:0:
138,316,229542,2,0,B|93:299|93:299|91:295|91:295|48:277|48:277|8:316,1,139.379995321106,2|0,0:0|0:0,0:0:0:0:
63,373,229825,1,2,0:0:0:0:
262,222,229967,6,0,B|319:188|380:243|346:271|403:334|467:294,1,232.299992201844,2|0,0:0|0:0,0:0:0:0:
512,248,230391,1,2,0:0:0:0:
280,133,230533,2,0,B|223:99|162:154|196:182|139:245|75:205,1,232.299992201844,2|0,0:0|0:0,0:0:0:0:
30,159,230957,1,2,0:0:0:0:
249,42,231099,2,0,B|306:8|367:63|333:91|390:154|454:114,1,232.299992201844,10|0,0:0|0:0,0:0:0:0:
499,68,231524,1,2,0:0:0:0:
355,313,231665,1,2,0:0:0:0:
442,120,231808,1,2,0:0:0:0:
418,253,231948,1,2,0:0:0:0:
249,42,232090,6,0,B|178:23|178:23|173:26|173:26|101:2|101:2|60:19|47:71,1,226.240002761719,6|0,0:0|0:0,0:0:0:0:
105,296,232514,1,8,0:0:0:0:
273,128,232656,1,0,0:0:0:0:
45,216,232797,1,0,0:0:0:0:
250,365,232939,1,0,0:0:0:0:
126,93,233080,2,0,B|138:146|138:146|135:155|135:155|146:216,1,113.120001380859,10|0,0:0|0:0,0:0:0:0:
347,332,233363,6,0,B|331:290|299:286|299:286|323:299|333:325,1,113.120001380859,2|0,0:0|0:0,0:0:0:0:
469,117,233646,2,0,B|440:151|453:181|453:181|452:154|469:132,1,113.120001380859,8|0,0:0|0:0,0:0:0:0:
255,45,233929,1,2,0:0:0:0:
391,241,234071,1,0,0:0:0:0:
265,17,234212,1,8,0:0:0:0:
184,261,234354,6,0,B|137:295|74:237|114:214|54:149|-5:183,1,226.240002761719,6|0,0:0|0:0,0:0:0:0:
171,377,234778,1,8,0:0:0:0:
274,136,234920,1,0,0:0:0:0:
393,377,235061,2,0,B|404:326|404:326|404:314|404:314|417:252,1,113.120001380859,2|0,0:0|0:0,0:0:0:0:
209,81,235344,1,8,0:0:0:0:
323,289,235486,1,0,0:0:0:0:
467,45,235627,6,0,B|375:26|375:26|360:29|360:29|240:5,1,226.240002761719,2|8,0:0|0:0,0:0:0:0:
39,135,236052,1,0,0:0:0:0:
262,235,236193,2,0,B|294:188|294:188|270:126,1,113.120001380859,2|0,0:0|0:0,0:0:0:0:
54,39,236476,1,8,0:0:0:0:
80,327,236618,6,0,B|123:297|172:299|199:324|197:333|196:342|230:370|270:375|306:332,1,226.240002761719,6|0,0:0|0:0,0:0:0:0:
400,131,237042,2,0,B|416:184|416:184|414:192|414:192|430:248,1,113.120001380859,8|0,0:0|0:0,0:0:0:0:
247,101,237326,1,0,0:0:0:0:
397,325,237467,1,0,0:0:0:0:
482,62,237608,2,0,B|439:23|439:23|373:32,1,113.120001380859,8|0,0:0|0:0,0:0:0:0:
138,234,237892,5,2,0:0:0:0:
373,141,238033,1,2,0:0:0:0:
162,224,238174,1,10,0:0:0:0:
400,131,238316,2,0,B|465:161|465:161|448:224|448:224|449:231|449:231|419:330,1,226.240002761719,2|2,0:0|0:0,0:0:0:0:
284,100,238741,1,8,0:0:0:0:
207,342,238882,6,0,B|120:329|120:329|113:331|113:331|39:319,1,169.680002071289,6|0,0:0|0:0,0:0:0:0:
0,384,239165,1,0,0:0:0:0:
92,73,239307,1,8,0:0:0:0:
302,228,239448,2,0,B|360:267|412:207|372:173|417:118|481:140,1,226.240002761719,6|0,0:0|0:0,0:0:0:0:
247,114,239873,1,8,0:0:0:0:
427,369,240014,6,0,B|461:361|474:334|474:334|429:309|384:328|394:346|355:375|301:351,1,226.240002761719,6|0,0:0|0:0,0:0:0:0:
84,168,240439,1,10,0:0:0:0:
333,119,240580,1,0,0:0:0:0:
208,345,240722,5,8,0:0:0:0:
235,32,240863,1,8,0:0:0:0:
206,374,241005,1,8,0:0:0:0:
239,3,241146,1,8,0:0:0:0:
223,192,241288,5,0,0:0:0:0:
224,51,243269,6,0,B|210:112|210:112|213:124|213:124|200:186,1,124.230001895599,6|0,0:0|0:0,0:0:0:0:
185,250,243552,1,6,0:0:0:0:
256,192,245816,12,0,247797,0:0:0:0:
105,98,248080,6,0,B|200:31|307:111|259:125|367:216|460:149,1,360.570002200745,6|0,0:0|0:0,0:0:0:0:
387,83,248646,2,0,B|276:45|195:151|246:152|167:269|59:230,1,360.570002200745,6|0,0:0|0:0,0:0:0:0:
38,161,249212,2,0,B|91:201|91:201|71:245|71:245|73:250|73:250|35:341,1,206.040001257568,6|0,0:0|0:0,0:0:0:0:
27,363,249590,1,0,0:0:0:0:
102,345,249684,1,0,0:0:0:0:
171,325,249778,2,0,B|241:308|241:308|250:312|250:312|328:294,1,148.469995469055,10|0,0:0|0:0,0:0:0:0:
358,361,250344,5,14,0:0:0:0:
271,71,250485,1,0,0:0:0:0:
164,297,250627,1,0,0:0:0:0:
452,183,250768,5,10,0:0:0:0:
129,84,250910,1,0,0:0:0:0:
314,297,251051,1,0,0:0:0:0:
399,0,251193,5,10,0:0:0:0:
136,193,251334,1,0,0:0:0:0:
415,191,251476,1,0,0:0:0:0:
150,0,251617,5,10,0:0:0:0:
166,325,251759,1,0,0:0:0:0:
349,136,251900,1,0,0:0:0:0:
2,45,252042,2,0,B|13:96|13:96|10:105|10:105|23:174,1,123.219994923493,10|0,0:0|0:0,0:0:0:0:
240,371,252325,2,0,B|251:319|251:319|248:310|248:310|261:243,1,123.219994923493,10|0,0:0|0:0,0:0:0:0:
105,13,252608,5,14,0:0:0:0:
382,218,252749,1,0,0:0:0:0:
113,248,252891,1,0,0:0:0:0:
386,38,253032,5,10,0:0:0:0:
350,342,253174,1,0,0:0:0:0:
169,139,253315,1,0,0:0:0:0:
504,93,253457,5,10,0:0:0:0:
217,305,253598,1,0,0:0:0:0:
260,49,253740,1,0,0:0:0:0:
465,322,253882,5,10,0:0:0:0:
113,248,254023,1,0,0:0:0:0:
367,126,254165,1,0,0:0:0:0:
157,381,254306,5,0,0:0:0:0:
277,144,254448,1,0,0:0:0:0:
237,319,254589,1,0,0:0:0:0:
217,213,254731,1,0,0:0:0:0:
41,381,254873,5,14,0:0:0:0:
380,208,255015,1,0,0:0:0:0:
82,129,255156,1,0,0:0:0:0:
336,380,255298,5,10,0:0:0:0:
368,41,255439,1,0,0:0:0:0:
137,262,255581,1,0,0:0:0:0:
496,334,255722,5,14,0:0:0:0:
280,75,255864,1,0,0:0:0:0:
222,346,256005,1,0,0:0:0:0:
471,64,256146,5,10,0:0:0:0:
119,232,256288,1,0,0:0:0:0:
439,254,256430,1,0,0:0:0:0:
130,17,256571,2,0,B|141:68|141:68|138:77|138:77|150:146,1,123.219994923493,10|0,0:0|0:0,0:0:0:0:
341,384,256854,2,0,B|352:332|352:332|349:323|349:323|362:252,1,123.219994923493,10|0,0:0|0:0,0:0:0:0:
61,134,257137,6,0,B|21:195|78:261|97:225|166:282|107:370,1,246.439989846985,10|0,0:0|0:0,0:0:0:0:
383,381,257561,2,0,B|404:267|404:267|402:258|402:258|423:132,1,246.439989846985,10|0,0:0|0:0,0:0:0:0:
182,270,257986,2,0,B|208:329|208:329|285:346,1,123.219994923493,10|0,0:0|0:0,0:0:0:0:
289,78,258269,6,0,B|225:71|225:71|172:129,1,123.219994923493,10|0,0:0|0:0,0:0:0:0:
77,356,258552,1,0,0:0:0:0:
38,309,258622,1,0,0:0:0:0:
45,250,258693,1,0,0:0:0:0:
93,213,258764,1,0,0:0:0:0:
152,223,258835,1,0,0:0:0:0:
369,317,258976,1,0,0:0:0:0:
235,88,259118,2,0,L|219:161,1,61.6099974617463
444,264,259259,2,0,L|428:190,1,61.6099974617463
260,11,259401,6,0,B|182:-17|124:59|179:89|117:148|45:111,1,257.55000157196,6|0,0:0|0:0,0:0:0:0:
11,35,259825,2,0,B|69:68|69:68|39:147|39:147|42:153|42:153|4:265,1,257.55000157196,2|0,0:0|0:0,0:0:0:0:
12,334,260250,2,0,B|80:300|80:300|101:205,1,154.530000943176,2|0,0:0|0:0,0:0:0:0:
9,247,260533,5,8,0:0:0:0:
190,356,260674,2,0,B|336:312|336:312|339:306|339:306|504:259,1,309.060001886353,2|0,0:0|0:0,0:0:0:0:
512,259,261170,1,0,0:0:0:0:
512,259,261240,1,0,0:0:0:0:
271,216,261382,1,0,0:0:0:0:
422,382,261524,1,0,0:0:0:0:
459,123,261665,6,0,B|407:70|334:101|334:101|335:105|335:105|275:154|208:109,1,257.55000157196,6|0,0:0|0:0,0:0:0:0:
166,68,262090,2,0,B|191:39|226:40|226:40|185:18|120:57|157:71|98:113|39:76,1,257.55000157196,2|0,0:0|0:0,0:0:0:0:
4,22,262514,2,0,B|21:95|21:95|19:106|19:106|35:183,1,154.530000943176,2|0,0:0|0:0,0:0:0:0:
10,253,262797,5,8,0:0:0:0:
225,119,262939,1,0,0:0:0:0:
98,260,263080,1,0,0:0:0:0:
142,148,263222,1,0,0:0:0:0:
286,349,263363,5,8,0:0:0:0:
352,98,263505,1,8,0:0:0:0:
278,379,263646,1,8,0:0:0:0:
360,67,263788,1,0,0:0:0:0:
483,332,263929,6,0,B|414:320|362:306|362:306|356:308|356:308|290:289|231:278,1,257.55000157196,6|0,0:0|0:0,0:0:0:0:
157,209,264354,2,0,B|221:199|277:183|277:183|283:185|283:185|346:166|408:153,1,257.55000157196,2|0,0:0|0:0,0:0:0:0:
482,97,264778,2,0,B|491:159|491:159|479:187|479:187|489:265,1,154.530000943176,2|0,0:0|0:0,0:0:0:0:
483,332,265061,5,8,0:0:0:0:
263,143,265203,2,0,B|174:93|106:187|161:219|80:300|-5:241,1,309.060001886353,2|0,0:0|0:0,0:0:0:0:
0,239,265698,1,0,0:0:0:0:
0,239,265769,1,0,0:0:0:0:
248,227,265910,1,0,0:0:0:0:
67,84,266052,1,0,0:0:0:0:
362,22,266193,6,0,B|383:149|383:149|380:157|380:157|404:291,1,257.55000157196,2|0,0:0|0:0,0:0:0:0:
467,341,266618,2,0,B|406:286|341:334|341:334|342:339|342:339|281:392|212:338,1,257.55000157196,6|0,0:0|0:0,0:0:0:0:
148,307,267042,2,0,B|215:281|215:281|218:277|218:277|291:250,1,154.530000943176,6|0,0:0|0:0,0:0:0:0:
339,180,267325,6,0,B|228:145|228:145|221:148|221:148|102:103|102:103|43:126|29:189,1,360.570002200745,6|0,0:0|0:0,0:0:0:0:
119,217,267891,2,0,B|233:232|274:102|210:99|252:-31|368:3,1,360.570002200745,6|0,0:0|0:0,0:0:0:0:
420,33,268451,5,6,0:0:0:0:
256,192,268521,12,0,271847,0:0:0:0:
