osu file format v14

[General]
AudioFilename: audio.mp3
AudioLeadIn: 0
PreviewTime: 247225
Countdown: 0
SampleSet: Drum
StackLeniency: 0.7
Mode: 0
LetterboxInBreaks: 0
WidescreenStoryboard: 0

[Editor]
Bookmarks: 38836,44086,55608,65222,84428,98787,161173,170750,180344,189959,199549,218730,237918,240467
DistanceSpacing: 0.3
BeatDivisor: 4
GridSize: 32
TimelineZoom: 3.099999

[Metadata]
Title:Decoy
TitleUnicode:Decoy
Artist:Sybreed
ArtistUnicode:Sybreed
Creator:Platnuu
Version:Docile Environment
Source:
Tags:slave design industrial groove metal english sinhay
BeatmapID:3331463
BeatmapSetID:1632075

[Difficulty]
HPDrainRate:5
CircleSize:4.8
OverallDifficulty:9
ApproachRate:9.5
SliderMultiplier:2
SliderTickRate:1

[Events]
//Background and Video events
0,0,"Slave_Design_BG.jpg",0,0
//Break Periods
//Storyboard Layer 0 (Background)
//Storyboard Layer 1 (Fail)
//Storyboard Layer 2 (Pass)
//Storyboard Layer 3 (Foreground)
//Storyboard Layer 4 (Overlay)
//Storyboard Sound Samples

[TimingPoints]
441.285714285714,299.820107935239,4,3,1,80,1,0
1865,-100,4,3,1,5,0,0
1940,-100,4,3,1,80,0,0
2165,-100,4,3,1,5,0,0
2240,-100,4,3,1,80,0,0
4263,-100,4,3,1,5,0,0
4338,-100,4,3,1,80,0,0
4563,-100,4,3,1,5,0,0
4638,-100,4,3,1,80,0,0
6662,-100,4,3,1,5,0,0
6737,-100,4,3,1,80,0,0
6962,-100,4,3,1,5,0,0
7037,-100,4,3,1,80,0,0
11459,-100,4,3,1,5,0,0
11534,-100,4,3,1,80,0,0
11759,-100,4,3,1,5,0,0
11834,-100,4,3,1,80,0,0
13858,-100,4,3,1,5,0,0
13933,-100,4,3,1,80,0,0
14158,-100,4,3,1,5,0,0
14233,-100,4,3,1,80,0,0
16256,-100,4,3,1,5,0,0
16331,-100,4,3,1,80,0,0
16556,-100,4,3,1,5,0,0
16631,-100,4,3,1,80,0,0
19629,-90.9090909090909,4,3,1,80,0,0
21053,-90.9090909090909,4,3,1,5,0,0
21128,-90.9090909090909,4,3,1,80,0,0
21353,-90.9090909090909,4,3,1,5,0,0
21428,-90.9090909090909,4,3,1,80,0,0
25851,-90.9090909090909,4,3,1,5,0,0
25925,-90.9090909090909,4,3,1,80,0,0
26150,-90.9090909090909,4,3,1,5,0,0
26225,-90.9090909090909,4,3,1,80,0,0
30648,-90.9090909090909,4,3,1,5,0,0
30723,-90.9090909090909,4,3,1,80,0,0
30947,-90.9090909090909,4,3,1,5,0,0
31022,-90.9090909090909,4,3,1,80,0,0
33046,-90.9090909090909,4,3,1,5,0,0
33121,-90.9090909090909,4,3,1,80,0,0
33346,-90.9090909090909,4,3,1,5,0,0
33421,-90.9090909090909,4,3,1,80,0,0
35445,-90.9090909090909,4,3,1,5,0,0
35520,-90.9090909090909,4,3,1,80,0,0
35745,-90.9090909090909,4,3,1,5,0,0
35820,-90.9090909090909,4,3,1,80,0,0
38818,-100,4,3,1,70,0,0
39717,-133.333333333333,4,3,1,70,0,0
41216,-100,4,3,1,70,0,0
42116,-133.333333333333,4,3,1,70,0,0
43015,-117.647058823529,4,3,1,80,0,0
43465,-117.647058823529,4,3,1,70,0,0
44065,-100,4,3,1,70,0,0
49311,-133.333333333333,4,3,1,70,0,0
50211,-200,4,3,1,70,0,0
50811,-100,4,3,1,70,0,0
55608,-100,4,3,1,60,0,0
56207,-200,4,3,1,60,0,0
65202,-133.333333333333,4,3,1,75,0,0
69924,-133.333333333333,4,3,1,5,0,0
69999,-133.333333333333,4,3,1,75,0,0
73822,-133.333333333333,4,3,1,5,0,0
73897,-117.647058823529,4,3,1,75,0,0
74796,-133.333333333333,4,3,1,75,0,0
84091,-100,4,3,1,75,0,0
84390,-90.9090909090909,4,3,1,90,0,1
84915,-90.9090909090909,4,3,1,5,0,1
84990,-90.9090909090909,4,3,1,90,0,1
85890,-66.6666666666667,4,3,1,90,0,1
86114,-66.6666666666667,4,3,1,5,0,1
86189,-66.6666666666667,4,3,1,90,0,1
86339,-90.9090909090909,4,3,1,90,0,1
89712,-90.9090909090909,4,3,1,5,0,1
89787,-90.9090909090909,4,3,1,90,0,1
96383,299.550673989016,4,3,1,80,1,1
101175,315.78947368421,4,3,1,80,1,1
101806,299.820107935239,4,3,1,80,1,1
102405,294.117647058824,4,3,1,80,1,1
102993,299.820107935239,4,3,1,80,1,1
103592,310.880829015544,4,3,1,80,1,1
103592,-90.9090909090909,4,3,1,80,0,0
104817,298.136645962733,4,3,1,80,1,0
106009,-166.666666666667,4,3,1,75,0,0
106059,-166.666666666667,4,3,1,5,0,0
106307,-166.666666666667,4,3,1,75,0,0
106357,-166.666666666667,4,3,1,5,0,0
106605,-166.666666666667,4,3,1,75,0,0
106804,-166.666666666667,4,3,1,5,0,0
106903,-166.666666666667,4,3,1,75,0,0
107251,-166.666666666667,4,3,1,5,0,0
107500,-166.666666666667,4,3,1,75,0,0
107549,-166.666666666667,4,3,1,5,0,0
107649,-166.666666666667,4,3,1,75,0,0
107788,283.018867924528,4,3,1,80,1,0
108353,315.789473684211,4,3,1,80,1,0
108353,-125,4,3,1,65,0,0
108987,299.820107935239,4,3,1,80,1,0
109581,299.820107935239,4,3,1,80,1,0
109581,-125,4,3,1,80,0,0
122773,-76.9230769230769,4,3,1,90,0,1
123297,-76.9230769230769,4,3,1,5,0,1
123372,-76.9230769230769,4,3,1,90,0,1
123522,-90.9090909090909,4,3,1,90,0,1
124497,-90.9090909090909,4,3,1,5,0,1
124572,-90.9090909090909,4,3,1,90,0,1
140912,-166.666666666667,4,3,1,90,0,1
141883,-166.666666666667,4,3,1,5,0,1
141985,299.820107935239,4,3,1,80,1,0
141985,-100,4,3,1,85,0,0
143484,-200,4,3,1,65,0,0
145283,-100,4,3,1,65,0,0
146181,-100,4,3,1,85,0,0
148280,-100,4,3,1,65,0,0
148281,-200,4,3,1,65,0,0
149180,-100,4,3,1,85,0,0
150080,322.58064516129,4,3,1,85,1,0
150406,263.157894736842,4,3,1,80,1,0
150964,279.06976744186,4,3,1,80,1,0
151243,307.692307692308,4,3,1,80,1,0
151578,285.714285714286,4,3,1,85,1,0
152161,299.820107935239,4,3,1,85,1,0
153060,-200,4,3,1,65,0,0
154843,300,4,3,1,65,1,0
154843,-100,4,3,1,85,0,0
156343,301.507537688442,4,3,1,85,1,0
158679,-100,4,3,1,5,0,0
158755,-100,4,3,1,85,0,0
159961,299.820107935239,4,3,1,85,1,0
161083,-100,4,3,1,5,0,0
161160,306.122448979592,4,3,1,5,1,0
161160,-81.9672131147541,4,3,1,75,0,0
161389,-81.9672131147541,4,3,1,5,0,0
161466,-81.9672131147541,4,3,1,75,0,0
162070,299.820107935239,4,3,1,5,1,0
162070,-81.9672131147541,4,3,1,75,0,0
162369,299.820107935239,4,3,1,5,1,0
162369,-81.9672131147541,4,3,1,75,0,0
163235,299.820107935239,4,3,1,5,1,0
163235,-81.9672131147541,4,3,1,75,0,0
163555,299.820107935239,4,3,1,5,1,0
163555,-81.9672131147541,4,3,1,75,0,0
163779,-81.9672131147541,4,3,1,5,0,0
163854,-81.9672131147541,4,3,1,75,0,0
164679,-81.9672131147541,4,3,1,5,0,0
164754,-81.9672131147541,4,3,1,75,0,0
168726,-81.9672131147541,4,3,1,5,0,0
168801,-81.9672131147541,4,3,1,75,0,0
169026,-81.9672131147541,4,3,1,5,0,0
169101,-81.9672131147541,4,3,1,75,0,0
169626,-81.9672131147541,4,3,1,5,0,0
169701,-81.9672131147541,4,3,1,75,0,0
170675,-81.9672131147541,4,3,1,5,0,0
170750,-80,4,3,1,90,0,1
170975,-80,4,3,1,5,0,1
171050,-80,4,3,1,90,0,1
173374,-80,4,3,1,5,0,1
173449,-80,4,3,1,90,0,1
174273,-80,4,3,1,5,0,1
174348,-80,4,3,1,90,0,1
178321,-80,4,3,1,5,0,1
178396,-80,4,3,1,90,0,1
178620,-80,4,3,1,5,0,1
178695,-80,4,3,1,90,0,1
179220,-80,4,3,1,5,0,1
179295,-80,4,3,1,90,0,1
180269,-80,4,3,1,5,0,1
180344,-80,4,3,1,90,0,1
180569,-80,4,3,1,5,0,1
180644,-80,4,3,1,90,0,1
183867,-80,4,3,1,5,0,1
183942,-80,4,3,1,90,0,1
185067,-80,4,3,1,5,0,1
185142,-80,4,3,1,90,0,1
187540,-66.6666666666667,4,3,1,90,0,1
187765,-66.6666666666667,4,3,1,5,0,1
187840,-66.6666666666667,4,3,1,90,0,1
188140,-80,4,3,1,90,0,1
188440,-66.6666666666667,4,3,1,90,0,1
188664,-66.6666666666667,4,3,1,5,0,1
188756,300,4,3,1,90,1,0
188756,-66.6666666666667,4,3,1,90,0,1
188981,-66.6666666666667,4,3,1,5,0,1
189056,-80,4,3,1,90,0,1
189881,-80,4,3,1,5,0,1
189948,300.195126832441,4,3,1,70,1,0
189948,-125,4,3,1,70,0,0
199479,-125,4,3,1,5,0,0
199554,298.879202988792,4,3,1,75,1,0
199554,-117.64705882353,4,3,1,75,0,0
200077,-117.64705882353,4,3,1,5,0,0
200151,-117.64705882353,4,3,1,75,0,0
201272,-117.64705882353,4,3,1,5,0,0
201347,-117.64705882353,4,3,1,75,0,0
202169,-117.64705882353,4,3,1,5,0,0
202243,-117.64705882353,4,3,1,75,0,0
202468,-117.64705882353,4,3,1,5,0,0
202542,-117.64705882353,4,3,1,75,0,0
203364,-117.64705882353,4,3,1,5,0,0
203439,-117.64705882353,4,3,1,75,0,0
203663,-117.64705882353,4,3,1,5,0,0
203738,-117.64705882353,4,3,1,75,0,0
204560,-117.64705882353,4,3,1,5,0,0
204634,-117.64705882353,4,3,1,75,0,0
204859,-117.64705882353,4,3,1,5,0,0
204933,-117.64705882353,4,3,1,75,0,0
207922,309.278350515464,4,3,1,5,1,0
207922,-117.64705882353,4,3,1,75,0,0
208153,-117.64705882353,4,3,1,5,0,0
208231,-117.64705882353,4,3,1,75,0,0
209136,299.820107935239,4,3,1,5,1,0
209136,-117.64705882353,4,3,1,75,0,0
209660,-117.64705882353,4,3,1,5,0,0
209735,-117.64705882353,4,3,1,75,0,0
210859,-117.64705882353,4,3,1,5,0,0
210934,-117.64705882353,4,3,1,75,0,0
211909,-117.64705882353,4,3,1,5,0,0
211984,-117.64705882353,4,3,1,75,0,0
212958,-117.64705882353,4,3,1,5,0,0
213033,-117.64705882353,4,3,1,75,0,0
213258,-117.64705882353,4,3,1,5,0,0
213333,-117.64705882353,4,3,1,75,0,0
214157,-117.64705882353,4,3,1,5,0,0
214232,-117.64705882353,4,3,1,75,0,0
214457,-117.64705882353,4,3,1,5,0,0
214532,-117.64705882353,4,3,1,75,0,0
217530,-74.0740740740743,4,3,1,75,0,0
218355,-74.0740740740743,4,3,1,5,0,0
218430,-74.0740740740743,4,3,1,75,0,0
218730,-90.9090909090909,4,3,1,85,0,0
220154,-90.9090909090909,4,3,1,5,0,0
220229,-90.9090909090909,4,3,1,85,0,0
220454,-90.9090909090909,4,3,1,5,0,0
220529,-90.9090909090909,4,3,1,85,0,0
222253,-90.9090909090909,4,3,1,5,0,0
222328,-90.9090909090909,4,3,1,85,0,0
222552,-90.9090909090909,4,3,1,5,0,0
222627,-90.9090909090909,4,3,1,85,0,0
222852,-90.9090909090909,4,3,1,5,0,0
222927,-90.9090909090909,4,3,1,85,0,0
223452,-90.9090909090909,4,3,1,5,0,0
223527,-90.9090909090909,4,3,1,85,0,0
224651,-90.9090909090909,4,3,1,5,0,0
224726,-90.9090909090909,4,3,1,85,0,0
225850,-90.9090909090909,4,3,1,5,0,0
225925,-90.9090909090909,4,3,1,85,0,0
227050,-90.9090909090909,4,3,1,5,0,0
227125,-90.9090909090909,4,3,1,85,0,0
228099,-90.9090909090909,4,3,1,5,0,0
228174,-90.9090909090909,4,3,1,85,0,0
229748,-90.9090909090909,4,3,1,5,0,0
229823,-90.9090909090909,4,3,1,85,0,0
230048,-90.9090909090909,4,3,1,5,0,0
230123,-90.9090909090909,4,3,1,85,0,0
231247,-90.9090909090909,4,3,1,5,0,0
231322,-90.9090909090909,4,3,1,85,0,0
235145,-90.9090909090909,4,3,1,5,0,0
235220,-90.9090909090909,4,3,1,85,0,0
235445,-90.9090909090909,4,3,1,5,0,0
235520,-90.9090909090909,4,3,1,85,0,0
236044,-90.9090909090909,4,3,1,5,0,0
236119,-90.9090909090909,4,3,1,85,0,0
236794,-90.9090909090909,4,3,1,5,0,0
236869,-90.9090909090909,4,3,1,85,0,0
237918,-111.111111111111,4,3,1,85,0,0
239342,-111.111111111111,4,3,1,5,0,0
239417,-90.9090909090908,4,3,1,85,0,0
239717,-80,4,3,1,85,0,0
240017,-72.463768115942,4,3,1,85,0,0
240317,-111.111111111111,4,3,1,85,0,0
241441,-111.111111111111,4,3,1,5,0,0
241516,-111.111111111111,4,3,1,85,0,0
242341,-111.111111111111,4,3,1,5,0,0
242416,-111.111111111111,4,3,1,85,0,0
242640,-111.111111111111,4,3,1,5,0,0
242715,-111.111111111111,4,3,1,85,0,0
247512,-117.647058823529,4,3,1,95,0,1
248037,-117.647058823529,4,3,1,5,0,1
248112,-86.9565217391302,4,3,1,95,0,1
248712,303.030303030303,4,3,1,5,1,1
248712,-86.9565217391302,4,3,1,95,0,1
249242,-86.9565217391302,4,3,1,5,0,1
249318,-86.9565217391302,4,3,1,95,0,1
249915,299.820107935239,4,3,1,5,1,1
249915,-86.9565217391302,4,3,1,95,0,1
252313,-117.647058823529,4,3,1,95,0,1
252838,-117.647058823529,4,3,1,5,0,1
252913,-86.9565217391302,4,3,1,95,0,1
254037,-86.9565217391302,4,3,1,5,0,1
254112,-86.9565217391302,4,3,1,95,0,1
255086,-86.9565217391302,4,3,1,5,0,1
255161,-86.9565217391302,4,3,1,95,0,1
256585,-86.9565217391302,4,3,1,5,0,1
256660,-86.9565217391302,4,3,1,95,0,1
259884,-86.9565217391302,4,3,1,5,0,1
259958,-86.9565217391302,4,3,1,95,0,1
260783,291.26213592233,4,3,1,5,1,1
260783,-86.9565217391302,4,3,1,95,0,1
261290,300,4,3,1,5,1,1
261290,-86.9565217391302,4,3,1,95,0,1
261665,-86.9565217391302,4,3,1,5,0,1
261740,-86.9565217391302,4,3,1,95,0,1
261901,299.820107935239,4,3,1,5,1,1
261901,-86.9565217391302,4,3,1,95,0,1
264325,299.820107935239,4,3,1,5,1,1
264325,-86.9565217391302,4,3,1,95,0,1
264699,-86.9565217391302,4,3,1,5,0,1
264774,-86.9565217391302,4,3,1,95,0,1
266108,292.682926829268,4,3,1,5,1,1
266108,-86.9565217391302,4,3,1,95,0,1
266473,-86.9565217391302,4,3,1,5,0,1
266547,-86.9565217391302,4,3,1,95,0,1
266620,-86.9565217391302,4,3,1,5,0,1
266711,299.820107935239,4,3,1,5,1,1
266711,-117.647058823529,4,3,1,95,0,1
267235,-117.647058823529,4,3,1,5,0,1
267310,-86.9565217391302,4,3,1,95,0,1
268434,-86.9565217391302,4,3,1,5,0,1
268509,-86.9565217391302,4,3,1,95,0,1
269109,292.682926829268,4,3,1,5,1,1
269109,-86.9565217391302,4,3,1,95,0,1
270279,300,4,3,1,5,1,1
270279,-86.9565217391302,4,3,1,95,0,1
271479,310.880829015544,4,3,1,5,1,1
271479,-117.647058823529,4,3,1,95,0,1
272023,-117.647058823529,4,3,1,5,0,1
272100,-86.9565217391302,4,3,1,95,0,1
272866,292.682926829268,4,3,1,5,1,1
272866,-86.9565217391302,4,3,1,95,0,1
273904,299.820107935239,4,3,1,5,1,1
273904,-86.9565217391302,4,3,1,95,0,1
274278,-86.9565217391302,4,3,1,5,0,1
274353,-86.9565217391302,4,3,1,95,0,1
275777,-86.9565217391302,4,3,1,5,0,1
275852,-86.9565217391302,4,3,1,95,0,1
279075,-86.9565217391302,4,3,1,5,0,1
279150,-86.9565217391302,4,3,1,95,0,1
280125,-86.9565217391302,4,3,1,5,0,1
280200,-86.9565217391302,4,3,1,95,0,1
280874,-86.9565217391302,4,3,1,5,0,1
280949,-86.9565217391302,4,3,1,95,0,1
283498,305.343511450382,4,3,1,5,1,1
283498,-86.9565217391302,4,3,1,95,0,1
283879,-86.9565217391302,4,3,1,5,0,1
283956,-86.9565217391302,4,3,1,95,0,1
284719,299.820107935239,4,3,1,5,1,1
284719,-86.9565217391302,4,3,1,95,0,1
285318,279.06976744186,4,3,1,5,1,1
285318,-86.9565217391302,4,3,1,95,0,1
285597,292.682926829268,4,3,1,5,1,1
285597,-86.9565217391302,4,3,1,95,0,1
285889,301.129234629862,4,3,1,5,1,0
285889,-142.857142857143,4,3,1,70,0,0
288072,-142.857142857143,4,3,1,5,0,0
288147,-142.857142857143,4,3,1,70,0,0
304784,-142.857142857143,4,3,1,5,0,0

[Colours]
Combo1 : 182,139,61
Combo2 : 214,175,97
Combo3 : 172,145,79

[HitObjects]
62,35,441,5,4,0:0:0:0:
76,204,591,1,0,0:0:0:0:
19,132,741,2,0,B|70:115|70:115|215:141,1,200,2|10,0:0|2:3,0:0:0:0:
291,162,1191,1,0,0:0:0:0:
250,313,1341,2,0,L|231:205,1,100,2|0,0:0|2:3,0:0:0:0:
324,27,1640,6,0,B|333:-2|333:-2|357:130,1,150,2|0,0:0|0:0,0:0:0:0:
357,128,1940,2,0,L|383:275,1,150,2|0,0:0|0:0,0:0:0:0:
325,325,2240,2,0,B|408:377|408:377|465:278,1,200,10|2,2:3|2:3,0:0:0:0:
472,107,2689,1,8,2:3:0:0:
190,146,2839,5,4,0:0:0:0:
357,128,2989,1,0,0:0:0:0:
286,73,3139,2,0,B|269:124|269:124|295:269,1,200,0|10,0:0|2:3,0:0:0:0:
309,352,3589,1,0,0:0:0:0:
472,281,3739,2,0,L|372:298,1,100,2|0,0:0|2:3,0:0:0:0:
183,327,4039,6,0,B|192:356|192:356|216:224,1,150,2|0,0:0|0:0,0:0:0:0:
217,223,4338,2,0,L|243:76,1,150,2|0,0:0|0:0,0:0:0:0:
321,67,4638,2,0,B|263:-18|263:-18|180:34,1,200,10|0,2:3|2:3,0:0:0:0:
145,196,5088,1,0,2:3:0:0:
429,145,5238,5,4,0:0:0:0:
389,151,5313,1,0,0:0:0:0:
350,158,5388,1,0,0:0:0:0:
310,165,5463,1,0,0:0:0:0:
271,172,5538,1,2,0:0:0:0:
0,306,5838,5,10,2:3:0:0:
40,312,5913,1,0,0:0:0:0:
79,319,5987,1,0,0:0:0:0:
119,326,6062,1,0,0:0:0:0:
158,333,6137,2,0,L|261:312,1,100,2|0,0:0|2:3,0:0:0:0:
456,245,6437,6,0,B|485:236|485:236|353:212,1,150,4|0,0:0|0:0,0:0:0:0:
352,212,6737,2,0,L|205:186,1,150
150,254,7037,2,0,B|96:166|96:166|179:96,1,200,10|0,2:3|2:3,0:0:0:0:
346,134,7487,1,0,2:3:0:0:
202,28,7636,5,4,0:0:0:0:
162,34,7711,1,0,0:0:0:0:
123,41,7786,1,0,0:0:0:0:
83,48,7861,1,0,0:0:0:0:
44,55,7936,1,2,0:0:0:0:
22,322,8236,5,12,2:3:0:0:
204,283,8386,1,0,2:3:0:0:
101,250,8536,2,0,L|118:350,1,100,2|0,0:0|2:3,0:0:0:0:
234,384,8836,5,4,2:3:0:0:
234,384,8986,1,0,2:3:0:0:
345,366,9136,1,0,2:3:0:0:
348,346,9211,1,0,0:0:0:0:
351,326,9285,1,0,0:0:0:0:
355,306,9360,1,0,0:0:0:0:
359,286,9435,2,0,L|340:181,1,100,10|0,2:3|0:0,0:0:0:0:
318,60,9735,1,4,2:3:0:0:
205,146,9885,1,8,2:3:0:0:
471,97,10035,5,4,0:0:0:0:
457,262,10185,1,0,0:0:0:0:
512,196,10335,2,0,B|461:179|461:179|316:205,1,200,2|8,0:0|2:3,0:0:0:0:
217,221,10785,1,0,0:0:0:0:
258,384,10934,2,0,L|276:280,1,100,2|0,0:0|2:3,0:0:0:0:
361,134,11234,6,0,B|385:115|385:115|252:138,1,150,2|0,0:0|0:0,0:0:0:0:
251,138,11534,2,0,L|103:163,1,150,2|0,0:0|0:0,0:0:0:0:
61,88,11834,2,0,B|9:171|9:171|79:258,1,200,10|2,2:3|2:3,0:0:0:0:
307,195,12284,1,8,2:3:0:0:
153,228,12434,5,4,0:0:0:0:
180,380,12584,1,0,0:0:0:0:
116,318,12733,2,0,B|167:301|167:301|312:327,1,200,0|10,0:0|2:3,0:0:0:0:
409,341,13183,1,0,0:0:0:0:
388,166,13333,2,0,L|370:270,1,100,2|0,0:0|2:3,0:0:0:0:
153,143,13633,6,0,B|123:133|123:133|256:109,1,150,2|0,0:0|0:0,0:0:0:0:
257,109,13933,2,0,L|404:81,1,150,2|0,0:0|0:0,0:0:0:0:
434,0,14233,2,0,B|504:67|504:67|455:159,1,200,10|2,2:3|2:3,0:0:0:0:
296,183,14682,1,0,2:3:0:0:
411,375,14832,5,4,0:0:0:0:
405,335,14907,1,0,0:0:0:0:
398,296,14982,1,0,0:0:0:0:
391,256,15057,1,0,0:0:0:0:
384,217,15132,1,2,0:0:0:0:
233,0,15432,5,10,2:3:0:0:
227,40,15507,1,0,0:0:0:0:
220,79,15582,1,0,0:0:0:0:
213,119,15657,1,0,0:0:0:0:
206,158,15732,2,0,L|224:261,1,100,2|0,0:0|2:3,0:0:0:0:
143,344,16031,6,0,B|133:373|133:373|109:240,1,150,2|0,0:0|0:0,0:0:0:0:
109,240,16331,2,0,L|81:92,1,150,2|0,0:0|0:0,0:0:0:0:
0,73,16631,2,0,B|67:3|67:3|159:52,1,200,10|2,2:3|2:3,0:0:0:0:
190,212,17081,1,0,2:3:0:0:
400,150,17231,5,4,0:0:0:0:
360,141,17306,1,0,0:0:0:0:
321,135,17381,1,0,0:0:0:0:
281,128,17456,1,0,0:0:0:0:
242,121,17531,1,2,0:0:0:0:
311,349,17830,5,12,2:3:0:0:
486,318,17980,1,8,2:3:0:0:
393,369,18130,2,0,L|410:269,1,100,2|0,0:0|2:3,0:0:0:0:
431,158,18430,1,2,2:3:0:0:
431,158,18580,1,0,2:3:0:0:
318,182,18730,5,0,0:0:0:0:
315,162,18805,1,0,0:0:0:0:
312,142,18880,1,0,0:0:0:0:
308,122,18955,1,0,0:0:0:0:
305,103,19030,2,0,L|323:-3,1,100,10|0,2:3|0:0,0:0:0:0:
406,47,19329,1,2,2:3:0:0:
225,81,19479,1,8,2:3:0:0:
431,158,19629,5,4,0:0:0:0:
379,323,19779,1,0,0:0:0:0:
359,244,19929,2,0,P|410:247|470:265,1,110.000003356934,2|0,0:0|2:3,0:0:0:0:
299,298,20229,2,0,P|272:253|252:195,1,110.000003356934,10|0,2:3|0:0,0:0:0:0:
272,40,20529,1,0,0:0:0:0:
331,122,20679,1,0,2:3:0:0:
61,106,20829,6,0,P|14:129|90:168,1,165.000005035401,2|0,0:0|0:0,0:0:0:0:
88,177,21128,2,0,P|152:204|104:254,1,165.000005035401,2|0,0:0|0:0,0:0:0:0:
36,310,21428,2,0,P|153:322|223:255,1,220.000006713867,10|2,2:3|2:3,0:0:0:0:
196,126,21878,1,0,2:3:0:0:
241,359,22028,5,4,0:0:0:0:
426,306,22178,1,0,0:0:0:0:
320,276,22328,2,0,P|320:327|333:388,1,110.000003356934,2|0,0:0|2:3,0:0:0:0:
393,204,22627,2,0,P|350:174|293:150,1,110.000003356934,10|0,2:3|0:0,0:0:0:0:
123,176,22927,1,2,2:3:0:0:
215,210,23077,1,8,2:3:0:0:
195,55,23227,5,4,0:0:0:0:
215,210,23377,2,0,P|173:262|120:294,1,110.000003356934,0|2,2:3|0:0,0:0:0:0:
286,150,23677,2,0,P|337:169|377:206,1,110.000003356934,0|8,2:3|2:3,0:0:0:0:
476,316,23977,6,0,B|488:338|492:363|492:363|445:349|409:362|409:362|369:374|325:359,1,220.000006713867,0|0,2:3|2:3,0:0:0:0:
378,286,24426,5,4,0:0:0:0:
337,269,24501,1,0,0:0:0:0:
293,273,24576,1,0,0:0:0:0:
258,299,24651,1,0,0:0:0:0:
245,341,24726,1,2,0:0:0:0:
101,372,25026,5,10,2:3:0:0:
57,362,25101,1,0,0:0:0:0:
23,333,25176,1,0,0:0:0:0:
11,292,25251,1,0,0:0:0:0:
23,250,25326,1,2,0:0:0:0:
139,127,25476,1,0,2:3:0:0:
61,103,25626,6,0,P|79:180|157:206,1,165.000005035401,4|0,0:0|0:0,0:0:0:0:
174,202,25925,2,0,P|248:228|266:305,1,165.000005035401,2|0,0:0|0:0,0:0:0:0:
191,303,26225,2,0,P|216:357|342:315,1,220.000006713867,10|0,2:3|2:3,0:0:0:0:
354,190,26675,1,0,2:3:0:0:
201,93,26825,5,4,0:0:0:0:
235,120,26900,1,0,0:0:0:0:
278,120,26975,1,0,0:0:0:0:
314,95,27050,1,0,0:0:0:0:
320,51,27125,1,2,0:0:0:0:
39,24,27425,5,12,2:3:0:0:
84,192,27575,1,8,2:3:0:0:
107,104,27724,2,0,P|50:109|-1:123,1,110.000003356934,2|0,0:0|2:3,0:0:0:0:
172,162,28024,2,0,P|228:156|280:142,1,110.000003356934,2|0,2:3|2:3,0:0:0:0:
289,139,28249,1,0,2:3:0:0:
297,134,28324,5,2,0:0:0:0:
291,171,28399,1,0,0:0:0:0:
284,209,28474,1,0,0:0:0:0:
279,246,28549,1,0,0:0:0:0:
272,284,28624,5,12,2:3:0:0:
418,227,28774,1,0,0:0:0:0:
181,212,28924,5,4,2:3:0:0:
507,282,29074,1,8,2:3:0:0:
266,373,29224,6,0,P|208:368|156:353,1,110.000003356934,4|0,0:0|0:0,0:0:0:0:
20,269,29523,1,2,0:0:0:0:
181,212,29673,1,0,2:3:0:0:
95,182,29823,2,0,P|100:240|114:291,1,110.000003356934,10|0,2:3|0:0,0:0:0:0:
166,121,30123,1,2,0:0:0:0:
37,102,30273,1,0,2:3:0:0:
113,37,30423,6,0,P|178:31|263:76,1,165.000005035401,2|0,0:0|0:0,0:0:0:0:
277,90,30723,2,0,P|346:132|427:130,1,165.000005035401,2|0,0:0|0:0,0:0:0:0:
429,54,31022,2,0,P|504:114|441:204,1,220.000006713867,10|2,2:3|2:3,0:0:0:0:
221,146,31472,1,0,2:3:0:0:
406,352,31622,5,4,0:0:0:0:
231,310,31772,1,0,0:0:0:0:
321,277,31922,2,0,P|316:335|301:386,1,110.000003356934,2|0,0:0|2:3,0:0:0:0:
252,226,32222,2,0,P|296:195|346:172,1,110.000003356934,10|0,2:3|0:0,0:0:0:0:
430,243,32522,1,0,2:3:0:0:
231,310,32671,1,8,2:3:0:0:
429,120,32821,6,0,P|383:82|269:112,1,165.000005035401,2|0,2:3|0:0,0:0:0:0:
271,110,33121,2,0,P|193:131|126:87,1,165.000005035401,2|0,0:0|0:0,0:0:0:0:
164,22,33421,2,0,P|68:40|80:145,1,220.000006713867,10|0,2:3|2:3,0:0:0:0:
198,206,33871,1,0,2:3:0:0:
128,376,34020,5,4,0:0:0:0:
86,361,34096,1,0,0:0:0:0:
58,326,34171,1,0,0:0:0:0:
55,282,34246,1,0,0:0:0:0:
78,244,34320,1,2,0:0:0:0:
250,282,34620,5,10,2:3:0:0:
286,269,34695,1,0,0:0:0:0:
310,239,34770,1,0,0:0:0:0:
322,202,34845,1,0,0:0:0:0:
313,164,34920,1,2,0:0:0:0:
198,206,35070,1,0,2:3:0:0:
436,374,35220,6,0,P|479:307|421:216,1,165.000005035401,2|0,0:0|0:0,0:0:0:0:
441,226,35520,2,0,P|398:159|455:68,1,165.000005035401,2|0,0:0|0:0,0:0:0:0:
492,116,35820,2,0,P|466:22|357:62,1,220.000006713867,8|0,2:3|2:3,0:0:0:0:
313,164,36269,1,0,2:3:0:0:
108,64,36419,5,4,0:0:0:0:
137,31,36494,1,0,0:0:0:0:
180,22,36569,1,0,0:0:0:0:
222,31,36644,1,0,0:0:0:0:
252,63,36719,1,2,0:0:0:0:
302,341,37019,5,12,2:3:0:0:
113,291,37169,1,8,2:3:0:0:
193,252,37319,2,0,P|205:305|213:361,1,110.000003356934,0|8,0:0|2:3,0:0:0:0:
124,201,37618,2,0,P|130:146|142:91,1,110.000003356934,2|0,2:3|2:3,2:3:0:0:
145,87,37843,1,0,2:3:0:0:
147,82,37918,5,0,0:0:0:0:
184,75,37993,1,0,0:0:0:0:
222,69,38068,1,0,0:0:0:0:
259,62,38143,1,0,0:0:0:0:
296,56,38218,5,12,2:3:0:0:
387,249,38368,1,0,0:0:0:0:
361,93,38518,5,4,2:3:0:0:
309,297,38668,1,8,2:3:0:0:
481,150,38818,5,4,0:0:0:0:
481,150,38968,2,0,B|436:157|436:157|433:162|433:162|384:171,1,100,0|2,0:0|2:3,0:0:0:0:
222,231,39267,2,0,B|266:223|266:223|269:218|269:218|318:209,1,100,0|10,0:0|2:3,0:0:0:0:
496,236,39567,1,0,0:0:0:0:
388,322,39717,6,0,B|393:301|390:278|390:278|393:273|393:273|388:248|378:229|378:229|372:227|372:227|351:185|351:185|334:150|334:150|328:145|328:145|322:115|330:83|330:83|337:79|337:79|342:55|358:32,1,300.000011444092,2|2,0:0|2:3,0:0:0:0:
468,33,40467,1,0,2:3:0:0:
422,143,40617,2,0,B|412:155|392:166|392:166|389:178|389:178|330:228|272:179|272:179|270:169|270:169|252:160|238:145,1,225.000008583069,10|0,2:3|2:3,0:0:0:0:
120,27,41216,5,6,0:0:0:0:
120,27,41366,2,0,B|112:71|112:71|107:74|107:74|98:123,1,100,0|2,0:0|2:3,0:0:0:0:
39,286,41666,2,0,B|46:241|46:241|51:238|51:238|60:189,1,100,0|10,0:0|2:3,0:0:0:0:
17,120,41966,1,0,0:0:0:0:
144,188,42116,6,0,B|195:197|195:197|199:193|199:193|270:206|270:206|275:203|275:203|334:213|334:213|337:218|337:218|373:224|373:224|376:228|376:228|435:239,1,300.000011444092,2|2,0:0|2:3,0:0:0:0:
512,260,42865,1,0,2:3:0:0:
393,335,43015,2,0,B|361:317|346:293|346:293|338:292|338:292|311:232|337:183|337:183|344:183|344:183|362:155|392:141,1,255.000004863739,10|0,2:3|2:3,0:0:0:0:
467,16,43615,5,4,0:0:0:0:
475,59,43690,1,0,0:0:0:0:
483,102,43765,1,0,0:0:0:0:
432,238,43915,1,2,2:3:0:0:
395,64,44065,2,0,B|351:72|351:72|348:77|348:77|299:86,1,100,0|10,0:0|2:3,0:0:0:0:
133,119,44364,1,0,0:0:0:0:
198,41,44514,1,2,2:3:0:0:
33,127,44664,6,0,B|33:146|41:162|41:162|42:177|42:177|59:197|82:209,1,100,0|2,0:0|2:3,0:0:0:0:
23,255,44964,2,0,B|33:270|49:279|49:279|59:290|59:290|84:297|110:294,1,100,0|2,0:0|2:3,0:0:0:0:
220,265,45264,1,0,0:0:0:0:
133,119,45414,1,10,2:3:0:0:
114,366,45564,2,0,B|131:372|149:370|149:370|164:374|164:374|188:365|207:348,1,100,0|2,0:0|2:3,0:0:0:0:
380,257,45864,5,0,0:0:0:0:
371,304,45938,1,0,0:0:0:0:
362,353,46013,1,6,0:0:0:0:
308,139,46163,2,0,B|327:139|343:147|343:147|358:148|358:148|378:165|390:188,1,100,0|2,0:0|2:3,0:0:0:0:
246,72,46463,2,0,B|261:61|279:58|279:58|292:50|292:50|318:53|341:65,1,100,0|10,0:0|2:3,0:0:0:0:
142,63,46763,2,0,B|148:45|161:32|161:32|167:19|167:19|190:6|216:2,1,100,0|2,0:0|2:3,0:0:0:0:
96,173,47063,6,0,B|77:173|61:165|61:165|46:164|46:164|26:147|14:124,1,100,0|2,0:0|2:3,0:0:0:0:
158,240,47363,2,0,B|143:251|125:253|125:253|112:261|112:261|86:259|63:247,1,100,8|2,2:3|2:3,0:0:0:0:
323,176,47662,5,0,0:0:0:0:
314,223,47737,1,0,0:0:0:0:
305,272,47812,5,10,2:3:0:0:
91,363,47962,1,0,0:0:0:0:
335,337,48112,5,2,2:3:0:0:
128,304,48262,1,8,2:3:0:0:
425,263,48412,5,4,0:0:0:0:
425,263,48562,2,0,B|433:307|433:307|438:310|438:310|447:359,1,100,0|2,0:0|2:3,0:0:0:0:
431,183,48862,2,0,B|423:139|423:139|418:136|418:136|409:87,1,100,0|10,0:0|2:3,0:0:0:0:
497,230,49162,1,0,0:0:0:0:
349,214,49311,6,0,B|329:241|290:238|290:238|283:243|283:243|236:238|204:208|204:208|177:179|141:172|141:172|135:164|135:164|101:163|73:180,1,300.000011444092,2|2,0:0|2:3,0:0:0:0:
115,264,50061,1,0,2:3:0:0:
285,146,50211,2,0,B|271:73|271:73|276:67|276:67|263:-6,1,150,10|0,2:3|2:3,0:0:0:0:
11,20,50811,5,4,0:0:0:0:
60,29,50886,1,0,0:0:0:0:
108,37,50960,1,0,0:0:0:0:
190,96,51110,1,2,2:3:0:0:
39,142,51260,6,0,B|23:160|19:183|19:183|13:189|13:189|15:214|28:237,1,100,0|10,0:0|2:3,0:0:0:0:
111,245,51560,2,0,B|108:268|118:290|118:290|116:298|116:298|132:317|156:329,1,100,0|2,0:0|2:3,0:0:0:0:
228,297,51860,2,0,B|239:318|259:329|259:329|263:337|263:337|287:344|313:339,1,100,0|2,0:0|2:3,0:0:0:0:
498,211,52160,6,0,B|476:200|453:202|453:202|445:198|445:198|422:206|403:224,1,100,0|2,0:0|2:3,0:0:0:0:
376,141,52460,2,0,B|352:144|334:159|334:159|325:160|325:160|311:180|306:206,1,100,0|10,0:0|2:3,0:0:0:0:
245,129,52759,2,0,B|227:145|221:168|221:168|215:173|215:173|214:198|225:222,1,100,0|2,0:0|2:3,0:0:0:0:
438,384,53059,5,0,0:0:0:0:
446,334,53134,1,0,0:0:0:0:
455,285,53209,1,4,0:0:0:0:
438,47,53359,6,0,B|447:96|447:96|452:99|452:99|460:143,1,100,0|2,0:0|2:3,0:0:0:0:
342,266,53659,2,0,B|350:222|350:222|355:219|355:219|364:170,1,100,0|10,0:0|2:3,0:0:0:0:
255,20,53959,2,0,B|264:69|264:69|269:72|269:72|277:116,1,100,0|2,0:0|2:3,0:0:0:0:
258,252,54258,1,0,0:0:0:0:
346,32,54408,1,2,2:3:0:0:
81,50,54558,6,0,B|130:59|130:59|133:64|133:64|177:72,2,100,8|2|0,2:3|2:3|0:0,0:0:0:0:
18,128,55008,2,0,B|7:149|10:172|10:172|5:180|5:180|14:203|33:222,1,100,10|0,2:3|0:0,0:0:0:0:
150,274,55308,1,2,2:3:0:0:
112,150,55458,1,8,2:3:0:0:
89,384,55608,5,4,0:0:0:0:
337,340,55908,1,2,0:0:0:0:
337,340,56207,2,0,L|401:351,2,50,10|0|2,2:3|0:0|2:3,2:3:0:0:
249,320,56657,1,0,0:0:0:0:
449,287,56807,5,2,0:0:0:0:
489,58,57107,1,2,0:0:0:0:
489,58,57407,2,0,L|430:68,1,50,10|0,2:3|0:0,0:0:0:0:
364,83,57706,1,2,2:3:0:0:
93,23,58006,5,2,0:0:0:0:
53,252,58306,1,2,0:0:0:0:
53,252,58606,2,0,L|-11:263,2,50,10|0|2,2:3|0:0|2:3,0:0:0:0:
158,231,59056,1,0,0:0:0:0:
118,333,59206,5,2,0:0:0:0:
91,144,59355,1,8,2:3:0:0:
256,210,59505,1,2,0:0:0:0:
477,317,59805,5,10,2:3:0:0:
301,364,59955,1,10,2:3:0:0:
336,189,60105,2,0,L|389:198,1,50,2|2,2:3|2:3,0:0:0:0:
506,216,60405,5,2,0:0:0:0:
185,244,60705,1,2,0:0:0:0:
185,244,61004,2,0,L|174:302,2,50,10|0|2,2:3|0:0|2:3,0:0:0:0:
206,154,61454,1,0,0:0:0:0:
77,99,61604,6,0,P|39:96|15:107,1,50,2|0,0:0|2:3,0:0:0:0:
206,154,61904,1,2,2:3:0:0:
42,178,62054,2,0,P|9:197|-4:220,1,50,0|10,0:0|2:3,0:0:0:0:
65,261,62354,2,0,P|49:295|51:321,1,50,0|2,0:0|2:3,0:0:0:0:
206,154,62653,1,0,0:0:0:0:
140,311,62803,5,2,0:0:0:0:
411,358,63103,1,2,0:0:0:0:
411,358,63403,2,0,L|421:300,1,50,10|0,2:3|2:3,0:0:0:0:
440,193,63703,1,2,0:0:0:0:
378,238,63853,1,0,0:0:0:0:
485,257,64003,1,2,0:0:0:0:
230,328,64302,5,4,0:0:0:0:
217,326,64377,1,0,2:3:0:0:
204,324,64452,1,0,2:3:0:0:
191,322,64527,1,0,2:3:0:0:
178,319,64602,2,0,L|185:277,3,25,10|0|0|0,2:3|2:3|2:3|2:3,2:3:0:0:
84,360,64902,2,0,L|91:401,3,25,2|2|2|2,2:3|2:3|2:3|2:3,2:3:0:0:
16,285,65202,6,0,B|16:261|10:241|10:241|24:207|24:207|12:177|16:137,2,150,4|2|10,0:0|0:0|2:3,0:0:0:0:
174,148,65951,1,0,0:0:0:0:
174,148,66101,2,0,P|127:149|92:164,1,75.0000028610231,2|0,2:3|0:0,0:0:0:0:
259,210,66401,6,0,P|272:146|252:57,2,150.000005722046,2|2|10,0:0|0:0|2:3,0:0:0:0:
154,235,67151,1,0,0:0:0:0:
223,310,67301,2,0,P|259:308|299:293,1,75.0000028610231,2|0,2:3|2:3,0:0:0:0:
387,186,67600,6,0,B|390:223|378:253|378:253|392:287|392:287|386:307|386:331,2,150,2|2|10,0:0|0:0|2:3,0:0:0:0:
474,139,68350,2,0,P|447:107|418:88,1,75.0000028610231,0|2,0:0|2:3,0:0:0:0:
472,228,68650,1,8,2:3:0:0:
300,215,68800,6,0,B|251:223|206:209|206:209|183:222|152:223,2,150.000005722046,2|2|10,0:0|0:0|2:3,0:0:0:0:
215,301,69549,1,8,2:3:0:0:
260,134,69699,2,0,B|275:45|275:45|292:81,1,112.500004291535,2|0,2:3|0:0,0:0:0:0:
285,65,69999,6,0,B|312:76|312:76|346:63|346:63|384:76|429:69,2,150.000005722046,4|2|10,0:0|0:0|2:3,0:0:0:0:
494,17,70749,2,0,P|515:66|507:101,1,75.0000028610231,0|2,0:0|2:3,0:0:0:0:
454,150,71048,1,0,0:0:0:0:
396,274,71198,6,0,B|382:238|382:238|391:214|391:214|360:177|367:134,1,150.000005722046,2|2,0:0|2:3,0:0:0:0:
454,150,71648,2,0,P|491:165|512:198,1,75.0000028610231,0|10,0:0|2:3,0:0:0:0:
314,217,71948,2,0,P|277:232|256:265,1,75.0000028610231,0|2,0:0|2:3,0:0:0:0:
317,322,72248,1,0,0:0:0:0:
171,243,72398,6,0,B|161:291|199:329|199:329|186:354|186:354|199:382,2,150.000005722046,2|2|10,0:0|0:0|2:3,0:0:0:0:
190,44,73297,5,2,0:0:0:0:
286,32,73447,1,0,0:0:0:0:
125,90,73597,2,0,B|42:75|42:75|71:62,1,112.500004291535,2|0,0:0|0:0,0:0:0:0:
80,65,73897,2,0,B|109:137|80:196|80:196|97:217|97:217|68:262|85:309|151:335|189:286,1,340.000006484985,2|0,0:0|2:3,0:0:0:0:
16,136,74646,1,0,2:3:0:0:
194,211,74796,6,0,B|228:215|258:251|258:251|291:235|291:235|307:247|323:253,2,150.000005722046,4|2|10,0:0|0:0|2:3,0:0:0:0:
294,94,75546,2,0,P|276:132|272:168,1,75.0000028610231,0|2,0:0|2:3,0:0:0:0:
290,322,75846,1,8,2:3:0:0:
436,383,75995,6,0,P|445:326|410:240,2,150.000005722046,2|2|10,0:0|0:0|2:3,0:0:0:0:
290,322,76745,2,0,P|332:327|376:321,1,75.0000028610231,0|2,0:0|2:3,0:0:0:0:
77,266,77195,5,2,0:0:0:0:
116,384,77345,2,0,P|135:342|134:302,1,75.0000028610231,0|2,0:0|2:3,0:0:0:0:
218,324,77644,2,0,P|209:278|185:246,1,75.0000028610231,0|10,0:0|2:3,0:0:0:0:
267,216,77944,2,0,P|234:183|196:171,1,75.0000028610231,0|2,0:0|2:3,0:0:0:0:
107,174,78244,1,0,0:0:0:0:
146,65,78394,6,0,B|93:53|53:76|53:76|27:66|27:66|15:79|-6:86,2,150.000005722046,2|2|2,0:0|0:0|0:0,0:0:0:0:
213,95,79144,1,0,2:3:0:0:
107,174,79293,1,10,2:3:0:0:
53,0,79443,1,8,2:3:0:0:
281,24,79593,6,0,P|311:85|285:167,2,150.000005722046,4|2|10,0:0|0:0|2:3,0:0:0:0:
213,95,80343,2,0,P|176:101|135:100,1,75.0000028610231,0|2,0:0|2:3,0:0:0:0:
191,13,80643,1,0,0:0:0:0:
223,212,80793,6,0,B|230:225|243:236|243:236|228:260|228:260|261:301|243:359,1,150.000005722046,2|2,0:0|2:3,0:0:0:0:
160,316,81242,2,0,P|120:319|78:330,1,75.0000028610231,0|10,0:0|2:3,0:0:0:0:
324,268,81542,2,0,P|363:271|405:282,1,75.0000028610231,0|2,0:0|2:3,0:0:0:0:
464,344,81842,1,0,0:0:0:0:
246,345,81992,5,4,0:0:0:0:
224,83,82292,1,0,0:0:0:0:
246,345,82591,1,12,2:3:0:0:
246,345,82891,5,0,2:3:0:0:
156,321,83041,1,0,2:3:0:0:
342,183,83191,5,8,2:3:0:0:
250,250,83341,1,8,2:3:0:0:
445,218,83491,5,8,2:3:0:0:
161,213,83641,1,8,2:3:0:0:
190,28,83791,5,4,2:3:0:0:
206,65,83866,1,0,2:3:0:0:
240,88,83941,1,0,2:3:0:0:
281,88,84016,1,0,2:3:0:0:
316,67,84092,2,0,L|307:16,1,50,8|0,2:3|2:3,2:3:0:0:
98,95,84241,2,0,L|107:44,1,50,8|0,2:3|2:3,2:3:0:0:
382,126,84390,6,2,B|403:103|405:77|405:77|426:100|426:100|434:101|434:101|451:128|438:171|438:171|431:175|431:175|421:197|421:197|406:222|406:222|399:226|399:226|386:254|389:291|389:291|398:295|398:295|415:321|415:321|426:300|442:285,1,385.000011749268,6|2,0:0|0:0,0:0:0:0:
488,231,84990,1,10,2:3:0:0:
321,189,85140,2,0,B|272:198|272:198|266:204|266:204|181:219,1,110.000003356934,0|2,0:0|2:3,0:0:0:0:
43,250,85440,1,0,0:0:0:0:
228,123,85590,5,6,2:3:0:0:
191,371,85740,1,0,0:0:0:0:
319,304,85890,2,0,B|341:271|341:271|328:201|328:201|331:192|331:192|323:143|323:143|352:90,1,225.000008583069,2|10,0:0|2:3,0:0:0:0:
356,85,86189,1,8,2:3:0:0:
512,186,86339,2,0,B|463:177|463:177|457:171|457:171|372:156,1,110.000003356934,0|2,0:0|2:3,0:0:0:0:
253,249,86639,1,8,2:3:0:0:
417,254,86789,5,6,0:0:0:0:
157,323,86939,1,0,0:0:0:0:
346,334,87089,1,2,0:0:0:0:
261,157,87239,1,0,0:0:0:0:
487,190,87389,6,0,B|492:239|492:239|496:248|496:248|504:306,1,110.000003356934,14|0,0:0|0:0,0:0:0:0:
338,206,87688,1,2,0:0:0:0:
478,112,87838,1,0,0:0:0:0:
268,68,87988,5,6,0:0:0:0:
311,275,88138,1,0,0:0:0:0:
302,138,88288,5,6,0:0:0:0:
273,346,88438,1,0,0:0:0:0:
338,206,88588,2,0,B|385:197|385:197|397:200|397:200|464:188,1,110.000003356934,14|0,0:0|0:0,0:0:0:0:
360,84,88888,5,6,0:0:0:0:
245,214,89038,1,0,0:0:0:0:
149,92,89188,6,0,B|158:75|158:75|161:55|173:37|173:37|152:43|129:46|129:46|112:76|112:76|104:84|104:84|93:108|98:143|98:143|106:152|106:152|111:185|111:185|115:212|115:212|121:220|121:220|116:250|99:268|99:268|89:269|89:269|71:285|41:293,1,385.000011749268,4|0,0:0|0:0,0:0:0:0:
37,202,89787,1,8,2:3:0:0:
184,173,89937,2,0,B|211:172|233:161|233:161|239:154|239:154|270:152|301:164,1,110.000003356934,0|2,0:0|2:3,0:0:0:0:
474,139,90237,2,0,B|447:140|425:151|425:151|419:158|419:158|388:160|357:148,1,110.000003356934,0|0,0:0|2:3,0:0:0:0:
321,85,90537,1,0,0:0:0:0:
337,222,90687,2,0,B|345:271|345:271|340:282|340:282|349:334,1,110.000003356934,2|0,0:0|2:3,0:0:0:0:
456,300,90986,5,8,2:3:0:0:
223,340,91136,1,2,0:0:0:0:
415,359,91286,5,2,2:3:0:0:
190,275,91436,1,0,0:0:0:0:
466,222,91586,6,0,B|473:203|475:189|475:189|482:182|482:182|479:142|461:116|461:116|475:90|475:90|469:63|469:63|472:53|472:53|463:5,1,220.000006713867,4|2,0:0|2:3,0:0:0:0:
392,165,92036,1,0,0:0:0:0:
301,70,92186,1,10,2:3:0:0:
172,124,92336,1,0,2:3:0:0:
112,46,92486,2,0,B|127:35|157:29|157:29|165:35|165:35|189:40|216:34,1,110.000003356934,2|0,2:3|0:0,0:0:0:0:
45,219,92785,6,0,B|48:198|48:198|41:190|41:190|49:163|49:163|30:139|30:139|37:111|37:111|10:62|35:7,1,220.000006713867,6|0,2:3|2:3,0:0:0:0:
137,127,93235,2,0,B|157:121|157:121|197:130,2,36.6666677856446
127,138,93385,5,14,2:3:0:0:
160,337,93535,1,8,2:3:0:0:
174,201,93685,5,6,2:3:0:0:
100,384,93835,1,0,0:0:0:0:
416,284,93985,5,4,0:0:0:0:
431,282,94060,1,0,0:0:0:0:
447,279,94135,1,0,0:0:0:0:
370,179,94284,5,6,0:0:0:0:
385,181,94359,1,0,0:0:0:0:
401,184,94434,1,0,0:0:0:0:
323,300,94584,5,14,0:0:0:0:
338,298,94659,1,0,0:0:0:0:
354,295,94734,1,0,0:0:0:0:
275,161,94884,5,6,0:0:0:0:
290,163,94959,1,0,0:0:0:0:
306,166,95034,1,0,0:0:0:0:
223,315,95184,5,6,0:0:0:0:
238,313,95259,1,0,0:0:0:0:
254,310,95334,1,0,0:0:0:0:
174,142,95484,5,6,0:0:0:0:
189,144,95559,1,0,0:0:0:0:
205,147,95634,1,0,0:0:0:0:
121,334,95784,5,14,0:0:0:0:
136,332,95859,1,0,0:0:0:0:
152,329,95933,1,0,0:0:0:0:
24,109,96083,5,6,0:0:0:0:
39,111,96158,1,0,0:0:0:0:
53,114,96233,2,0,L|119:129,1,55.0000016784668
8,215,96383,6,0,B|59:222|59:222|67:227|67:227|140:234|140:234|147:228|147:228|212:235,1,200,4|2,0:0|2:3,0:0:0:0:
396,273,96832,1,0,0:0:0:0:
423,108,96982,1,10,2:3:0:0:
489,243,97131,1,8,2:3:0:0:
305,301,97281,2,0,B|296:274|302:252|302:252|299:245|299:245|309:219|334:197,1,100,2|0,0:0|2:3,0:0:0:0:
423,108,97581,5,6,2:3:0:0:
423,108,97730,1,0,2:3:0:0:
367,0,97880,1,0,0:0:0:0:
333,18,97955,1,0,0:0:0:0:
296,31,98030,1,0,0:0:0:0:
257,32,98105,1,0,0:0:0:0:
219,24,98180,5,14,2:3:0:0:
435,41,98330,1,0,0:0:0:0:
171,85,98479,5,6,2:3:0:0:
392,101,98629,1,0,0:0:0:0:
63,158,98779,5,6,0:0:0:0:
48,160,98854,1,0,0:0:0:0:
32,163,98929,1,0,0:0:0:0:
109,263,99078,5,6,0:0:0:0:
94,261,99153,1,0,0:0:0:0:
78,258,99228,1,0,0:0:0:0:
156,142,99378,5,12,0:0:0:0:
141,144,99453,1,0,0:0:0:0:
125,147,99528,1,0,0:0:0:0:
204,281,99678,5,6,0:0:0:0:
189,279,99752,1,0,0:0:0:0:
173,276,99827,1,0,0:0:0:0:
256,127,99977,5,6,0:0:0:0:
241,129,100052,1,0,0:0:0:0:
225,132,100127,1,0,0:0:0:0:
305,300,100277,5,6,0:0:0:0:
290,298,100352,1,0,0:0:0:0:
274,295,100426,1,0,0:0:0:0:
358,108,100576,5,14,0:0:0:0:
343,110,100651,1,0,0:0:0:0:
327,113,100726,1,0,0:0:0:0:
454,333,100876,5,6,0:0:0:0:
439,330,100951,1,0,0:0:0:0:
423,327,101026,2,0,L|364:315,1,50
503,189,101175,6,0,B|449:193|449:193|440:203|440:203|371:209|371:209|363:201|363:201|289:206,1,200,4|2,0:0|2:3,0:0:0:0:
127,223,101648,1,0,0:0:0:0:
138,70,101806,5,10,2:3:0:0:
202,269,101955,2,0,B|214:243|212:221|212:221|218:215|218:215|209:187|185:160,1,100,8|2,2:3|2:3,0:0:0:0:
93,143,102255,1,0,0:0:0:0:
319,53,102405,6,0,B|372:63|372:63|379:61|379:61|433:71,1,100,2|0,0:0|0:0,2:3:0:0:
415,82,102625,1,0,3:0:0:0:
412,93,102699,2,0,L|478:104,1,50,0|0,2:3|0:0,0:0:0:0:
373,272,102846,1,0,0:0:0:0:
380,283,102919,1,0,0:0:0:0:
386,293,102993,6,0,B|346:301|346:301|340:299|340:299|286:309,2,100,12|0|2,0:0|0:0|0:0,0:0:0:0:
454,171,103442,1,0,0:0:0:0:
500,375,103592,1,4,0:0:0:0:
321,155,106009,6,0,L|353:160,1,19.9999993896485
504,187,106307,2,0,L|471:192,1,19.9999993896485
409,317,106605,1,8,2:3:0:0:
409,317,106754,2,0,L|413:284,1,19.9999993896485
392,384,106903,1,0,2:3:0:0:
422,228,107053,1,0,2:3:0:0:
442,118,107202,6,0,L|436:152,1,19.9999993896485
267,28,107500,2,0,L|273:-7,1,19.9999993896485
258,94,107649,1,0,2:3:0:0:
122,10,107788,5,8,2:3:0:0:
159,214,107929,1,8,2:3:0:0:
155,77,108071,5,8,2:3:0:0:
135,147,108212,1,8,2:3:0:0:
321,206,108353,6,0,B|353:208|375:196|375:196|401:209|401:209|406:205|406:205|433:218|433:218|456:203|497:195,2,160,4|2|8,0:0|0:0|2:3,0:0:0:0:
483,279,109136,2,0,L|502:386,1,100,0|2,0:0|2:3,0:0:0:0:
363,282,109436,1,0,0:0:0:0:
436,135,109581,6,0,L|451:38,1,80,2|0,0:0|2:3,0:0:0:0:
286,151,109880,1,2,2:3:0:0:
345,68,110030,2,0,P|306:54|247:69,1,80,0|10,0:0|2:3,0:0:0:0:
118,114,110330,2,0,P|157:128|212:107,1,80,0|2,0:0|2:3,0:0:0:0:
180,39,110630,1,0,0:0:0:0:
215,197,110780,6,0,B|214:232|226:254|226:254|213:280|213:280|217:285|217:285|204:312|204:312|219:335|216:373,2,160,2|2|10,0:0|0:0|2:3,0:0:0:0:
377,222,111679,1,2,0:0:0:0:
142,262,111829,1,0,0:0:0:0:
289,301,111979,2,0,L|384:318,1,80,6|0,3:0|2:3,3:0:0:0:
459,165,112279,5,0,2:3:0:0:
456,152,112354,1,0,2:3:0:0:
454,139,112429,1,0,2:3:0:0:
452,126,112504,1,0,2:3:0:0:
449,112,112579,2,0,L|496:104,3,40,12|0|0|0,2:3|2:3|2:3|2:3,2:3:0:0:
385,64,112879,2,0,L|342:56,3,40,2|2|2|2,2:3|2:3|2:3|2:3,2:3:0:0:
434,12,113178,6,0,B|424:83|424:83|412:92|412:92|396:180,2,160,4|2|10,0:0|0:0|2:3,0:0:0:0:
259,41,113928,2,0,L|355:58,1,80,0|2,0:0|2:3,0:0:0:0:
482,140,114228,1,0,0:0:0:0:
305,144,114378,6,0,B|285:188|308:220|308:220|309:229|309:229|338:268|387:271,2,160,2|2|10,0:0|0:0|2:3,0:0:0:0:
130,0,115277,6,0,L|137:104,1,80,2|0,2:3|2:3,0:0:0:0:
167,229,115577,5,0,0:0:0:0:
78,292,115727,2,0,B|64:307|42:309|42:309|37:312|37:312|15:312|-8:296,1,80,0|2,0:0|2:3,0:0:0:0:
161,324,116027,2,0,B|158:344|141:358|141:358|138:363|138:363|120:376|92:377,1,80,0|10,0:0|2:3,0:0:0:0:
256,292,116326,2,0,B|265:310|259:331|259:331|260:337|260:337|253:358|230:374,1,80,0|2,0:0|2:3,0:0:0:0:
167,229,116626,1,8,0:0:0:0:
325,197,116776,6,0,B|365:233|367:281|367:281|390:289|390:289|393:316|409:340,2,160,2|2|10,0:0|0:0|2:3,0:0:0:0:
256,292,117526,1,8,2:3:0:0:
481,304,117676,1,4,2:3:0:0:
228,210,117826,1,0,2:3:0:0:
442,220,117975,6,0,B|454:142|454:142|451:130|451:130|466:44,2,160,4|2|10,0:0|0:0|2:3,0:0:0:0:
338,122,118725,2,0,L|450:143,1,80,0|2,0:0|2:3,0:0:0:0:
347,31,119025,1,0,0:0:0:0:
251,168,119175,5,2,0:0:0:0:
251,168,119325,2,0,B|236:154|233:132|233:132|231:127|231:127|231:105|247:83,1,80,0|2,2:3|2:3,0:0:0:0:
334,211,119624,5,0,0:0:0:0:
334,211,119774,2,0,B|338:231|327:249|327:249|326:256|326:256|314:274|290:285,1,80,10|0,2:3|0:0,0:0:0:0:
174,259,120074,5,2,2:3:0:0:
333,121,120224,1,0,0:0:0:0:
245,349,120374,6,0,B|299:386|355:346|355:346|376:351|376:351|395:345,2,160,4|2|10,0:0|0:0|2:3,0:0:0:0:
394,194,121124,2,0,L|379:288,1,80,0|2,2:3|2:3,0:0:0:0:
185,286,121423,1,0,2:3:0:0:
413,112,121573,5,8,2:3:0:0:
153,153,121723,1,8,2:3:0:0:
445,42,121873,2,0,B|398:26|353:34|353:34|380:49,1,120,4|0,2:3|2:3,2:3:0:0:
413,112,122173,5,8,2:3:0:0:
461,167,122273,5,8,2:3:0:0:
423,230,122373,5,8,2:3:0:0:
350,231,122473,5,8,2:3:0:0:
314,295,122573,5,8,2:3:0:0:
354,356,122673,5,8,2:3:0:0:
425,343,122773,6,2,B|445:334|445:334|447:324|447:324|468:311|468:311|441:291|441:291|440:280|440:280|381:247|325:275|325:275|322:285|322:285|309:296|309:296|291:306|291:306|287:316|287:316|225:358|167:315|167:315|165:307|165:307|140:298|126:275,1,454.999979171754,6|2,0:0|0:0,0:0:0:0:
227,246,123372,1,10,2:3:0:0:
55,341,123522,2,0,P|39:288|48:235,1,110.000003356934,0|2,0:0|2:3,0:0:0:0:
106,124,123822,1,0,0:0:0:0:
127,384,123972,5,2,2:3:0:0:
227,246,124122,1,0,0:0:0:0:
356,358,124272,2,0,B|376:230|376:230|395:271,1,165.000005035401,2|0,0:0|0:0,0:0:0:0:
390,262,124572,1,10,2:3:0:0:
329,155,124721,2,0,P|401:137|446:167,1,110.000003356934,0|2,0:0|2:3,0:0:0:0:
505,235,125021,1,8,2:3:0:0:
227,246,125171,5,4,0:0:0:0:
281,33,125321,1,0,0:0:0:0:
430,151,125471,1,2,0:0:0:0:
206,85,125621,1,0,0:0:0:0:
309,281,125771,6,0,B|317:328|317:328|326:335|326:335|335:387,1,110.000003356934,12|0,0:0|0:0,0:0:0:0:
213,218,126071,1,2,0:0:0:0:
358,202,126221,1,0,0:0:0:0:
140,365,126370,5,4,0:0:0:0:
179,141,126520,1,0,0:0:0:0:
181,294,126670,5,0,0:0:0:0:
143,71,126820,1,0,0:0:0:0:
12,260,126970,6,0,B|61:251|61:251|68:241|68:241|115:233,1,110.000003356934,8|0,0:0|0:0,0:0:0:0:
340,189,127270,5,0,0:0:0:0:
98,138,127420,1,0,0:0:0:0:
446,191,127570,6,0,B|459:224|459:224|466:228|466:228|478:265|459:306|459:306|447:312|447:312|425:330|425:330|423:352|423:352|401:359|379:374|379:374|354:361|324:357|324:357|297:368|297:368|285:376|285:376|253:383|220:377|220:377|209:369|209:369|185:364,1,440.000013427735,4|10,0:0|2:3,0:0:0:0:
277,173,128319,2,0,B|268:222|268:222|258:229|258:229|250:276,1,110.000003356934,0|2,0:0|2:3,0:0:0:0:
334,103,128619,2,0,B|342:53|342:53|352:46|352:46|360:0,1,110.000003356934,0|0,0:0|2:3,0:0:0:0:
362,187,128919,1,0,0:0:0:0:
246,93,129069,2,0,B|224:81|199:84|199:84|188:80|188:80|162:88|138:106,1,110.000003356934,2|0,0:0|2:3,0:0:0:0:
176,314,129369,5,8,2:3:0:0:
206,157,129519,1,0,0:0:0:0:
208,381,129668,5,2,2:3:0:0:
178,224,129818,1,0,0:0:0:0:
467,320,129968,6,0,B|409:353|371:330|371:330|348:344|348:344|306:338|306:338|297:327|297:327|260:320,1,220.000006713867,4|2,0:0|2:3,0:0:0:0:
413,254,130418,1,0,0:0:0:0:
252,212,130568,5,10,2:3:0:0:
418,152,130718,2,0,B|427:103|427:103|436:98|436:98|446:41,1,110.000003356934,8|2,2:3|2:3,0:0:0:0:
496,211,131018,1,0,0:0:0:0:
359,35,131168,6,0,B|322:31|302:18|302:18|289:30|270:36|270:36|245:25|245:25|239:18|239:18|211:5|181:18|181:18|175:24|175:24|162:34|144:39,1,220.000006713867,6|2,2:3|2:3,0:0:0:0:
319,130,131617,2,0,L|325:175,2,36.6666677856446
317,111,131767,5,12,2:3:0:0:
102,157,131917,1,8,2:3:0:0:
255,160,132067,5,4,2:3:0:0:
40,114,132217,1,0,2:3:0:0:
342,269,132367,5,4,0:0:0:0:
345,282,132442,1,0,0:0:0:0:
347,296,132517,1,0,0:0:0:0:
200,294,132667,5,4,0:0:0:0:
203,307,132742,1,0,0:0:0:0:
205,321,132817,1,0,0:0:0:0:
354,252,132966,5,12,0:0:0:0:
359,266,133041,1,0,0:0:0:0:
364,279,133116,1,0,0:0:0:0:
184,283,133266,5,4,0:0:0:0:
184,297,133341,1,0,0:0:0:0:
184,311,133416,1,0,0:0:0:0:
363,234,133566,5,4,0:0:0:0:
370,246,133641,1,0,0:0:0:0:
377,259,133716,1,0,0:0:0:0:
169,269,133866,5,4,0:0:0:0:
166,282,133941,1,0,0:0:0:0:
164,296,134016,1,0,0:0:0:0:
369,215,134166,5,12,0:0:0:0:
378,226,134241,1,0,0:0:0:0:
387,236,134316,1,0,0:0:0:0:
157,252,134466,5,4,0:0:0:0:
152,266,134541,1,0,0:0:0:0:
146,281,134615,2,0,L|126:340,1,55.0000016784668
280,379,134765,6,0,B|271:352|280:322|280:322|276:279|276:279|269:273|269:273|263:233|263:233|271:194|263:154,1,220.000006713867,4|2,0:0|2:3,0:0:0:0:
188,193,135215,1,0,0:0:0:0:
354,341,135365,1,10,2:3:0:0:
188,193,135515,1,8,2:3:0:0:
369,215,135665,2,0,B|418:206|418:206|423:197|423:197|480:187,1,110.000003356934,2|0,0:0|2:3,0:0:0:0:
486,66,135965,5,2,2:3:0:0:
486,66,136115,1,0,2:3:0:0:
305,133,136264,5,0,0:0:0:0:
282,163,136339,1,0,0:0:0:0:
272,199,136414,1,0,0:0:0:0:
277,237,136489,1,0,0:0:0:0:
298,268,136564,5,12,2:3:0:0:
356,57,136714,1,0,0:0:0:0:
359,214,136864,5,4,2:3:0:0:
301,3,137014,1,0,0:0:0:0:
102,54,137164,5,4,0:0:0:0:
99,67,137239,1,0,0:0:0:0:
97,81,137314,1,0,0:0:0:0:
243,79,137464,5,4,0:0:0:0:
241,92,137539,1,0,0:0:0:0:
238,106,137614,1,0,0:0:0:0:
89,37,137764,5,12,0:0:0:0:
85,50,137839,1,0,0:0:0:0:
80,64,137914,1,0,0:0:0:0:
260,67,138063,5,4,0:0:0:0:
260,81,138138,1,0,0:0:0:0:
260,95,138213,1,0,0:0:0:0:
80,19,138363,5,4,0:0:0:0:
73,31,138438,1,0,0:0:0:0:
66,43,138513,1,0,0:0:0:0:
275,54,138663,5,4,0:0:0:0:
277,67,138738,1,0,0:0:0:0:
280,81,138813,1,0,0:0:0:0:
75,0,138963,5,12,0:0:0:0:
66,11,139038,1,0,0:0:0:0:
57,21,139113,1,0,0:0:0:0:
287,37,139263,5,4,0:0:0:0:
292,50,139338,1,0,0:0:0:0:
296,63,139413,2,0,L|315:118,1,55.0000016784668
196,11,139563,6,0,B|178:39|186:69|186:69|178:111|178:111|171:117|171:117|161:157|161:157|167:200|136:232,1,220.000006713867,4|0,0:0|2:3,0:0:0:0:
263,160,140012,2,0,L|316:153,2,36.6666677856446
240,162,140162,5,0,0:0:0:0:
375,142,140312,1,0,0:0:0:0:
146,219,140462,5,12,2:3:0:0:
49,243,140612,2,0,P|43:197|97:132,1,110.000003356934,4|0,0:0|2:3,0:0:0:0:
117,308,140912,2,0,B|135:312|135:312|143:317|143:317|171:320|197:306|197:306|202:298|202:298|233:293|256:281|256:281|286:290|314:288|314:288|323:287|323:287|354:301|371:335|371:335|369:351|369:351|378:373|378:373|379:337|401:314,1,389.999988098145,12|0,0:0|0:0,0:0:0:0:
457,371,141985,5,4,0:0:0:0:
458,198,142134,2,0,B|464:204|470:214|470:214|475:217|475:217|483:244|475:274|475:274|472:277|472:277|468:288|460:298,1,100,0|0,2:3|2:3,0:0:0:0:
379,229,142434,2,0,B|373:223|367:213|367:213|362:210|362:210|354:183|362:153|362:153|365:150|365:150|369:139|377:129,1,100,0|8,0:0|2:3,0:0:0:0:
459,111,142734,1,0,2:3:0:0:
458,198,142884,5,0,0:0:0:0:
383,62,143034,2,0,B|383:60|372:56|372:56|369:53|369:53|339:45|312:53|312:53|309:58|309:58|299:64|293:70,1,100,0|0,0:0|2:3,0:0:0:0:
236,149,143334,1,0,0:0:0:0:
153,0,143484,2,0,B|143:51|143:51|153:111,4,100,0|8|0|0|0,2:3|2:3|2:3|2:3|2:3,2:3:0:0:
236,149,144983,1,8,2:3:0:0:
12,129,145283,6,0,L|31:237,1,100
57,369,145582,1,0,2:3:0:0:
57,369,145882,1,0,2:3:0:0:
303,319,146182,5,8,2:3:0:0:
128,318,146332,2,0,B|154:308|154:308|159:299|159:299|187:291|187:291|208:276|208:276|238:278|238:278|267:240|316:243,1,200,0|0,2:3|2:3,0:0:0:0:
368,363,146782,5,4,0:0:0:0:
427,239,146932,2,0,B|433:245|439:255|439:255|444:258|444:258|452:285|444:315|444:315|441:318|441:318|437:329|429:339,1,100,0|0,2:3|2:3,0:0:0:0:
366,196,147231,2,0,B|360:190|354:180|354:180|349:177|349:177|341:150|349:120|349:120|352:117|352:117|356:106|364:96,1,100,0|8,0:0|2:3,0:0:0:0:
438,45,147531,1,8,2:3:0:0:
449,144,147681,5,0,0:0:0:0:
346,24,147831,2,0,B|346:22|335:18|335:18|332:15|332:15|302:7|275:15|275:15|272:20|272:20|262:26|256:32,1,100,0|0,0:0|2:3,0:0:0:0:
172,108,148131,1,0,0:0:0:0:
178,102,148281,2,0,B|127:112|127:112|67:102,2,100,0|8|0,2:3|2:3|2:3,2:3:0:0:
203,256,149180,6,0,B|181:268|181:268|176:277|176:277|141:288|109:273|109:273|104:260|104:260,2,100,4|0|0,0:0|2:3|2:3,0:0:0:0:
274,306,149630,1,8,2:3:0:0:
366,219,149780,2,0,B|359:213|350:208|350:208|347:202|347:202|320:193|289:205|289:205|285:211|285:211|272:218|263:230,1,100,0|8,2:3|2:3,0:0:0:0:
443,299,150080,6,0,B|453:284|457:257|457:257|463:254|463:254|481:202|460:156|460:156|452:152|452:152|441:125|429:115,1,200,8|0,0:0|2:3,0:0:0:0:
426,110,150471,1,0,2:3:0:0:
426,110,150537,1,0,2:3:0:0:
300,20,150669,2,0,B|307:63|307:63|315:71|315:71|324:122,1,100,0|0,2:3|2:3,2:3:0:0:
352,384,150964,5,8,2:3:0:0:
376,170,151103,1,8,2:3:0:0:
384,316,151243,5,0,0:0:0:0:
373,241,151396,1,0,0:0:0:0:
160,348,151578,5,4,0:0:0:0:
160,348,151720,2,0,B|169:328|188:312|188:312|196:314|196:314|218:304|241:307,1,100,0|0,2:3|2:3,0:0:0:0:
78,384,152006,2,0,B|66:367|60:343|60:343|65:337|65:337|66:313|80:294,1,100,0|8,0:0|2:3,0:0:0:0:
159,239,152310,1,0,2:3:0:0:
234,384,152460,5,0,0:0:0:0:
318,333,152610,2,0,B|326:313|326:288|326:288|320:283|320:283|313:260|296:244,1,100,0|0,0:0|2:3,0:0:0:0:
231,175,152910,1,0,0:0:0:0:
337,142,153060,2,0,B|388:132|388:132|448:142,5,100,0|8|0|0|0|8,2:3|2:3|2:3|2:3|2:3|2:3,2:3:0:0:
493,371,154843,5,4,0:0:0:0:
340,317,154993,2,0,B|352:311|352:311|354:304|354:304|375:286|404:287|404:287|410:291|410:291|424:295|441:307,1,100,0|0,0:0|2:3,0:0:0:0:
238,313,155293,2,0,B|244:301|244:301|242:294|242:294|249:267|274:251|274:251|281:251|281:251|294:246|315:247,1,100,0|0,0:0|2:3,0:0:0:0:
156,357,155593,2,0,B|154:343|154:343|148:339|148:339|139:313|150:286|150:286|156:281|156:281|164:270|181:258,1,100,0|8,0:0|2:3,0:0:0:0:
220,116,155893,2,0,B|221:129|221:129|227:133|227:133|236:159|225:186|225:186|219:191|219:191|211:202|194:214,1,100,0|0,0:0|2:3,0:0:0:0:
126,203,156193,1,0,0:0:0:0:
406,192,156343,5,4,0:0:0:0:
406,192,156493,2,0,B|386:178|362:177|362:177|356:172|356:172|332:178|315:190,1,100,0|0,2:3|2:3,2:0:0:0:
422,103,156795,2,0,B|441:116|465:117|465:117|471:122|471:122|495:116|512:104,1,100,0|8,0:0|2:3,0:0:0:0:
470,30,157096,1,0,2:3:0:0:
338,99,157247,5,0,0:0:0:0:
334,101,157398,2,0,B|333:77|345:56|345:56|344:48|344:48|362:31|382:24,1,100,0|0,0:0|2:3,0:0:0:0:
422,103,157699,1,0,0:0:0:0:
214,57,157850,5,0,2:3:0:0:
214,57,158152,1,8,2:3:0:0:
71,162,158453,2,0,B|56:49|56:49|30:103,1,150,0|0,2:3|2:3,2:3:0:0:
28,105,158755,6,0,P|94:120|130:92,2,100,12|8|0,2:3|2:3|0:0,0:0:0:0:
326,68,159358,5,0,0:0:0:0:
226,361,159659,1,8,2:3:0:0:
305,308,159810,1,8,2:3:0:0:
209,269,159961,1,4,0:0:0:0:
506,250,160260,6,0,B|459:241|459:241|449:244|449:244|394:234,1,100,0|0,0:0|2:3,0:0:0:0:
159,200,160560,1,8,2:3:0:0:
358,163,160710,1,8,2:3:0:0:
111,130,160860,2,0,B|126:17|126:17|152:71,1,150,4|0,0:0|2:3,0:0:0:0:
199,132,161160,6,0,B|231:131|257:147|257:147|287:135|299:109|299:109|298:104|298:104|301:106|301:106|338:84|397:79,1,182.999992460633,4|0,0:0|2:3,0:0:0:0:
368,96,161466,1,2,2:3:0:0:
272,34,161619,1,0,0:0:0:0:
434,0,161772,1,8,2:3:0:0:
308,196,161925,1,8,2:3:0:0:
468,160,162070,5,2,0:0:0:0:
313,205,162219,2,0,B|338:241|381:244|381:244|422:259|439:302,1,121.999994973755,0|2,0:0|0:0,2:3:0:0:
357,373,162518,2,0,B|325:342|282:348|282:348|239:342|213:304,1,121.999994973755,0|0,2:3|2:3,2:3:0:0:
135,325,162818,2,0,L|128:284,2,40.6666649912517
154,343,162968,5,10,2:3:0:0:
246,221,163118,1,8,2:3:0:0:
134,108,163235,2,0,B|165:106|196:129|196:129|238:132|272:103,1,121.999994973755,2|0,2:3|2:3,2:3:0:0:
389,0,163555,6,0,P|359:39|387:176,1,182.999992460633,6|0,0:0|2:3,0:0:0:0:
442,186,163854,2,0,P|462:246|451:331,1,121.999994973755,2|0,2:3|0:0,0:0:0:0:
356,368,164154,1,10,2:3:0:0:
226,215,164304,1,0,2:3:0:0:
0,354,164454,6,0,P|61:312|182:295,1,182.999992460633,2|0,0:0|2:3,0:0:0:0:
217,341,164754,2,0,P|277:337|324:262,2,121.999994973755,2|0|0,2:3|2:3|2:3,0:0:0:0:
230,226,165204,1,0,0:0:0:0:
406,291,165353,1,10,2:3:0:0:
248,144,165503,1,8,2:3:0:0:
368,61,165653,2,0,L|352:197,1,121.999994973755,2|0,2:3|2:3,2:3:0:0:
503,259,165953,6,0,P|459:218|451:119,1,121.999994973755,4|0,0:0|2:3,0:0:0:0:
512,52,166253,1,2,2:3:0:0:
353,182,166403,1,0,0:0:0:0:
298,29,166553,2,0,B|240:8|240:8|162:55,1,121.999994973755,10|0,2:3|2:3,0:0:0:0:
199,202,166853,5,2,0:0:0:0:
86,113,167002,1,0,2:3:0:0:
0,242,167152,2,0,B|58:221|58:221|136:268,2,121.999994973755,2|0|0,2:3|2:3|2:3,2:3:0:0:
49,320,167602,1,0,0:0:0:0:
196,187,167752,5,10,2:3:0:0:
304,355,167902,1,0,0:0:0:0:
335,216,168052,1,2,0:0:0:0:
166,324,168202,1,0,0:0:0:0:
448,288,168352,6,0,B|463:306|463:306|437:236|446:180|446:180|449:174|449:174|443:178|443:178|459:189|459:189|433:120|469:48,1,304.999987434388,4|0,0:0|0:0,0:0:0:0:
477,72,168801,1,4,0:0:0:0:
304,143,168951,2,0,P|332:128|326:84,1,60.9999974868775,8|0,2:3|0:0,0:0:0:0:
256,44,169101,2,0,P|274:105|275:185,1,121.999994973755,0|4,2:3|0:0,0:0:0:0:
134,300,169401,1,0,2:3:0:0:
128,291,169476,2,0,P|139:250|61:257,1,121.999994973755,0|0,2:3|2:3,2:3:0:0:
56,309,169701,1,0,2:3:0:0:
194,184,169851,1,2,2:3:0:0:
98,117,170001,5,0,0:0:0:0:
101,128,170076,1,0,0:0:0:0:
104,139,170151,1,8,0:0:0:0:
26,44,170300,2,0,B|7:56|6:79|6:79|37:47|83:29|83:29|138:34|173:64|173:64|173:58|173:58|208:82|208:82|281:91,1,304.999987434388,4|0,0:0|0:0,0:0:0:0:
305,47,170750,6,0,B|327:46|353:30|353:30|327:57|308:115|308:115|309:185|333:202,1,187.5,4|0,0:0|0:0,0:0:0:0:
344,171,171050,1,2,2:3:0:0:
453,91,171200,1,0,0:0:0:0:
352,30,171350,1,10,2:3:0:0:
455,225,171500,1,8,2:3:0:0:
256,116,171650,5,2,0:0:0:0:
47,173,171800,2,0,B|97:158|141:190|141:190|167:256,1,125,0|0,2:3|2:3,2:3:0:0:
278,359,172099,2,0,B|228:374|184:342|184:342|158:276,1,125,0|0,2:3|2:3,2:3:0:0:
309,236,172399,2,0,L|267:243,2,41.6666666666667
339,251,172549,5,10,2:3:0:0:
98,284,172699,1,8,2:3:0:0:
171,103,172849,2,0,B|186:102|186:102|228:148|285:138,1,125,2|0,2:3|2:3,2:3:0:0:
435,23,173149,6,0,P|351:83|397:165,1,187.5,4|0,0:0|0:0,0:0:0:0:
467,195,173449,2,0,P|439:211|403:312,1,125,2|0,2:3|0:0,0:0:0:0:
465,377,173748,1,10,2:3:0:0:
278,333,173898,1,0,2:3:0:0:
467,195,174048,6,0,P|411:215|294:158,1,187.5,2|0,0:0|0:0,0:0:0:0:
311,49,174348,1,2,2:3:0:0:
393,102,174498,1,0,2:3:0:0:
305,155,174648,1,2,2:3:0:0:
311,49,174798,1,0,0:0:0:0:
394,210,174948,1,10,2:3:0:0:
195,90,175098,1,8,2:3:0:0:
120,166,175247,2,0,L|98:39,1,125,4|0,2:3|2:3,2:3:0:0:
21,142,175547,5,4,0:0:0:0:
192,264,175697,1,0,2:3:0:0:
91,51,175847,1,2,2:3:0:0:
35,220,175997,1,0,0:0:0:0:
203,274,176147,2,0,B|266:267|266:267|271:269|271:269|358:258,1,125,10|0,2:3|2:3,2:3:0:0:
394,118,176447,5,2,0:0:0:0:
262,191,176597,1,0,2:3:0:0:
404,293,176747,1,2,2:3:0:0:
380,124,176896,2,0,B|317:117|317:117|312:119|312:119|225:108,1,125,0|0,2:3|2:3,2:3:0:0:
144,211,177196,1,0,0:0:0:0:
253,36,177346,5,10,2:3:0:0:
61,122,177496,1,0,0:0:0:0:
254,178,177646,1,2,2:3:0:0:
135,11,177796,1,0,0:0:0:0:
33,257,177946,6,0,B|16:293|16:293|118:274|118:274|147:294|147:294|143:296|143:296|174:316|174:316|310:294,1,312.5,4|0,0:0|0:0,0:0:0:0:
280,311,178396,1,4,0:0:0:0:
353,176,178546,2,0,P|386:204|389:169,1,62.5,8|0,2:3|0:0,0:0:0:0:
454,136,178695,2,0,P|429:174|418:268,1,125,0|4,2:3|0:0,0:0:0:0:
497,311,178995,1,0,2:3:0:0:
507,291,179070,2,0,P|430:278|380:348,1,125,0|0,2:3|2:3,2:3:0:0:
385,380,179295,1,0,2:3:0:0:
292,228,179445,2,0,B|253:210|253:210|145:250,1,125,2|0,2:3|0:0,0:0:0:0:
169,248,179670,1,0,0:0:0:0:
165,259,179745,5,8,0:0:0:0:
22,171,179895,2,0,B|63:188|71:253|71:253|76:191|127:160|127:160|126:165|126:165|181:130|174:73,1,312.5,4|0,0:0|0:0,0:0:0:0:
122,21,180344,6,0,B|157:63|205:64|205:64|226:50|226:50|290:35|328:72,1,187.5,4|0,0:0|0:0,0:0:0:0:
307,71,180644,1,2,2:3:0:0:
371,177,180794,1,0,0:0:0:0:
448,38,180944,1,10,2:3:0:0:
258,178,181094,1,8,2:3:0:0:
467,135,181244,6,0,B|490:180|490:242|490:242|475:283,1,125,2|0,2:3|2:3,2:3:0:0:
404,332,181544,1,2,2:3:0:0:
247,258,181694,2,0,B|204:265|177:251|177:251|168:278|112:314,1,125,0|0,0:0|2:3,0:0:0:0:
36,167,181993,2,0,L|43:207,2,41.6666666666667
50,138,182143,5,10,2:3:0:0:
54,334,182293,1,8,2:3:0:0:
71,154,182443,1,2,2:3:0:0:
79,319,182593,1,0,2:3:0:0:
179,161,182743,5,6,0:0:0:0:
179,161,182893,2,0,P|199:211|303:248,1,125,0|0,2:3|2:3,2:3:0:0:
345,180,183193,1,0,0:0:0:0:
224,67,183342,1,10,2:3:0:0:
344,270,183492,1,0,2:3:0:0:
294,36,183642,6,0,P|345:8|345:114,1,187.5,2|0,0:0|0:0,0:0:0:0:
300,118,183942,1,2,2:3:0:0:
428,216,184092,1,0,2:3:0:0:
304,127,184242,1,4,2:3:0:0:
268,270,184392,1,0,2:3:0:0:
406,95,184542,1,8,2:3:0:0:
208,165,184692,1,8,2:3:0:0:
376,313,184842,2,0,B|396:354|396:354|238:340,1,187.5,0|0,2:3|0:0,0:0:0:0:
157,372,185142,6,0,P|196:311|179:218,1,125,4|0,0:0|2:3,0:0:0:0:
103,155,185441,1,2,2:3:0:0:
33,278,185591,1,0,0:0:0:0:
208,165,185741,2,0,B|201:102|201:102|203:97|203:97|192:10,2,125,10|0|0,2:3|2:3|0:0,0:0:0:0:
106,26,186191,1,0,2:3:0:0:
329,98,186341,6,0,B|322:161|322:161|324:166|324:166|313:253,1,125,2|0,2:3|2:3,2:3:0:0:
390,326,186641,1,2,2:3:0:0:
463,189,186790,1,0,0:0:0:0:
287,34,186940,5,10,2:3:0:0:
389,231,187090,1,0,0:0:0:0:
405,22,187240,1,2,2:3:0:0:
247,165,187390,1,0,0:0:0:0:
496,48,187540,6,0,P|479:107|468:274,1,225.000008583069,12|0,2:3|2:3,2:3:0:0:
430,384,187840,6,0,P|390:320|200:289,1,225.000008583069,12|0,2:3|2:3,2:3:0:0:
161,349,188140,2,0,P|188:322|177:304,1,62.5,2|0,2:3|2:3,2:3:0:0:
136,238,188290,2,0,P|104:240|81:274,1,62.5
7,223,188440,6,0,P|85:219|188:109,1,225.000008583069,12|0,2:3|2:3,2:3:0:0:
236,0,188756,2,0,P|247:73|416:177,1,225.000008583069,12|0,2:3|2:3,2:3:0:0:
435,145,189056,1,2,2:3:0:0:
504,66,189206,1,0,0:0:0:0:
327,4,189356,1,8,2:3:0:0:
174,113,189506,6,0,B|156:109|156:109|145:162|183:211|183:211|190:195|190:195|234:252|219:288|219:288|223:292|223:292|217:291|217:291|212:299|179:326|117:310,1,312.5,4|0,0:0|0:0,0:0:0:0:
116,277,189948,5,4,0:0:0:0:
36,197,190098,2,0,L|48:288,1,80,0|0,2:3|0:0,0:0:0:0:
22,183,190398,2,0,L|34:274,1,80,0|8,2:3|2:3,2:3:0:0:
116,277,190698,1,0,0:0:0:0:
187,362,190848,2,0,L|278:374,2,80,0|0|0,2:3|0:0|0:0,0:0:0:0:
269,278,191298,2,0,L|360:266,1,80,0|0,2:3|0:0,0:0:0:0:
434,305,191599,1,0,0:0:0:0:
501,210,191749,2,0,P|445:154|349:144,1,160,8|0,2:3|2:3,2:3:0:0:
276,202,192199,1,8,2:3:0:0:
170,89,192349,5,0,0:0:0:0:
400,28,192649,1,0,0:0:0:0:
190,178,192949,2,0,L|86:167,1,80,8|0,2:3|0:0,0:0:0:0:
170,89,193250,2,0,L|274:78,2,80,0|8|0,2:3|2:3|0:0,0:0:0:0:
271,160,193700,1,8,2:3:0:0:
383,127,193850,2,0,P|352:177|348:225,1,80,0|0,0:0|2:3,0:0:0:0:
408,283,194150,1,8,2:3:0:0:
179,376,194450,1,0,2:3:0:0:
179,376,194601,1,8,2:3:0:0:
260,333,194751,6,0,L|251:225,1,80,4|0,0:0|2:3,0:0:0:0:
202,181,195051,1,0,0:0:0:0:
275,345,195201,2,0,L|266:237,1,80,0|8,2:3|2:3,2:3:0:0:
202,181,195501,1,0,0:0:0:0:
332,87,195651,2,0,L|323:195,2,80,0|0|0,2:3|0:0|0:0,0:0:0:0:
236,17,196102,2,0,L|245:125,1,80,0|0,2:3|2:3,2:3:0:0:
202,181,196402,1,0,0:0:0:0:
135,304,196552,2,0,P|134:248|37:209,1,160,8|0,2:3|2:3,2:3:0:0:
65,278,197002,1,0,0:0:0:0:
177,384,197152,5,0,0:0:0:0:
343,166,197452,1,0,0:0:0:0:
482,330,197753,2,0,L|379:321,1,80,8|0,2:3|2:3,2:3:0:0:
316,316,198053,1,0,0:0:0:0:
316,316,198203,1,0,0:0:0:0:
448,253,198353,2,0,P|466:214|459:156,1,80,0|0,0:0|2:3,0:0:0:0:
382,68,198653,5,0,0:0:0:0:
382,68,198803,1,0,2:3:0:0:
499,64,198953,1,8,2:3:0:0:
344,192,199103,2,0,B|302:213|241:190|272:168|203:137|149:187,1,200,0|0,2:3|0:0,0:0:0:0:
142,255,199554,5,0,0:0:0:0:
142,255,199852,2,0,B|180:268|180:268|201:299|201:299|276:326,1,127.50000243187,2|0,0:0|0:0,0:0:0:0:
267,309,200151,1,10,2:3:0:0:
157,180,200301,2,0,B|110:183|110:183|107:186|107:186|51:191,1,85.0000016212464,0|0,0:0|2:3,0:0:0:0:
0,120,200600,1,0,0:0:0:0:
128,357,200749,5,2,0:0:0:0:
343,251,201048,2,0,P|397:288|419:353,1,127.50000243187,2|0,0:0|0:0,0:0:0:0:
408,363,201347,1,10,2:3:0:0:
426,173,201496,1,0,0:0:0:0:
426,173,201945,6,0,P|370:175|309:132,1,127.50000243187,2|0,0:0|0:0,0:0:0:0:
314,115,202243,2,0,P|262:78|200:78,1,127.50000243187,2|0,0:0|0:0,0:0:0:0:
188,96,202542,1,10,2:3:0:0:
397,24,202692,1,0,0:0:0:0:
232,174,202991,5,8,2:3:0:0:
290,264,203140,2,0,B|331:275|331:275|363:267|363:267|438:288,1,127.50000243187,2|0,0:0|0:0,0:0:0:0:
437,305,203439,2,0,L|297:344,1,127.50000243187,2|0,0:0|0:0,0:0:0:0:
302,351,203738,5,8,2:3:0:0:
353,199,203887,1,8,2:3:0:0:
155,172,204037,5,2,2:3:0:0:
203,309,204186,1,0,2:3:0:0:
444,171,204336,6,0,P|419:108|354:62,1,127.50000243187,4|0,0:0|0:0,0:0:0:0:
359,55,204634,2,0,P|299:87|219:80,1,127.50000243187,2|0,0:0|0:0,0:0:0:0:
229,69,204933,1,10,2:3:0:0:
86,18,205083,2,0,L|97:139,1,85.0000016212464,0|0,0:0|2:3,0:0:0:0:
111,209,205382,1,0,0:0:0:0:
229,69,205531,2,0,L|218:190,1,85.0000016212464,2|0,0:0|2:3,0:0:0:0:
125,201,205830,1,2,2:3:0:0:
246,56,205979,2,0,L|235:177,1,85.0000016212464,0|8,0:0|2:3,0:0:0:0:
351,279,206278,2,0,L|340:158,1,85.0000016212464,0|0,0:0|2:3,0:0:0:0:
337,102,206577,1,0,0:0:0:0:
470,275,206727,5,2,0:0:0:0:
198,358,207025,1,2,0:0:0:0:
436,156,207324,1,10,2:3:0:0:
339,380,207623,5,0,0:0:0:0:
273,257,207773,1,0,0:0:0:0:
404,336,207922,2,0,B|360:354|360:354|266:332,1,127.50000243187,2|0,0:0|0:0,0:0:0:0:
211,289,208231,6,0,L|216:337,3,42.5000008106232,4|0|0|0,2:3|2:3|2:3|2:3,2:3:0:0:
96,241,208540,1,8,2:0:0:0:
96,241,208617,1,0,2:0:0:0:
96,241,208695,1,0,2:0:0:0:
96,241,208772,1,0,2:0:0:0:
96,241,208849,2,0,L|103:195,3,42.5000008106232,8|2|2|2,2:3|2:3|2:3|2:3,2:3:0:0:
178,150,209136,5,4,0:0:0:0:
178,150,209435,2,0,B|245:144|245:144|248:141|248:141|315:134,1,127.50000243187
318,120,209735,1,10,2:3:0:0:
405,235,209885,2,0,L|391:354,1,85.0000016212464,0|0,0:0|2:3,0:0:0:0:
299,366,210185,1,8,2:3:0:0:
477,279,210335,5,2,0:0:0:0:
159,297,210635,2,0,P|221:255|284:278,1,127.50000243187,2|0,0:0|0:0,0:0:0:0:
277,284,210934,1,10,2:3:0:0:
113,212,211084,1,0,0:0:0:0:
367,109,211534,5,2,0:0:0:0:
266,24,211684,2,0,P|291:84|288:161,1,127.50000243187
271,154,211984,2,0,P|246:212|247:249,1,85.0000016212464,0|8,0:0|2:3,0:0:0:0:
352,358,212284,2,0,P|326:324|290:302,1,85.0000016212464,0|0,0:0|2:3,0:0:0:0:
176,334,212583,1,0,0:0:0:0:
356,220,212733,6,0,B|405:249|405:249|438:333,1,127.50000243187,2|0,0:0|0:0,0:0:0:0:
446,329,213033,2,0,L|467:189,1,127.50000243187,2|0,0:0|0:0,0:0:0:0:
480,187,213333,5,0,0:0:0:0:
390,104,213483,1,0,2:3:0:0:
356,220,213633,5,8,2:3:0:0:
501,89,213783,1,8,2:3:0:0:
303,21,213933,6,0,B|256:32|256:32|242:60|242:60|166:81,1,127.50000243187,4|0,0:0|0:0,0:0:0:0:
130,42,214232,2,0,P|159:93|168:178,1,127.50000243187,2|0,0:0|0:0,0:0:0:0:
116,216,214532,1,10,2:3:0:0:
268,289,214682,2,0,L|172:284,1,85.0000016212464,0|0,0:0|2:3,0:0:0:0:
116,216,214982,1,0,0:0:0:0:
243,134,215132,2,0,L|339:129,1,85.0000016212464,2|0,0:0|2:3,0:0:0:0:
412,195,215432,1,2,2:3:0:0:
228,121,215582,2,0,L|324:116,1,85.0000016212464,0|8,0:0|2:3,0:0:0:0:
418,208,215881,2,0,L|322:203,1,85.0000016212464,0|0,0:0|2:3,0:0:0:0:
391,109,216181,1,0,0:0:0:0:
498,256,216331,5,4,0:0:0:0:
187,364,216631,1,0,0:0:0:0:
436,156,216931,1,12,2:3:0:0:
93,207,217231,5,0,2:3:0:0:
93,207,217381,1,0,2:3:0:0:
298,300,217530,5,8,2:3:0:0:
177,81,217680,1,8,2:3:0:0:
163,325,217830,1,8,2:3:0:0:
311,163,217980,1,8,2:3:0:0:
65,94,218130,6,0,B|136:87|136:87|166:62|166:62|294:51,1,202.500000772476,4|0,0:0|0:0,0:0:0:0:
335,74,218430,1,10,2:3:0:0:
145,262,218580,1,10,2:3:0:0:
329,374,218730,5,4,0:0:0:0:
450,206,218880,1,0,0:0:0:0:
464,304,219030,2,0,B|388:286|388:286|339:305|339:305|228:282,1,220.000006713867,2|8,0:0|2:3,0:0:0:0:
210,213,219479,1,0,0:0:0:0:
138,338,219629,2,0,L|244:364,1,110.000003356934,2|0,0:0|2:3,0:0:0:0:
48,287,219929,6,0,P|106:241|89:124,1,165.000005035401,2|0,0:0|0:0,0:0:0:0:
63,107,220229,2,0,B|19:76|19:76|145:50,1,165.000005035401,2|0,0:0|0:0,0:0:0:0:
175,100,220529,2,0,B|285:115|285:115|291:121|291:121|419:137,1,220.000006713867,10|0,2:3|2:3,0:0:0:0:
390,133,220978,1,0,2:3:0:0:
496,136,221128,5,4,0:0:0:0:
336,208,221278,1,0,0:0:0:0:
467,287,221428,2,0,B|492:327|492:327|296:302,1,220.000006713867,2|8,0:0|2:3,0:0:0:0:
224,213,221878,1,0,0:0:0:0:
58,378,222028,2,0,P|91:327|86:224,1,165.000005035401,2|0,2:3|0:0,0:0:0:0:
39,178,222328,6,0,P|19:115|69:25,1,165.000005035401,2|0,2:3|0:0,0:0:0:0:
107,77,222627,2,0,B|186:88|186:88|189:91|189:91|283:105,1,165.000005035401,2|0,0:0|0:0,0:0:0:0:
316,55,222927,2,0,B|395:44|395:44|398:41|398:41|532:21|532:21|498:71|498:71|499:76|499:76|428:174,1,385.000011749268,10|0,2:3|0:0,0:0:0:0:
394,206,223527,5,4,0:0:0:0:
351,194,223602,1,0,0:0:0:0:
308,183,223677,1,0,0:0:0:0:
265,172,223752,1,0,0:0:0:0:
222,161,223827,1,2,0:0:0:0:
19,355,224127,5,10,2:3:0:0:
62,343,224202,1,0,0:0:0:0:
105,332,224277,1,0,0:0:0:0:
148,321,224352,1,0,0:0:0:0:
191,310,224426,2,0,P|148:269|164:165,1,165.000005035401,2|0,0:0|0:0,0:0:0:0:
223,123,224726,6,0,B|240:157|240:157|223:234,1,110.000003356934,4|0,0:0|2:3,0:0:0:0:
362,70,225026,2,0,B|374:106|374:106|440:148,1,110.000003356934,2|0,0:0|2:3,0:0:0:0:
172,7,225326,2,0,B|129:56|58:17|58:17|62:12|62:12|19:20|1:73|28:117|28:117|31:115|31:115|89:163|62:244,1,385.000011749268,10|0,2:3|0:0,0:0:0:0:
16,282,225925,5,2,0:0:0:0:
58,272,226000,1,0,0:0:0:0:
101,262,226075,1,0,0:0:0:0:
144,252,226150,1,0,0:0:0:0:
187,242,226225,1,2,0:0:0:0:
423,146,226525,5,12,2:3:0:0:
309,289,226675,1,8,2:3:0:0:
506,158,226825,2,0,P|490:89|382:72,1,165.000005035401,2|0,0:0|0:0,0:0:0:0:
338,77,227125,2,0,L|349:201,1,110.000003356934,2|0,2:3|2:3,0:0:0:0:
360,297,227425,5,0,0:0:0:0:
352,276,227499,1,0,0:0:0:0:
323,259,227574,1,0,0:0:0:0:
279,263,227649,1,0,0:0:0:0:
253,305,227724,5,12,2:3:0:0:
380,373,227874,2,0,B|502:334|502:334|441:336,1,165.000005035401
445,331,228174,1,8,2:3:0:0:
337,183,228324,5,4,0:0:0:0:
512,247,228474,1,0,0:0:0:0:
472,84,228624,2,0,B|455:155|455:155|413:177|413:177|388:284,1,220.000006713867,2|8,0:0|2:3,0:0:0:0:
512,247,229074,1,0,0:0:0:0:
388,98,229223,2,0,L|267:110,1,110.000003356934,2|0,0:0|2:3,0:0:0:0:
166,33,229523,6,0,P|190:82|185:197,1,165.000005035401,2|0,0:0|0:0,0:0:0:0:
140,237,229823,2,0,P|97:317|170:402,1,165.000005035401,2|0,0:0|0:0,0:0:0:0:
192,378,230123,2,0,B|301:356|301:356|307:359|307:359|428:336,1,220.000006713867,10|0,2:3|2:3,0:0:0:0:
407,339,230573,1,0,2:3:0:0:
246,230,230723,5,4,0:0:0:0:
385,117,230872,1,0,0:0:0:0:
388,230,231022,2,0,P|324:167|229:144,1,165.000005035401,2|0,0:0|0:0,0:0:0:0:
225,161,231322,1,10,2:3:0:0:
63,101,231472,2,0,P|115:121|101:202,1,110.000003356934,0|0,0:0|2:3,0:0:0:0:
24,337,231772,2,0,P|56:301|133:270,1,110.000003356934,8|0,2:3|2:3,2:3:0:0:
239,353,232072,2,0,P|292:343|339:314,1,110.000003356934,0|0,2:3|0:0,0:0:0:0:
328,168,232372,1,0,2:3:0:0:
448,304,232521,1,10,2:3:0:0:
448,304,232671,1,0,2:3:0:0:
298,243,232821,1,2,2:3:0:0:
446,151,232971,1,0,2:3:0:0:
326,365,233121,5,4,0:0:0:0:
284,355,233196,1,0,0:0:0:0:
241,345,233271,1,0,0:0:0:0:
198,335,233346,1,0,0:0:0:0:
155,325,233421,1,2,0:0:0:0:
0,131,233721,5,10,2:3:0:0:
42,121,233796,1,0,0:0:0:0:
85,111,233871,1,0,0:0:0:0:
128,101,233946,1,0,0:0:0:0:
171,91,234021,2,0,P|127:159|134:226,1,110.000003356934,2|0,0:0|2:3,0:0:0:0:
254,267,234320,6,0,B|233:250|233:250|176:253|128:298,1,110.000003356934,6|0,0:0|2:3,0:0:0:0:
378,155,234620,2,0,B|364:133|364:133|309:175|310:238,1,110.000003356934,2|0,0:0|2:3,0:0:0:0:
493,79,234920,6,0,P|449:34|333:41,1,165.000005035401,14|0,2:3|0:0,0:0:0:0:
304,77,235220,2,0,P|260:122|144:115,1,165.000005035401,2|0,2:3|0:0,0:0:0:0:
115,78,235520,5,0,0:0:0:0:
125,120,235595,1,0,0:0:0:0:
135,163,235670,1,0,0:0:0:0:
145,206,235745,1,0,0:0:0:0:
155,249,235819,6,0,B|192:217|241:237|226:258|279:273|319:252,1,165.000005035401,2|0,0:0|0:0,0:0:0:0:
355,198,236119,1,10,2:3:0:0:
202,103,236269,1,8,2:3:0:0:
85,343,236419,6,0,B|146:363|146:363|195:349|195:349|199:352|199:352|249:336|249:336|316:353|316:353|387:336,1,275.000008392334,2|0,0:0|2:3,0:0:0:0:
427,308,236869,2,0,L|415:218,1,55.0000016784668,0|0,2:3|2:3,2:3:0:0:
314,119,237019,1,0,0:0:0:0:
314,119,237094,1,0,0:0:0:0:
314,119,237169,2,0,L|302:209,1,55.0000016784668
286,272,237319,5,8,2:3:0:0:
426,145,237469,1,0,0:0:0:0:
237,36,237618,1,2,2:3:0:0:
426,145,237768,1,8,2:3:0:0:
170,214,237918,5,4,0:0:0:0:
170,214,238068,2,0,B|167:172|167:172|164:168|164:168|158:93,1,89.9999972534181,0|0,0:0|2:3,0:0:0:0:
57,14,238368,2,0,B|54:56|54:56|51:60|51:60|45:135,1,89.9999972534181,0|8,0:0|2:3,0:0:0:0:
42,212,238668,1,0,0:0:0:0:
42,212,238818,2,0,B|65:220|79:238|79:238|81:237|81:237|90:258|91:301|91:301|127:280|152:283|152:283|159:314|195:319|195:319|215:303|247:298|247:298|259:274,1,314.999990386963,2|0,0:0|0:0,0:0:0:0:
250,219,239417,6,0,P|280:246|369:265,1,110.000003356934,4|0,2:3|0:0,0:0:0:0:
512,141,239717,2,0,P|482:169|369:165,1,125,12|0,2:3|0:0,0:0:0:0:
269,93,240017,2,0,P|339:91|405:33,1,138.000000210571,4|8,2:3|2:3,0:0:0:0:
389,36,240242,1,0,0:0:0:0:
389,36,240317,5,4,0:0:0:0:
273,0,240467,2,0,B|231:3|231:3|227:6|227:6|152:12,1,89.9999972534181,0|0,0:0|2:3,0:0:0:0:
264,169,240767,2,0,B|222:166|222:166|218:163|218:163|143:157,1,89.9999972534181,0|8,0:0|2:3,0:0:0:0:
89,21,241066,1,0,0:0:0:0:
89,21,241216,2,0,B|53:44|47:78|47:78|44:80|44:80|48:81|48:81|50:124|91:142,1,134.999995880127,2|0,0:0|0:0,0:0:0:0:
104,155,241516,2,0,P|85:190|79:265,1,89.9999972534181,2|8,0:0|2:3,2:3:0:0:
97,350,241816,2,0,B|133:363|133:363|199:336,1,89.9999972534181,2|0,2:3|0:0,0:0:0:0:
186,330,242041,1,0,0:0:0:0:
186,325,242116,6,0,B|152:308|152:308|167:237|221:204,1,134.999995880127,8|0,2:3|0:0,0:0:0:0:
394,217,242416,2,0,B|376:237|376:237|331:249|263:208,1,134.999995880127,8|0,2:3|0:0,0:0:0:0:
232,109,242715,5,4,0:0:0:0:
240,98,242790,1,0,0:0:0:0:
252,92,242865,1,0,0:0:0:0:
309,34,243015,5,2,0:0:0:0:
322,31,243090,1,0,0:0:0:0:
335,36,243165,1,0,0:0:0:0:
416,36,243315,5,10,0:0:0:0:
427,43,243390,1,0,0:0:0:0:
432,55,243465,1,0,0:0:0:0:
485,108,243615,5,2,0:0:0:0:
489,121,243689,1,0,0:0:0:0:
487,134,243764,1,0,0:0:0:0:
478,144,243839,1,0,0:0:0:0:
465,148,243914,1,2,0:0:0:0:
408,206,244065,5,0,0:0:0:0:
394,206,244140,1,0,0:0:0:0:
382,201,244215,1,2,0:0:0:0:
301,201,244364,5,0,0:0:0:0:
291,191,244439,1,0,0:0:0:0:
286,179,244514,1,10,0:0:0:0:
228,121,244664,5,0,0:0:0:0:
223,108,244739,1,0,0:0:0:0:
224,95,244814,1,2,0:0:0:0:
230,83,244889,1,0,0:0:0:0:
241,76,244964,1,0,0:0:0:0:
255,74,245039,1,0,0:0:0:0:
267,79,245114,1,2,0:0:0:0:
276,89,245189,1,0,0:0:0:0:
279,102,245264,1,0,0:0:0:0:
336,159,245414,5,2,0:0:0:0:
335,172,245489,1,0,0:0:0:0:
328,183,245564,1,0,0:0:0:0:
328,264,245714,5,10,0:0:0:0:
318,272,245789,1,0,0:0:0:0:
305,275,245864,1,0,0:0:0:0:
248,331,246013,5,2,0:0:0:0:
235,333,246088,1,0,0:0:0:0:
223,328,246163,1,0,0:0:0:0:
214,318,246238,1,0,0:0:0:0:
211,305,246313,1,2,0:0:0:0:
153,247,246463,5,0,0:0:0:0:
153,233,246538,1,0,0:0:0:0:
158,221,246613,1,2,0:0:0:0:
169,212,246688,1,0,0:0:0:0:
181,209,246763,1,0,0:0:0:0:
195,211,246837,1,0,0:0:0:0:
206,219,246913,5,0,0:0:0:0:
0,64,247213,5,0,0:0:0:0:
289,12,247512,6,0,B|307:88|307:88|333:105|333:105|344:106|344:106|383:135|383:135|414:264,1,297.500005674362,4|0,0:0|0:0,0:0:0:0:
413,283,248112,1,8,2:3:0:0:
313,201,248262,2,0,B|255:192|255:192|249:195|249:195|152:180,1,115.000002193451,0|0,0:0|2:3,0:0:0:0:
16,317,248562,2,0,B|74:308|74:308|80:311|80:311|177:296,1,115.000002193451,0|0,0:0|2:3,0:0:0:0:
266,321,248863,5,0,0:0:0:0:
97,206,249015,2,0,B|66:126|66:126|146:72,1,172.500003290176,2|0,0:0|0:0,0:0:0:0:
154,93,249318,1,10,2:3:0:0:
342,1,249469,2,0,P|275:53|250:127,1,115.000002193451,0|0,0:0|2:3,0:0:0:0:
311,221,249772,1,8,2:3:0:0:
486,118,249915,5,4,0:0:0:0:
377,96,250064,1,0,0:0:0:0:
428,299,250214,1,2,0:0:0:0:
510,224,250364,1,0,0:0:0:0:
292,132,250514,5,14,2:3:0:0:
137,316,250664,1,0,0:0:0:0:
136,146,250814,1,2,0:0:0:0:
259,276,250964,1,0,0:0:0:0:
38,120,251114,5,6,0:0:0:0:
8,254,251264,1,0,0:0:0:0:
131,67,251414,1,6,0:0:0:0:
197,201,251564,1,0,0:0:0:0:
50,87,251713,6,0,L|63:212,1,115.000002193451,14|0,2:3|0:0,0:0:0:0:
74,321,252013,1,6,0:0:0:0:
136,146,252163,1,0,0:0:0:0:
287,128,252313,6,0,B|272:113|272:113|318:85|356:116|356:116|351:120|351:120|411:151|465:106|465:106|508:140|516:175,1,297.500005674362,4|0,0:0|0:0,0:0:0:0:
503,170,252913,1,8,2:3:0:0:
423,273,253063,2,0,B|406:293|361:294|361:294|363:296|363:296|328:291|311:266,1,115.000002193451,0|2,0:0|2:3,0:0:0:0:
162,140,253362,2,0,B|188:137|220:168|220:168|220:166|220:166|241:194|236:224,1,115.000002193451,0|0,0:0|2:3,0:0:0:0:
148,324,253662,5,0,0:0:0:0:
4,217,253812,2,0,B|14:150|14:150|18:147|18:147|36:39,1,172.500003290176,2|0,0:0|0:0,0:0:0:0:
50,32,254112,2,0,B|109:13|109:13|182:76,1,115.000002193451,10|0,2:3|0:0,0:0:0:0:
236,208,254412,1,2,2:3:0:0:
104,120,254562,1,0,0:0:0:0:
434,165,254712,6,0,B|481:203|481:203|220:239,1,287.500005483627,4|0,0:0|0:0,0:0:0:0:
239,250,255161,2,0,L|181:242,1,57.5000010967255
106,183,255311,1,10,2:3:0:0:
204,337,255461,1,8,2:3:0:0:
106,183,255611,5,2,2:3:0:0:
250,105,255761,1,0,0:0:0:0:
77,29,255911,1,2,2:3:0:0:
189,185,256061,2,0,L|177:280,2,57.5000010967255,0|0|0,2:3|2:3|2:3,2:3:0:0:
334,148,256361,1,0,0:0:0:0:
334,148,256436,1,0,0:0:0:0:
334,148,256511,6,0,L|346:243,1,57.5000010967255,14|0,2:3|0:0,2:3:0:0:
365,320,256660,1,8,2:3:0:0:
449,176,256810,1,6,2:3:0:0:
253,275,256960,1,0,2:3:0:0:
459,369,257110,5,4,0:0:0:0:
454,352,257185,1,0,0:0:0:0:
449,335,257260,1,0,0:0:0:0:
369,207,257410,5,2,0:0:0:0:
364,224,257485,1,0,0:0:0:0:
359,241,257560,1,0,0:0:0:0:
478,339,257710,5,10,0:0:0:0:
462,330,257785,1,0,0:0:0:0:
446,322,257860,1,0,0:0:0:0:
334,218,258010,5,2,0:0:0:0:
342,233,258085,1,0,0:0:0:0:
350,249,258160,1,0,0:0:0:0:
479,297,258309,5,2,0:0:0:0:
461,301,258384,1,0,0:0:0:0:
444,307,258459,1,0,0:0:0:0:
317,247,258609,5,2,0:0:0:0:
333,251,258684,1,0,0:0:0:0:
350,257,258759,1,0,0:0:0:0:
457,268,258909,5,10,0:0:0:0:
447,283,258984,1,0,0:0:0:0:
439,299,259059,1,0,0:0:0:0:
323,285,259209,5,2,0:0:0:0:
337,276,259284,1,0,0:0:0:0:
353,268,259359,1,0,0:0:0:0:
368,260,259434,1,0,0:0:0:0:
383,252,259509,6,0,B|406:205|406:205|392:129|392:129|388:128|388:128|371:47|371:47|300:98,1,287.500005483627,4|0,0:0|0:0,0:0:0:0:
313,111,259958,1,0,0:0:0:0:
469,164,260108,1,10,2:3:0:0:
300,7,260258,1,8,2:3:0:0:
114,96,260408,2,0,P|101:167|242:314,1,287.500005483627,2|0,0:0|0:0,0:0:0:0:
302,210,260855,6,0,P|275:226|261:280,1,57.5000010967255,0|0,2:3|2:3,2:3:0:0:
348,338,261001,1,0,0:0:0:0:
371,333,261074,1,0,0:0:0:0:
388,329,261147,1,0,0:0:0:0:
404,324,261219,1,0,0:0:0:0:
414,321,261290,5,12,2:3:0:0:
465,207,261440,2,0,P|407:176|302:188,1,172.500003290176
303,210,261740,1,0,0:0:0:0:
189,101,261901,5,4,0:0:0:0:
198,114,261975,1,0,0:0:0:0:
204,130,262050,1,0,0:0:0:0:
61,229,262200,5,2,0:0:0:0:
63,213,262275,1,0,0:0:0:0:
70,197,262350,1,0,0:0:0:0:
237,118,262500,5,10,0:0:0:0:
234,133,262574,1,0,0:0:0:0:
227,149,262649,1,0,0:0:0:0:
28,193,262800,5,2,0:0:0:0:
40,183,262875,1,0,0:0:0:0:
56,176,262950,1,0,0:0:0:0:
260,166,263100,5,2,0:0:0:0:
247,174,263174,1,0,0:0:0:0:
231,180,263249,1,0,0:0:0:0:
33,147,263400,5,2,0:0:0:0:
48,148,263475,1,0,0:0:0:0:
64,154,263550,1,0,0:0:0:0:
252,211,263699,5,10,0:0:0:0:
237,207,263773,1,0,0:0:0:0:
221,200,263848,1,0,0:0:0:0:
75,107,263999,5,2,0:0:0:0:
84,118,264074,1,0,0:0:0:0:
91,133,264149,2,0,L|118:214,1,57.5000010967255
194,273,264325,6,0,B|275:290|275:290|308:278|308:278|385:292|385:292|394:291|394:291|492:309,1,287.500005483627,4|0,0:0|0:0,0:0:0:0:
493,330,264774,1,0,0:0:0:0:
328,203,264924,1,10,2:3:0:0:
363,378,265074,1,8,2:3:0:0:
480,197,265224,1,2,2:3:0:0:
348,103,265374,2,0,B|311:102|283:111|283:111|283:115|283:115|257:122|240:163,1,115.000002193451,0|0,0:0|2:3,0:0:0:0:
211,259,265674,2,0,P|176:282|117:283,1,57.5000010967255,0|0,2:3|2:3,2:3:0:0:
75,252,265824,1,0,0:0:0:0:
75,252,265899,1,0,0:0:0:0:
75,252,265974,2,0,L|87:166,1,57.5000010967255
97,106,266108,5,12,2:3:0:0:
335,177,266254,2,0,P|291:104|209:122,1,172.500003290176
262,172,266547,2,0,L|277:259,1,57.5000010967255
369,306,266711,6,0,B|401:328|446:316|446:316|414:340|400:358|400:358|404:363|404:363|367:330|314:348|334:365|281:381|238:350,1,297.500005674362,4|0,0:0|0:0,0:0:0:0:
246,346,267310,1,8,2:3:0:0:
371,228,267460,2,0,B|432:221|432:221|436:223|436:223|495:217,1,115.000002193451,0|0,0:0|2:3,0:0:0:0:
233,273,267760,2,0,B|172:266|172:266|168:268|168:268|109:262,1,115.000002193451,0|0,0:0|2:3,0:0:0:0:
81,148,268060,5,0,0:0:0:0:
225,65,268210,2,0,B|286:58|286:58|311:74|311:74|422:60,1,172.500003290176,2|0,0:0|0:0,0:0:0:0:
408,47,268509,1,12,2:3:0:0:
253,142,268659,2,0,B|227:191|227:191|258:273,1,115.000002193451,0|0,0:0|2:3,0:0:0:0:
409,290,268959,1,8,2:3:0:0:
251,378,269109,5,6,0:0:0:0:
338,219,269255,1,0,0:0:0:0:
194,303,269401,1,2,0:0:0:0:
356,373,269548,1,0,0:0:0:0:
494,213,269694,5,14,2:3:0:0:
313,112,269840,1,0,0:0:0:0:
280,306,269987,1,2,0:0:0:0:
416,216,270133,1,0,0:0:0:0:
235,134,270279,5,6,0:0:0:0:
175,266,270429,1,0,0:0:0:0:
24,125,270579,1,6,0:0:0:0:
66,264,270729,1,0,0:0:0:0:
253,121,270879,6,0,B|199:100|199:100|106:133,1,115.000002193451,14|0,2:3|0:0,0:0:0:0:
116,211,271179,1,6,0:0:0:0:
256,43,271329,1,0,0:0:0:0:
418,219,271479,6,0,B|446:236|491:205|491:205|446:172|390:203|390:203|397:191|397:191|347:230|281:208,1,297.500005674362,4|0,0:0|0:0,0:0:0:0:
289,198,272100,1,8,2:3:0:0:
401,77,272256,2,0,P|461:88|500:139,1,115.000002193451,0|0,0:0|2:3,0:0:0:0:
306,110,272567,2,0,P|245:121|203:177,1,115.000002193451,0|0,0:0|2:3,0:0:0:0:
248,282,272866,1,0,0:0:0:0:
105,201,273012,2,0,B|61:207|61:207|9:280,1,115.000002193451,2|0,0:0|2:3,0:0:0:0:
219,356,273305,2,0,L|210:222,2,115.000002193451,10|0|0,2:3|0:0|2:3,0:0:0:0:
286,196,273744,1,0,0:0:0:0:
118,102,273904,6,0,B|79:129|79:129|203:110|203:110|208:105|208:105|361:80,1,287.500005483627,4|0,0:0|0:0,0:0:0:0:
337,87,274353,1,0,0:0:0:0:
166,15,274503,1,10,2:3:0:0:
115,216,274653,1,8,2:3:0:0:
173,25,274803,1,2,2:3:0:0:
285,164,274953,2,0,L|299:294,1,115.000002193451,0|0,0:0|2:3,0:0:0:0:
432,360,275253,6,0,B|378:383|378:383|319:345,1,115.000002193451,0|0,2:3|2:3,2:3:0:0:
399,220,275553,1,0,0:0:0:0:
399,220,275627,1,0,0:0:0:0:
399,220,275702,2,0,L|409:120,1,57.5000010967255,14|0,2:3|0:0,0:0:0:0:
419,64,275852,1,0,2:3:0:0:
477,253,276002,1,6,2:3:0:0:
341,117,276152,1,0,0:0:0:0:
233,263,276302,5,4,0:0:0:0:
236,279,276377,1,0,0:0:0:0:
239,295,276452,1,0,0:0:0:0:
92,227,276602,5,2,0:0:0:0:
89,243,276677,1,0,0:0:0:0:
86,259,276752,1,0,0:0:0:0:
252,274,276902,5,10,0:0:0:0:
256,290,276977,1,0,0:0:0:0:
261,306,277052,1,0,0:0:0:0:
80,214,277202,5,2,0:0:0:0:
76,230,277277,1,0,0:0:0:0:
71,245,277352,1,0,0:0:0:0:
269,276,277501,5,2,0:0:0:0:
275,292,277576,1,0,0:0:0:0:
281,307,277651,1,0,0:0:0:0:
65,199,277801,5,2,0:0:0:0:
59,215,277876,1,0,0:0:0:0:
53,230,277951,1,0,0:0:0:0:
283,278,278101,5,10,0:0:0:0:
290,293,278176,1,0,0:0:0:0:
297,307,278251,1,0,0:0:0:0:
58,182,278401,5,2,0:0:0:0:
51,197,278476,1,0,0:0:0:0:
43,211,278551,1,0,0:0:0:0:
35,225,278626,1,0,0:0:0:0:
27,240,278701,6,0,B|110:234|110:234|155:153|155:153|160:151|160:151|215:50,1,287.500005483627,4|0,0:0|0:0,0:0:0:0:
222,37,279150,1,0,0:0:0:0:
100,75,279300,1,14,2:3:0:0:
233,226,279450,1,8,2:3:0:0:
424,165,279600,1,6,3:0:0:0:
358,292,279750,1,0,2:3:0:0:
298,102,279900,1,6,2:3:0:0:
434,252,280050,6,0,L|518:270,1,57.5000010967255,0|0,2:3|2:3,2:3:0:0:
492,348,280200,1,0,0:0:0:0:
469,352,280275,1,0,0:0:0:0:
446,357,280350,1,0,0:0:0:0:
424,362,280425,1,0,0:0:0:0:
401,366,280500,1,12,2:3:0:0:
269,268,280649,2,0,B|231:247|181:265|195:291|146:303|90:280,1,172.500003290176
88,268,280949,1,0,0:0:0:0:
224,128,281099,5,4,0:0:0:0:
240,124,281174,1,0,0:0:0:0:
257,121,281249,1,0,0:0:0:0:
130,40,281399,5,2,0:0:0:0:
114,36,281474,1,0,0:0:0:0:
97,33,281549,1,0,0:0:0:0:
244,138,281699,5,10,0:0:0:0:
260,134,281774,1,0,0:0:0:0:
277,131,281849,1,0,0:0:0:0:
114,47,281998,5,2,0:0:0:0:
98,43,282073,1,0,0:0:0:0:
81,40,282148,1,0,0:0:0:0:
262,148,282298,5,2,0:0:0:0:
278,144,282373,1,0,0:0:0:0:
295,141,282448,1,0,0:0:0:0:
95,56,282598,5,2,0:0:0:0:
79,52,282673,1,0,0:0:0:0:
62,49,282748,1,0,0:0:0:0:
277,160,282898,5,10,0:0:0:0:
293,156,282973,1,0,0:0:0:0:
310,153,283048,1,0,0:0:0:0:
84,64,283198,5,2,0:0:0:0:
68,60,283273,1,0,0:0:0:0:
51,57,283348,1,0,0:0:0:0:
34,52,283423,1,0,0:0:0:0:
17,47,283498,6,0,B|46:129|46:129|31:173|31:173|53:244|53:244|57:247|57:247|81:327,1,287.500005483627,4|0,0:0|0:0,0:0:0:0:
93,327,283956,1,0,0:0:0:0:
0,286,284108,1,10,2:3:0:0:
145,145,284261,1,8,2:3:0:0:
206,297,284414,1,2,2:3:0:0:
341,145,284566,2,0,L|305:267,1,115.000002193451,0|0,0:0|2:3,0:0:0:0:
373,376,284868,2,0,B|415:337|415:337|485:356,1,115.000002193451,0|0,2:3|2:3,2:3:0:0:
388,262,285168,1,0,0:0:0:0:
290,347,285318,5,0,2:3:0:0:
481,269,285457,1,0,0:0:0:0:
481,269,285527,1,0,0:0:0:0:
481,269,285597,2,0,L|492:168,1,57.5000010967255,0|0,2:3|2:3,2:3:0:0:
394,89,285743,2,0,L|405:190,1,57.5000010967255,0|0,2:3|2:3,2:3:0:0:
493,14,285889,5,4,0:0:0:0:
168,254,286491,5,8,2:3:0:0:
300,185,286942,1,0,0:0:0:0:
300,185,287093,1,0,0:0:0:0:
300,185,287394,1,0,0:0:0:0:
136,120,287695,6,0,B|88:102|88:102|219:62,1,174.999994659424,10|0,2:3|0:0,0:0:0:0:
258,63,288147,2,0,L|172:91,1,69.9999978637696,8|0,2:3|0:0,0:0:0:0:
191,84,288599,1,0,0:0:0:0:
368,132,288900,6,0,L|340:46,1,69.9999978637696,8|0,2:3|0:0,0:0:0:0:
402,148,289201,1,2,2:3:0:0:
328,62,289351,1,8,2:3:0:0:
438,45,289502,1,0,0:0:0:0:
438,45,289653,1,8,2:3:0:0:
291,141,289803,2,0,L|263:227,1,69.9999978637696,2|8,0:0|2:3,0:0:0:0:
302,301,290104,2,0,B|364:333|364:333|201:320,1,209.999993591309,8|8,2:3|2:3,0:0:0:0:
99,311,290707,5,4,0:0:0:0:
99,311,291008,1,0,0:0:0:0:
173,196,291309,2,0,L|164:275,1,69.9999978637696,8|0,2:3|0:0,0:0:0:0:
76,199,291610,1,2,2:3:0:0:
76,199,291761,1,0,0:0:0:0:
189,114,291911,5,0,0:0:0:0:
189,114,292212,1,2,2:3:0:0:
237,183,292363,1,0,0:0:0:0:
360,119,292513,2,0,P|333:142|306:185,1,69.9999978637696,8|0,2:3|0:0,0:0:0:0:
356,250,292814,1,2,2:3:0:0:
356,250,292965,1,0,0:0:0:0:
463,204,293116,5,0,0:0:0:0:
252,69,293417,1,0,0:0:0:0:
131,212,293718,2,0,L|213:200,1,69.9999978637696,8|0,2:3|2:3,2:3:0:0:
270,148,294019,1,0,0:0:0:0:
270,148,294170,1,0,0:0:0:0:
157,71,294320,6,0,B|122:66|122:66|70:108,1,69.9999978637696,4|2,0:0|2:3,0:0:0:0:
6,161,294621,2,0,B|40:156|40:156|92:198,1,69.9999978637696,4|2,0:0|2:3,0:0:0:0:
121,294,294922,2,0,B|155:298|155:298|184:276|184:276|336:294,1,209.999993591309,12|8,2:3|2:3,2:3:0:0:
400,360,295525,5,4,0:0:0:0:
400,360,295826,1,0,0:0:0:0:
506,290,296127,6,0,L|492:195,1,69.9999978637696,8|0,2:3|0:0,0:0:0:0:
423,84,296579,1,0,0:0:0:0:
423,84,296729,1,0,0:0:0:0:
423,84,297030,1,0,0:0:0:0:
238,159,297331,6,0,B|311:169|311:169|292:82,1,139.999995727539,12|0,2:3|2:3,0:0:0:0:
273,23,297783,1,8,2:3:0:0:
168,81,297934,2,0,L|149:227,1,139.999995727539
296,315,298536,6,0,L|308:408,1,69.9999978637696,8|0,2:3|0:0,0:0:0:0:
381,335,298837,1,2,2:3:0:0:
353,257,298988,2,0,L|365:164,1,69.9999978637696,8|0,2:3|0:0,0:0:0:0:
376,104,299289,1,0,2:3:0:0:
376,104,299439,1,0,0:0:0:0:
459,77,299590,1,8,2:3:0:0:
351,14,299740,2,0,B|307:22|286:62|286:62|307:197,1,209.999993591309,12|0,2:3|2:3,0:0:0:0:
388,258,300343,5,4,0:0:0:0:
256,192,300493,12,0,304784,0:0:0:0:
