osu file format v14

[General]
AudioFilename: audio.mp3
AudioLeadIn: 0
PreviewTime: 199745
Countdown: 0
SampleSet: Normal
StackLeniency: 0.7
Mode: 1
LetterboxInBreaks: 0
WidescreenStoryboard: 0

[Editor]
Bookmarks: 199841,200656
DistanceSpacing: 2.2
BeatDivisor: 4
GridSize: 4
TimelineZoom: 1.6

[Metadata]
Title:Caffeine Fighter
TitleUnicode:カフェインファイター
Artist:Syaro(CV.Uchida Maaya)
ArtistUnicode:シャロ(CV.内田真礼)
Creator:desireofpainx
Version:Oni
Source:ご注文はうさぎですか?
Tags:Is the order a rabbit? GochiUsa kirima Gochuumon wa Usagi Desu ka? anime j-pop
BeatmapID:1178165
BeatmapSetID:555405

[Difficulty]
HPDrainRate:6
CircleSize:2
OverallDifficulty:6
ApproachRate:2
SliderMultiplier:1.4
SliderTickRate:1

[Events]
//Background and Video events
0,0,"syaro_background.png",0,120
//Break Periods
//Storyboard Layer 0 (Background)
//Storyboard Layer 1 (Fail)
//Storyboard Layer 2 (Pass)
//Storyboard Layer 3 (Foreground)
//Storyboard Sound Samples

[TimingPoints]
2245,384.615384615385,4,1,0,100,1,0
2245,-100,4,1,0,100,0,0
8398,-100,4,1,0,100,0,0
14552,-96.1538461538461,4,1,0,100,0,0
26860,-100,4,1,0,100,0,0
51475,-104.166666666667,4,1,0,100,0,0
69937,-100,4,1,0,100,0,0
73014,-98.0392156862745,4,1,0,100,0,0
73783,-96.1538461538461,4,1,0,100,0,0
74552,-94.3396226415094,4,1,0,100,0,0
75321,-92.5925925925926,4,1,0,100,0,0
76091,-90.9090909090909,4,1,0,100,0,0
79168,-86.2068965517241,4,1,0,100,0,1
91379,-86.2068965517241,4,1,0,100,0,0
91487,-86.2068965517241,4,1,0,100,0,1
103591,-86.2068965517241,4,1,0,100,0,1
103783,-86.2068965517241,4,1,0,100,0,0
116091,-100,4,1,0,100,0,0
128398,-104.166666666667,4,1,0,100,0,0
146860,-100,4,1,0,100,0,0
149937,-98.0392156862745,4,1,0,100,0,0
150706,-96.1538461538461,4,1,0,100,0,0
151475,-94.3396226415094,4,1,0,100,0,0
152245,-92.5925925925926,4,1,0,100,0,0
153014,-90.9090909090909,4,1,0,100,0,0
156091,-86.2068965517241,4,1,0,100,0,1
168302,-86.2068965517241,4,1,0,100,0,0
168398,-86.2068965517241,4,1,0,100,0,1
180706,-100,4,1,0,100,0,0
186860,-100,4,1,0,100,0,0
193014,-100,4,1,0,100,0,0
200706,-86.2068965517241,4,1,0,100,0,1
212918,-86.2068965517241,4,1,0,100,0,0
213014,-86.2068965517241,4,1,0,100,0,1
224552,-86.2068965517241,4,1,0,100,0,0
225321,-86.2068965517241,4,1,0,100,0,1
237533,-86.2068965517241,4,1,0,100,0,0
237629,-86.2068965517241,4,1,0,100,0,1
249937,-96.1538461538461,4,1,0,100,0,0

[HitObjects]
256,192,2245,5,0,0:0:0:0:
256,192,2629,1,8,0:0:0:0:
256,192,3014,1,0,0:0:0:0:
256,192,3398,1,8,0:0:0:0:
256,192,3783,1,0,0:0:0:0:
256,192,4168,1,8,0:0:0:0:
256,192,4552,1,0,0:0:0:0:
256,192,4745,1,0,0:0:0:0:
256,192,4937,1,8,0:0:0:0:
256,192,5129,1,0,0:0:0:0:
256,192,5321,1,0,0:0:0:0:
256,192,5706,1,8,0:0:0:0:
256,192,6091,1,0,0:0:0:0:
256,192,6475,1,8,0:0:0:0:
256,192,6860,1,0,0:0:0:0:
256,192,7245,1,8,0:0:0:0:
256,192,7629,1,0,0:0:0:0:
256,192,7821,1,0,0:0:0:0:
256,192,8014,1,8,0:0:0:0:
256,192,8206,1,8,0:0:0:0:
256,192,8398,1,0,0:0:0:0:
256,192,8591,1,0,0:0:0:0:
256,192,8783,1,8,0:0:0:0:
256,192,8975,1,8,0:0:0:0:
256,192,9360,1,0,0:0:0:0:
256,192,9552,1,8,0:0:0:0:
256,192,9745,1,0,0:0:0:0:
256,192,9937,1,0,0:0:0:0:
256,192,10129,1,0,0:0:0:0:
256,192,10321,1,8,0:0:0:0:
256,192,10514,1,0,0:0:0:0:
256,192,10898,1,0,0:0:0:0:
256,192,11091,1,8,0:0:0:0:
256,192,11283,1,8,0:0:0:0:
256,192,11475,1,4,0:0:0:0:
256,192,12052,1,0,0:0:0:0:
256,192,12245,1,12,0:0:0:0:
256,192,13206,1,12,0:0:0:0:
256,192,13398,1,12,0:0:0:0:
256,192,13591,1,4,0:0:0:0:
256,192,13783,1,12,0:0:0:0:
256,192,14168,1,12,0:0:0:0:
256,192,14360,1,8,0:0:0:0:
256,192,14456,1,0,0:0:0:0:
256,192,14552,1,8,0:0:0:0:
256,192,14745,1,0,0:0:0:0:
256,192,14937,1,8,0:0:0:0:
256,192,15321,1,8,0:0:0:0:
256,192,15706,1,0,0:0:0:0:
256,192,15898,1,8,0:0:0:0:
256,192,15995,1,0,0:0:0:0:
256,192,16091,1,8,0:0:0:0:
256,192,16283,1,0,0:0:0:0:
256,192,16475,1,8,0:0:0:0:
256,192,16860,1,8,0:0:0:0:
256,192,17052,1,8,0:0:0:0:
256,192,17245,1,0,0:0:0:0:
256,192,17437,1,8,0:0:0:0:
256,192,17533,1,0,0:0:0:0:
256,192,17629,1,8,0:0:0:0:
256,192,17821,1,0,0:0:0:0:
256,192,18014,1,8,0:0:0:0:
256,192,18398,1,8,0:0:0:0:
256,192,18783,1,8,0:0:0:0:
256,192,18975,1,0,0:0:0:0:
256,192,19071,1,8,0:0:0:0:
256,192,19168,1,0,0:0:0:0:
256,192,19360,1,0,0:0:0:0:
256,192,19552,1,8,0:0:0:0:
256,192,19745,1,0,0:0:0:0:
256,192,19937,1,8,0:0:0:0:
256,192,20129,1,0,0:0:0:0:
256,192,20321,1,0,0:0:0:0:
256,192,20514,1,8,0:0:0:0:
256,192,20610,1,0,0:0:0:0:
256,192,20706,1,8,0:0:0:0:
256,192,20898,1,0,0:0:0:0:
256,192,21091,1,8,0:0:0:0:
256,192,21283,1,0,0:0:0:0:
256,192,21475,1,8,0:0:0:0:
256,192,21860,1,8,0:0:0:0:
256,192,22052,1,8,0:0:0:0:
256,192,22148,1,0,0:0:0:0:
256,192,22245,1,0,0:0:0:0:
256,192,22437,1,0,0:0:0:0:
256,192,22629,1,8,0:0:0:0:
256,192,23014,1,0,0:0:0:0:
256,192,23206,1,0,0:0:0:0:
256,192,23398,1,8,0:0:0:0:
256,192,23591,1,0,0:0:0:0:
256,192,23783,1,4,0:0:0:0:
256,192,24168,1,4,0:0:0:0:
256,192,24552,1,0,0:0:0:0:
256,192,24745,1,8,0:0:0:0:
256,192,24937,1,0,0:0:0:0:
256,192,25129,1,12,0:0:0:0:
256,192,25514,1,0,0:0:0:0:
256,192,25706,1,12,0:0:0:0:
256,192,26475,1,4,0:0:0:0:
256,192,26860,1,0,0:0:0:0:
256,192,27052,1,0,0:0:0:0:
256,192,27245,1,8,0:0:0:0:
256,192,27437,1,0,0:0:0:0:
256,192,27629,1,0,0:0:0:0:
256,192,27821,1,0,0:0:0:0:
256,192,27918,1,0,0:0:0:0:
256,192,28014,1,8,0:0:0:0:
256,192,28206,1,0,0:0:0:0:
256,192,28398,1,0,0:0:0:0:
256,192,28783,1,8,0:0:0:0:
256,192,28975,1,0,0:0:0:0:
256,192,29360,1,0,0:0:0:0:
256,192,29552,1,8,0:0:0:0:
256,192,29745,1,0,0:0:0:0:
256,192,30129,1,0,0:0:0:0:
256,192,30321,1,8,0:0:0:0:
256,192,30514,1,0,0:0:0:0:
256,192,30610,1,0,0:0:0:0:
256,192,30706,1,0,0:0:0:0:
256,192,30898,1,0,0:0:0:0:
256,192,31091,1,8,0:0:0:0:
256,192,31283,1,0,0:0:0:0:
256,192,31475,1,0,0:0:0:0:
256,192,31860,1,8,0:0:0:0:
256,192,32052,1,0,0:0:0:0:
256,192,32437,1,0,0:0:0:0:
256,192,32629,1,8,0:0:0:0:
256,192,32821,1,8,0:0:0:0:
256,192,33014,1,0,0:0:0:0:
256,192,33206,1,0,0:0:0:0:
256,192,33398,1,8,0:0:0:0:
256,192,33591,1,0,0:0:0:0:
256,192,33975,1,8,0:0:0:0:
256,192,34168,1,8,0:0:0:0:
256,192,34360,1,0,0:0:0:0:
256,192,34552,1,0,0:0:0:0:
256,192,34745,1,0,0:0:0:0:
256,192,34937,1,8,0:0:0:0:
256,192,35129,1,0,0:0:0:0:
256,192,35514,1,0,0:0:0:0:
256,192,35706,1,8,0:0:0:0:
256,192,35898,1,0,0:0:0:0:
256,192,36091,1,0,0:0:0:0:
256,192,36283,1,0,0:0:0:0:
256,192,36475,1,8,0:0:0:0:
256,192,36668,1,0,0:0:0:0:
256,192,36860,1,8,0:0:0:0:
256,192,37052,1,0,0:0:0:0:
256,192,37245,1,0,0:0:0:0:
256,192,37437,1,8,0:0:0:0:
256,192,37629,1,8,0:0:0:0:
256,192,38014,1,0,0:0:0:0:
256,192,38206,1,8,0:0:0:0:
256,192,38591,1,8,0:0:0:0:
256,192,38687,1,0,0:0:0:0:
256,192,38783,1,8,0:0:0:0:
256,192,38975,1,0,0:0:0:0:
256,192,39168,1,0,0:0:0:0:
256,192,39360,1,0,0:0:0:0:
256,192,39552,1,8,0:0:0:0:
256,192,39745,1,0,0:0:0:0:
256,192,39937,1,0,0:0:0:0:
256,192,40129,1,0,0:0:0:0:
256,192,40225,1,0,0:0:0:0:
256,192,40321,1,8,0:0:0:0:
256,192,40514,1,0,0:0:0:0:
256,192,40898,1,0,0:0:0:0:
256,192,41091,1,8,0:0:0:0:
256,192,41283,1,0,0:0:0:0:
256,192,41668,1,0,0:0:0:0:
256,192,41860,1,8,0:0:0:0:
256,192,42052,1,0,0:0:0:0:
256,192,42245,1,0,0:0:0:0:
256,192,42437,1,0,0:0:0:0:
256,192,42629,1,8,0:0:0:0:
256,192,42821,1,0,0:0:0:0:
256,192,43014,1,0,0:0:0:0:
256,192,43398,1,8,0:0:0:0:
256,192,43591,1,0,0:0:0:0:
256,192,43687,1,0,0:0:0:0:
256,192,43783,1,0,0:0:0:0:
256,192,43975,1,0,0:0:0:0:
256,192,44168,1,8,0:0:0:0:
256,192,44360,1,0,0:0:0:0:
256,192,44745,1,0,0:0:0:0:
256,192,44937,1,8,0:0:0:0:
256,192,45129,1,8,0:0:0:0:
256,192,45321,1,0,0:0:0:0:
256,192,45514,1,0,0:0:0:0:
256,192,45706,1,8,0:0:0:0:
256,192,45898,1,0,0:0:0:0:
256,192,46283,1,8,0:0:0:0:
256,192,46475,1,8,0:0:0:0:
256,192,46668,1,0,0:0:0:0:
256,192,46860,1,0,0:0:0:0:
256,192,47052,1,0,0:0:0:0:
256,192,47245,1,8,0:0:0:0:
256,192,47437,1,0,0:0:0:0:
256,192,47821,1,0,0:0:0:0:
256,192,48014,1,8,0:0:0:0:
256,192,48206,1,8,0:0:0:0:
256,192,48398,1,8,0:0:0:0:
256,192,48783,1,8,0:0:0:0:
256,192,49168,1,8,0:0:0:0:
256,192,49360,1,0,0:0:0:0:
256,192,49552,1,0,0:0:0:0:
256,192,49745,1,8,0:0:0:0:
256,192,50129,1,8,0:0:0:0:
256,192,50514,1,0,0:0:0:0:
256,192,50706,1,8,0:0:0:0:
256,192,50898,1,0,0:0:0:0:
256,192,51091,1,0,0:0:0:0:
256,192,51283,1,8,0:0:0:0:
256,192,51475,1,8,0:0:0:0:
256,192,51860,1,8,0:0:0:0:
256,192,52052,1,0,0:0:0:0:
256,192,52245,1,8,0:0:0:0:
256,192,52629,1,0,0:0:0:0:
256,192,52821,1,8,0:0:0:0:
256,192,53206,1,8,0:0:0:0:
256,192,53591,1,0,0:0:0:0:
256,192,53783,1,8,0:0:0:0:
256,192,53975,1,8,0:0:0:0:
256,192,54168,1,0,0:0:0:0:
256,192,54552,1,0,0:0:0:0:
256,192,54937,1,0,0:0:0:0:
256,192,55129,1,0,0:0:0:0:
256,192,55321,1,8,0:0:0:0:
256,192,55706,1,0,0:0:0:0:
256,192,55898,1,8,0:0:0:0:
256,192,56283,1,0,0:0:0:0:
256,192,56475,1,0,0:0:0:0:
256,192,56668,1,0,0:0:0:0:
256,192,56860,1,8,0:0:0:0:
256,192,57052,1,0,0:0:0:0:
256,192,57245,1,8,0:0:0:0:
256,192,57629,1,0,0:0:0:0:
256,192,58014,1,0,0:0:0:0:
256,192,58206,1,0,0:0:0:0:
256,192,58398,1,8,0:0:0:0:
256,192,58783,1,0,0:0:0:0:
256,192,58975,1,8,0:0:0:0:
256,192,59360,1,0,0:0:0:0:
256,192,59552,1,8,0:0:0:0:
256,192,59745,1,0,0:0:0:0:
256,192,59937,1,8,0:0:0:0:
256,192,60321,1,0,0:0:0:0:
256,192,60706,1,8,0:0:0:0:
256,192,61091,1,0,0:0:0:0:
256,192,61283,1,0,0:0:0:0:
256,192,61475,1,8,0:0:0:0:
256,192,61860,1,0,0:0:0:0:
256,192,62052,1,8,0:0:0:0:
256,192,62437,1,0,0:0:0:0:
256,192,62629,1,8,0:0:0:0:
256,192,62821,1,8,0:0:0:0:
256,192,63014,1,0,0:0:0:0:
256,192,63398,1,8,0:0:0:0:
256,192,63783,1,0,0:0:0:0:
256,192,64168,1,0,0:0:0:0:
256,192,64360,1,0,0:0:0:0:
256,192,64552,1,8,0:0:0:0:
256,192,64937,1,0,0:0:0:0:
256,192,65129,1,8,0:0:0:0:
256,192,65514,1,0,0:0:0:0:
256,192,65706,1,8,0:0:0:0:
256,192,65898,1,0,0:0:0:0:
256,192,66091,1,0,0:0:0:0:
256,192,66475,1,8,0:0:0:0:
256,192,66860,1,0,0:0:0:0:
256,192,67245,1,0,0:0:0:0:
256,192,67437,1,0,0:0:0:0:
256,192,67629,1,8,0:0:0:0:
256,192,68014,1,0,0:0:0:0:
256,192,68206,1,8,0:0:0:0:
256,192,68591,1,0,0:0:0:0:
256,192,68783,1,8,0:0:0:0:
256,192,68975,1,8,0:0:0:0:
256,192,69168,1,0,0:0:0:0:
256,192,69552,1,8,0:0:0:0:
256,192,69745,1,0,0:0:0:0:
256,192,69841,1,0,0:0:0:0:
256,192,69937,1,0,0:0:0:0:
256,192,70129,1,8,0:0:0:0:
256,192,70321,1,0,0:0:0:0:
256,192,70514,1,0,0:0:0:0:
256,192,70706,1,8,0:0:0:0:
256,192,70898,1,0,0:0:0:0:
256,192,71091,1,8,0:0:0:0:
256,192,71283,1,0,0:0:0:0:
256,192,71475,1,8,0:0:0:0:
256,192,71668,1,0,0:0:0:0:
256,192,71860,1,0,0:0:0:0:
256,192,72052,1,8,0:0:0:0:
256,192,72245,1,0,0:0:0:0:
256,192,72437,1,8,0:0:0:0:
256,192,72629,1,0,0:0:0:0:
256,192,72821,1,0,0:0:0:0:
256,192,72918,1,0,0:0:0:0:
256,192,73014,1,8,0:0:0:0:
256,192,73206,1,0,0:0:0:0:
256,192,73398,1,8,0:0:0:0:
256,192,73591,1,0,0:0:0:0:
256,192,73783,1,8,0:0:0:0:
256,192,73975,1,0,0:0:0:0:
256,192,74168,1,8,0:0:0:0:
256,192,74360,1,0,0:0:0:0:
256,192,74456,1,0,0:0:0:0:
256,192,74552,1,8,0:0:0:0:
256,192,74745,1,0,0:0:0:0:
256,192,74937,1,8,0:0:0:0:
256,192,75129,1,0,0:0:0:0:
256,192,75321,1,8,0:0:0:0:
256,192,75514,1,0,0:0:0:0:
256,192,75706,1,8,0:0:0:0:
256,192,75898,1,0,0:0:0:0:
256,192,75995,1,0,0:0:0:0:
256,192,76091,1,8,0:0:0:0:
256,192,76283,1,0,0:0:0:0:
256,192,76475,1,8,0:0:0:0:
256,192,76668,1,0,0:0:0:0:
256,192,76860,1,8,0:0:0:0:
256,192,77052,1,0,0:0:0:0:
256,192,77245,1,8,0:0:0:0:
256,192,77437,1,0,0:0:0:0:
256,192,77533,1,0,0:0:0:0:
256,192,77629,1,0,0:0:0:0:
256,192,77821,1,12,0:0:0:0:
256,192,78014,1,4,0:0:0:0:
256,192,78206,1,12,0:0:0:0:
256,192,78783,1,4,0:0:0:0:
256,192,79168,1,0,0:0:0:0:
256,192,79360,1,0,0:0:0:0:
256,192,79456,1,0,0:0:0:0:
256,192,79552,1,8,0:0:0:0:
256,192,79745,1,0,0:0:0:0:
256,192,79937,1,0,0:0:0:0:
256,192,80129,1,8,0:0:0:0:
256,192,80321,1,8,0:0:0:0:
256,192,80514,1,0,0:0:0:0:
256,192,80706,1,0,0:0:0:0:
256,192,80898,1,0,0:0:0:0:
256,192,80995,1,0,0:0:0:0:
256,192,81091,1,8,0:0:0:0:
256,192,81283,1,0,0:0:0:0:
256,192,81668,1,8,0:0:0:0:
256,192,81860,1,8,0:0:0:0:
256,192,82052,1,0,0:0:0:0:
256,192,82245,1,0,0:0:0:0:
256,192,82437,1,8,0:0:0:0:
256,192,82533,1,8,0:0:0:0:
256,192,82629,1,8,0:0:0:0:
256,192,82821,1,0,0:0:0:0:
256,192,83014,1,0,0:0:0:0:
256,192,83206,1,0,0:0:0:0:
256,192,83398,1,8,0:0:0:0:
256,192,83591,1,0,0:0:0:0:
256,192,83783,1,0,0:0:0:0:
256,192,83975,1,0,0:0:0:0:
256,192,84168,1,8,0:0:0:0:
256,192,84360,1,0,0:0:0:0:
256,192,84745,1,8,0:0:0:0:
256,192,84937,1,8,0:0:0:0:
256,192,85129,1,0,0:0:0:0:
256,192,85321,1,8,0:0:0:0:
256,192,85514,1,0,0:0:0:0:
256,192,85610,1,0,0:0:0:0:
256,192,85706,1,0,0:0:0:0:
256,192,85898,1,0,0:0:0:0:
256,192,86091,1,0,0:0:0:0:
256,192,86283,1,0,0:0:0:0:
256,192,86475,1,8,0:0:0:0:
256,192,86668,1,0,0:0:0:0:
256,192,86860,1,0,0:0:0:0:
256,192,87052,1,0,0:0:0:0:
256,192,87245,1,8,0:0:0:0:
256,192,87437,1,0,0:0:0:0:
256,192,87821,1,8,0:0:0:0:
256,192,88014,1,8,0:0:0:0:
256,192,88206,1,0,0:0:0:0:
256,192,88398,1,0,0:0:0:0:
256,192,88591,1,8,0:0:0:0:
256,192,88687,1,0,0:0:0:0:
256,192,88783,1,8,0:0:0:0:
256,192,88975,1,0,0:0:0:0:
256,192,89168,1,0,0:0:0:0:
256,192,89360,1,0,0:0:0:0:
256,192,89552,1,8,0:0:0:0:
256,192,89745,1,0,0:0:0:0:
256,192,89937,1,0,0:0:0:0:
256,192,90129,1,8,0:0:0:0:
256,192,90321,1,0,0:0:0:0:
256,192,90514,1,8,0:0:0:0:
256,192,90706,1,0,0:0:0:0:
256,192,90802,1,0,0:0:0:0:
256,192,90898,1,0,0:0:0:0:
256,192,90995,1,0,0:0:0:0:
256,192,91091,1,8,0:0:0:0:
256,192,91187,1,8,0:0:0:0:
256,192,91283,1,8,0:0:0:0:
256,192,91379,1,8,0:0:0:0:
256,192,91475,1,0,0:0:0:0:
256,192,91668,1,0,0:0:0:0:
256,192,91764,1,0,0:0:0:0:
256,192,91860,1,8,0:0:0:0:
256,192,92052,1,0,0:0:0:0:
256,192,92245,1,0,0:0:0:0:
256,192,92437,1,8,0:0:0:0:
256,192,92629,1,8,0:0:0:0:
256,192,92821,1,0,0:0:0:0:
256,192,93014,1,0,0:0:0:0:
256,192,93206,1,0,0:0:0:0:
256,192,93302,1,0,0:0:0:0:
256,192,93398,1,8,0:0:0:0:
256,192,93591,1,0,0:0:0:0:
256,192,93975,1,8,0:0:0:0:
256,192,94168,1,8,0:0:0:0:
256,192,94360,1,0,0:0:0:0:
256,192,94552,1,0,0:0:0:0:
256,192,94745,1,8,0:0:0:0:
256,192,94841,1,0,0:0:0:0:
256,192,94937,1,8,0:0:0:0:
256,192,95129,1,0,0:0:0:0:
256,192,95321,1,0,0:0:0:0:
256,192,95514,1,0,0:0:0:0:
256,192,95706,1,8,0:0:0:0:
256,192,95898,1,0,0:0:0:0:
256,192,96091,1,0,0:0:0:0:
256,192,96283,1,8,0:0:0:0:
256,192,96379,1,8,0:0:0:0:
256,192,96475,1,8,0:0:0:0:
256,192,96668,1,0,0:0:0:0:
256,192,97052,1,8,0:0:0:0:
256,192,97245,1,8,0:0:0:0:
256,192,97437,1,0,0:0:0:0:
256,192,97629,1,0,0:0:0:0:
256,192,97821,1,0,0:0:0:0:
256,192,97918,1,0,0:0:0:0:
256,192,98014,1,0,0:0:0:0:
256,192,98206,1,0,0:0:0:0:
256,192,98398,1,0,0:0:0:0:
256,192,98591,1,0,0:0:0:0:
256,192,98783,1,8,0:0:0:0:
256,192,98975,1,0,0:0:0:0:
256,192,99168,1,0,0:0:0:0:
256,192,99360,1,0,0:0:0:0:
256,192,99552,1,8,0:0:0:0:
256,192,99745,1,0,0:0:0:0:
256,192,100129,1,8,0:0:0:0:
256,192,100321,1,8,0:0:0:0:
256,192,100514,1,0,0:0:0:0:
256,192,100706,1,4,0:0:0:0:
256,192,101283,1,0,0:0:0:0:
256,192,101475,1,12,0:0:0:0:
256,192,102437,1,12,0:0:0:0:
256,192,102629,1,12,0:0:0:0:
256,192,102821,1,4,0:0:0:0:
256,192,103014,1,12,0:0:0:0:
256,192,103398,1,4,0:0:0:0:
256,192,103591,1,0,0:0:0:0:
256,192,103687,1,0,0:0:0:0:
256,192,103783,1,0,0:0:0:0:
256,192,103975,1,0,0:0:0:0:
256,192,104168,1,8,0:0:0:0:
256,192,104360,1,8,0:0:0:0:
256,192,104552,1,0,0:0:0:0:
256,192,104937,1,8,0:0:0:0:
256,192,105129,1,0,0:0:0:0:
256,192,105225,1,0,0:0:0:0:
256,192,105321,1,0,0:0:0:0:
256,192,105514,1,0,0:0:0:0:
256,192,105706,1,8,0:0:0:0:
256,192,105898,1,8,0:0:0:0:
256,192,106091,1,0,0:0:0:0:
256,192,106283,1,0,0:0:0:0:
256,192,106475,1,8,0:0:0:0:
256,192,106668,1,0,0:0:0:0:
256,192,106764,1,0,0:0:0:0:
256,192,106860,1,0,0:0:0:0:
256,192,107052,1,0,0:0:0:0:
256,192,107245,1,8,0:0:0:0:
256,192,107437,1,8,0:0:0:0:
256,192,107629,1,0,0:0:0:0:
256,192,107821,1,8,0:0:0:0:
256,192,108014,1,8,0:0:0:0:
256,192,108206,1,0,0:0:0:0:
256,192,108302,1,0,0:0:0:0:
256,192,108398,1,0,0:0:0:0:
256,192,108591,1,0,0:0:0:0:
256,192,108783,1,8,0:0:0:0:
256,192,109168,1,0,0:0:0:0:
256,192,109360,1,0,0:0:0:0:
256,192,109552,1,8,0:0:0:0:
256,192,109745,1,0,0:0:0:0:
256,192,109841,1,0,0:0:0:0:
256,192,109937,1,0,0:0:0:0:
256,192,110129,1,0,0:0:0:0:
256,192,110321,1,8,0:0:0:0:
256,192,110514,1,8,0:0:0:0:
256,192,110706,1,0,0:0:0:0:
256,192,111091,1,8,0:0:0:0:
256,192,111283,1,0,0:0:0:0:
256,192,111475,1,0,0:0:0:0:
256,192,111668,1,0,0:0:0:0:
256,192,111860,1,8,0:0:0:0:
256,192,112245,1,8,0:0:0:0:
256,192,112437,1,0,0:0:0:0:
256,192,112629,1,0,0:0:0:0:
256,192,113014,1,4,0:0:0:0:
256,192,113398,1,4,0:0:0:0:
256,192,113783,1,0,0:0:0:0:
256,192,113975,1,8,0:0:0:0:
256,192,114168,1,0,0:0:0:0:
256,192,114360,1,12,0:0:0:0:
256,192,114745,1,0,0:0:0:0:
256,192,114937,1,12,0:0:0:0:
256,192,115706,1,4,0:0:0:0:
256,192,116091,1,0,0:0:0:0:
256,192,116283,1,0,0:0:0:0:
256,192,116475,1,0,0:0:0:0:
256,192,116668,1,8,0:0:0:0:
256,192,116860,1,8,0:0:0:0:
256,192,117052,1,0,0:0:0:0:
256,192,117245,1,8,0:0:0:0:
256,192,117437,1,0,0:0:0:0:
256,192,117629,1,0,0:0:0:0:
256,192,118014,1,0,0:0:0:0:
256,192,118206,1,8,0:0:0:0:
256,192,118591,1,8,0:0:0:0:
256,192,118783,1,0,0:0:0:0:
256,192,119168,1,0,0:0:0:0:
256,192,119360,1,0,0:0:0:0:
256,192,119552,1,8,0:0:0:0:
256,192,119745,1,0,0:0:0:0:
256,192,119937,1,8,0:0:0:0:
256,192,120129,1,0,0:0:0:0:
256,192,120321,1,0,0:0:0:0:
256,192,120514,1,0,0:0:0:0:
256,192,120706,1,8,0:0:0:0:
256,192,121091,1,0,0:0:0:0:
256,192,121283,1,8,0:0:0:0:
256,192,121668,1,8,0:0:0:0:
256,192,121860,1,8,0:0:0:0:
256,192,122245,1,8,0:0:0:0:
256,192,122629,1,8,0:0:0:0:
256,192,122821,1,0,0:0:0:0:
256,192,123206,1,0,0:0:0:0:
256,192,123398,1,8,0:0:0:0:
256,192,123783,1,8,0:0:0:0:
256,192,124168,1,8,0:0:0:0:
256,192,124360,1,0,0:0:0:0:
256,192,124745,1,0,0:0:0:0:
256,192,124937,1,8,0:0:0:0:
256,192,125321,1,0,0:0:0:0:
256,192,125514,1,0,0:0:0:0:
256,192,125706,1,8,0:0:0:0:
256,192,125898,1,0,0:0:0:0:
256,192,126091,1,8,0:0:0:0:
256,192,126283,1,0,0:0:0:0:
256,192,126475,1,0,0:0:0:0:
256,192,126668,1,8,0:0:0:0:
256,192,127052,1,8,0:0:0:0:
256,192,127437,1,0,0:0:0:0:
256,192,127629,1,8,0:0:0:0:
256,192,128014,1,0,0:0:0:0:
256,192,128398,1,8,0:0:0:0:
256,192,128783,1,8,0:0:0:0:
256,192,128975,1,0,0:0:0:0:
256,192,129168,1,8,0:0:0:0:
256,192,129552,1,0,0:0:0:0:
256,192,129745,1,8,0:0:0:0:
256,192,130129,1,8,0:0:0:0:
256,192,130514,1,0,0:0:0:0:
256,192,130706,1,8,0:0:0:0:
256,192,130898,1,8,0:0:0:0:
256,192,131091,1,0,0:0:0:0:
256,192,131475,1,0,0:0:0:0:
256,192,131860,1,0,0:0:0:0:
256,192,132052,1,0,0:0:0:0:
256,192,132245,1,8,0:0:0:0:
256,192,132629,1,0,0:0:0:0:
256,192,132821,1,8,0:0:0:0:
256,192,133206,1,0,0:0:0:0:
256,192,133398,1,0,0:0:0:0:
256,192,133591,1,0,0:0:0:0:
256,192,133783,1,8,0:0:0:0:
256,192,133975,1,0,0:0:0:0:
256,192,134168,1,8,0:0:0:0:
256,192,134552,1,0,0:0:0:0:
256,192,134937,1,0,0:0:0:0:
256,192,135129,1,0,0:0:0:0:
256,192,135321,1,8,0:0:0:0:
256,192,135706,1,0,0:0:0:0:
256,192,135898,1,8,0:0:0:0:
256,192,136283,1,0,0:0:0:0:
256,192,136475,1,8,0:0:0:0:
256,192,136668,1,0,0:0:0:0:
256,192,136860,1,8,0:0:0:0:
256,192,137245,1,0,0:0:0:0:
256,192,137629,1,8,0:0:0:0:
256,192,138014,1,0,0:0:0:0:
256,192,138206,1,0,0:0:0:0:
256,192,138398,1,8,0:0:0:0:
256,192,138783,1,0,0:0:0:0:
256,192,138975,1,8,0:0:0:0:
256,192,139360,1,0,0:0:0:0:
256,192,139552,1,8,0:0:0:0:
256,192,139745,1,8,0:0:0:0:
256,192,139937,1,0,0:0:0:0:
256,192,140321,1,8,0:0:0:0:
256,192,140706,1,0,0:0:0:0:
256,192,141091,1,0,0:0:0:0:
256,192,141283,1,0,0:0:0:0:
256,192,141475,1,8,0:0:0:0:
256,192,141860,1,0,0:0:0:0:
256,192,142052,1,8,0:0:0:0:
256,192,142437,1,0,0:0:0:0:
256,192,142629,1,8,0:0:0:0:
256,192,142821,1,0,0:0:0:0:
256,192,143014,1,0,0:0:0:0:
256,192,143398,1,8,0:0:0:0:
256,192,143783,1,0,0:0:0:0:
256,192,144168,1,0,0:0:0:0:
256,192,144360,1,0,0:0:0:0:
256,192,144552,1,8,0:0:0:0:
256,192,144937,1,0,0:0:0:0:
256,192,145129,1,8,0:0:0:0:
256,192,145514,1,0,0:0:0:0:
256,192,145706,1,8,0:0:0:0:
256,192,145898,1,8,0:0:0:0:
256,192,146091,1,0,0:0:0:0:
256,192,146475,1,8,0:0:0:0:
256,192,146860,1,0,0:0:0:0:
256,192,147052,1,8,0:0:0:0:
256,192,147245,1,0,0:0:0:0:
256,192,147437,1,0,0:0:0:0:
256,192,147629,1,8,0:0:0:0:
256,192,147821,1,0,0:0:0:0:
256,192,148014,1,8,0:0:0:0:
256,192,148206,1,0,0:0:0:0:
256,192,148398,1,0,0:0:0:0:
256,192,148591,1,8,0:0:0:0:
256,192,148783,1,8,0:0:0:0:
256,192,148975,1,0,0:0:0:0:
256,192,149168,1,0,0:0:0:0:
256,192,149360,1,0,0:0:0:0:
256,192,149552,1,8,0:0:0:0:
256,192,149745,1,0,0:0:0:0:
256,192,149937,1,8,0:0:0:0:
256,192,150129,1,0,0:0:0:0:
256,192,150321,1,0,0:0:0:0:
256,192,150514,1,0,0:0:0:0:
256,192,150706,1,8,0:0:0:0:
256,192,150898,1,0,0:0:0:0:
256,192,151091,1,0,0:0:0:0:
256,192,151283,1,8,0:0:0:0:
256,192,151379,1,8,0:0:0:0:
256,192,151475,1,8,0:0:0:0:
256,192,151668,1,0,0:0:0:0:
256,192,151860,1,0,0:0:0:0:
256,192,152052,1,0,0:0:0:0:
256,192,152245,1,8,0:0:0:0:
256,192,152437,1,0,0:0:0:0:
256,192,152629,1,0,0:0:0:0:
256,192,152821,1,8,0:0:0:0:
256,192,152918,1,8,0:0:0:0:
256,192,153014,1,8,0:0:0:0:
256,192,153398,1,8,0:0:0:0:
256,192,153783,1,8,0:0:0:0:
256,192,154168,1,8,0:0:0:0:
256,192,154360,1,0,0:0:0:0:
256,192,154456,1,0,0:0:0:0:
256,192,154552,1,0,0:0:0:0:
256,192,154745,1,12,0:0:0:0:
256,192,154937,1,4,0:0:0:0:
256,192,155129,1,12,0:0:0:0:
256,192,155706,1,4,0:0:0:0:
256,192,156091,1,0,0:0:0:0:
256,192,156283,1,0,0:0:0:0:
256,192,156379,1,0,0:0:0:0:
256,192,156475,1,8,0:0:0:0:
256,192,156668,1,0,0:0:0:0:
256,192,156860,1,0,0:0:0:0:
256,192,157052,1,8,0:0:0:0:
256,192,157245,1,8,0:0:0:0:
256,192,157437,1,0,0:0:0:0:
256,192,157629,1,0,0:0:0:0:
256,192,157821,1,0,0:0:0:0:
256,192,157918,1,0,0:0:0:0:
256,192,158014,1,8,0:0:0:0:
256,192,158206,1,0,0:0:0:0:
256,192,158591,1,8,0:0:0:0:
256,192,158783,1,8,0:0:0:0:
256,192,158975,1,0,0:0:0:0:
256,192,159168,1,0,0:0:0:0:
256,192,159360,1,8,0:0:0:0:
256,192,159456,1,8,0:0:0:0:
256,192,159552,1,8,0:0:0:0:
256,192,159745,1,0,0:0:0:0:
256,192,159937,1,0,0:0:0:0:
256,192,160129,1,0,0:0:0:0:
256,192,160321,1,8,0:0:0:0:
256,192,160514,1,0,0:0:0:0:
256,192,160706,1,0,0:0:0:0:
256,192,160898,1,0,0:0:0:0:
256,192,161091,1,8,0:0:0:0:
256,192,161283,1,0,0:0:0:0:
256,192,161668,1,8,0:0:0:0:
256,192,161860,1,8,0:0:0:0:
256,192,162052,1,0,0:0:0:0:
256,192,162245,1,8,0:0:0:0:
256,192,162437,1,0,0:0:0:0:
256,192,162533,1,0,0:0:0:0:
256,192,162629,1,0,0:0:0:0:
256,192,162821,1,0,0:0:0:0:
256,192,163014,1,0,0:0:0:0:
256,192,163206,1,0,0:0:0:0:
256,192,163398,1,8,0:0:0:0:
256,192,163591,1,0,0:0:0:0:
256,192,163783,1,0,0:0:0:0:
256,192,163975,1,0,0:0:0:0:
256,192,164168,1,8,0:0:0:0:
256,192,164360,1,0,0:0:0:0:
256,192,164745,1,8,0:0:0:0:
256,192,164937,1,8,0:0:0:0:
256,192,165129,1,0,0:0:0:0:
256,192,165321,1,0,0:0:0:0:
256,192,165514,1,8,0:0:0:0:
256,192,165610,1,0,0:0:0:0:
256,192,165706,1,8,0:0:0:0:
256,192,165898,1,0,0:0:0:0:
256,192,166091,1,0,0:0:0:0:
256,192,166283,1,0,0:0:0:0:
256,192,166475,1,8,0:0:0:0:
256,192,166668,1,0,0:0:0:0:
256,192,166860,1,0,0:0:0:0:
256,192,167052,1,8,0:0:0:0:
256,192,167245,1,0,0:0:0:0:
256,192,167437,1,8,0:0:0:0:
256,192,167629,1,0,0:0:0:0:
256,192,167725,1,0,0:0:0:0:
256,192,167821,1,0,0:0:0:0:
256,192,167918,1,0,0:0:0:0:
256,192,168014,1,8,0:0:0:0:
256,192,168110,1,8,0:0:0:0:
256,192,168206,1,8,0:0:0:0:
256,192,168302,1,8,0:0:0:0:
256,192,168398,1,0,0:0:0:0:
256,192,168591,1,0,0:0:0:0:
256,192,168687,1,0,0:0:0:0:
256,192,168783,1,8,0:0:0:0:
256,192,168975,1,0,0:0:0:0:
256,192,169168,1,0,0:0:0:0:
256,192,169360,1,8,0:0:0:0:
256,192,169552,1,8,0:0:0:0:
256,192,169745,1,0,0:0:0:0:
256,192,169937,1,0,0:0:0:0:
256,192,170129,1,0,0:0:0:0:
256,192,170225,1,0,0:0:0:0:
256,192,170321,1,8,0:0:0:0:
256,192,170514,1,0,0:0:0:0:
256,192,170898,1,8,0:0:0:0:
256,192,171091,1,8,0:0:0:0:
256,192,171283,1,0,0:0:0:0:
256,192,171475,1,0,0:0:0:0:
256,192,171668,1,8,0:0:0:0:
256,192,171764,1,0,0:0:0:0:
256,192,171860,1,8,0:0:0:0:
256,192,172052,1,0,0:0:0:0:
256,192,172245,1,0,0:0:0:0:
256,192,172437,1,0,0:0:0:0:
256,192,172629,1,8,0:0:0:0:
256,192,172821,1,0,0:0:0:0:
256,192,173014,1,0,0:0:0:0:
256,192,173206,1,8,0:0:0:0:
256,192,173302,1,8,0:0:0:0:
256,192,173398,1,8,0:0:0:0:
256,192,173591,1,0,0:0:0:0:
256,192,173975,1,8,0:0:0:0:
256,192,174168,1,8,0:0:0:0:
256,192,174360,1,0,0:0:0:0:
256,192,174552,1,0,0:0:0:0:
256,192,174745,1,0,0:0:0:0:
256,192,174841,1,0,0:0:0:0:
256,192,174937,1,0,0:0:0:0:
256,192,175129,1,0,0:0:0:0:
256,192,175321,1,0,0:0:0:0:
256,192,175514,1,0,0:0:0:0:
256,192,175706,1,8,0:0:0:0:
256,192,175898,1,0,0:0:0:0:
256,192,176091,1,0,0:0:0:0:
256,192,176283,1,0,0:0:0:0:
256,192,176475,1,8,0:0:0:0:
256,192,176668,1,0,0:0:0:0:
256,192,177052,1,8,0:0:0:0:
256,192,177245,1,8,0:0:0:0:
256,192,177437,1,0,0:0:0:0:
256,192,177629,1,4,0:0:0:0:
256,192,178206,1,0,0:0:0:0:
256,192,178398,1,12,0:0:0:0:
256,192,179360,1,12,0:0:0:0:
256,192,179552,1,12,0:0:0:0:
256,192,179745,1,4,0:0:0:0:
256,192,179937,1,12,0:0:0:0:
256,192,180321,1,4,0:0:0:0:
256,192,180706,1,0,0:0:0:0:
256,192,180898,1,0,0:0:0:0:
256,192,180995,1,0,0:0:0:0:
256,192,181091,1,8,0:0:0:0:
256,192,181283,1,0,0:0:0:0:
256,192,181475,1,0,0:0:0:0:
256,192,181668,1,0,0:0:0:0:
256,192,181860,1,8,0:0:0:0:
256,192,182052,1,0,0:0:0:0:
256,192,182245,1,0,0:0:0:0:
256,192,182437,1,0,0:0:0:0:
256,192,182533,1,0,0:0:0:0:
256,192,182629,1,8,0:0:0:0:
256,192,182821,1,0,0:0:0:0:
256,192,183014,1,0,0:0:0:0:
256,192,183206,1,0,0:0:0:0:
256,192,183398,1,8,0:0:0:0:
256,192,183591,1,0,0:0:0:0:
256,192,183783,1,0,0:0:0:0:
256,192,183975,1,0,0:0:0:0:
256,192,184071,1,0,0:0:0:0:
256,192,184168,1,8,0:0:0:0:
256,192,184360,1,0,0:0:0:0:
256,192,184552,1,0,0:0:0:0:
256,192,184745,1,0,0:0:0:0:
256,192,184937,1,8,0:0:0:0:
256,192,185129,1,0,0:0:0:0:
256,192,185321,1,0,0:0:0:0:
256,192,185514,1,0,0:0:0:0:
256,192,185706,1,8,0:0:0:0:
256,192,185898,1,0,0:0:0:0:
256,192,186091,1,8,0:0:0:0:
256,192,186283,1,0,0:0:0:0:
256,192,186475,1,8,0:0:0:0:
256,192,186668,1,8,0:0:0:0:
256,192,186860,1,0,0:0:0:0:
256,192,187052,1,0,0:0:0:0:
256,192,187148,1,0,0:0:0:0:
256,192,187245,1,8,0:0:0:0:
256,192,187437,1,0,0:0:0:0:
256,192,187629,1,0,0:0:0:0:
256,192,187821,1,0,0:0:0:0:
256,192,188014,1,8,0:0:0:0:
256,192,188206,1,0,0:0:0:0:
256,192,188398,1,0,0:0:0:0:
256,192,188591,1,0,0:0:0:0:
256,192,188687,1,0,0:0:0:0:
256,192,188783,1,8,0:0:0:0:
256,192,188975,1,0,0:0:0:0:
256,192,189168,1,0,0:0:0:0:
256,192,189360,1,0,0:0:0:0:
256,192,189552,1,8,0:0:0:0:
256,192,189745,1,0,0:0:0:0:
256,192,189937,1,0,0:0:0:0:
256,192,190129,1,0,0:0:0:0:
256,192,190225,1,0,0:0:0:0:
256,192,190321,1,8,0:0:0:0:
256,192,190514,1,0,0:0:0:0:
256,192,190706,1,0,0:0:0:0:
256,192,190898,1,0,0:0:0:0:
256,192,191091,1,8,0:0:0:0:
256,192,191283,1,0,0:0:0:0:
256,192,191475,1,0,0:0:0:0:
256,192,191668,1,8,0:0:0:0:
256,192,191860,1,8,0:0:0:0:
256,192,192052,1,0,0:0:0:0:
256,192,192245,1,0,0:0:0:0:
256,192,192437,1,0,0:0:0:0:
256,192,192629,1,8,0:0:0:0:
256,192,192821,1,0,0:0:0:0:
256,192,193014,1,0,0:0:0:0:
256,192,193206,1,0,0:0:0:0:
256,192,193302,1,0,0:0:0:0:
256,192,193398,1,8,0:0:0:0:
256,192,193591,1,0,0:0:0:0:
256,192,193975,1,0,0:0:0:0:
256,192,194168,1,8,0:0:0:0:
256,192,194552,1,0,0:0:0:0:
256,192,194745,1,0,0:0:0:0:
256,192,194841,1,0,0:0:0:0:
256,192,194937,1,8,0:0:0:0:
256,192,195129,1,0,0:0:0:0:
256,192,195514,1,0,0:0:0:0:
256,192,195706,1,8,0:0:0:0:
256,192,195898,1,0,0:0:0:0:
256,192,196091,1,8,0:0:0:0:
256,192,196283,1,0,0:0:0:0:
256,192,196475,1,8,0:0:0:0:
256,192,196668,1,0,0:0:0:0:
256,192,196860,1,8,0:0:0:0:
256,192,197052,1,0,0:0:0:0:
256,192,197245,1,8,0:0:0:0:
256,192,197437,1,0,0:0:0:0:
256,192,197629,1,0,0:0:0:0:
256,192,197725,1,0,0:0:0:0:
256,192,197821,1,8,0:0:0:0:
256,192,197918,1,8,0:0:0:0:
256,192,198014,1,0,0:0:0:0:
256,192,198110,1,0,0:0:0:0:
256,192,198206,1,8,0:0:0:0:
256,192,198302,1,8,0:0:0:0:
256,192,198398,1,0,0:0:0:0:
256,192,198495,1,0,0:0:0:0:
256,192,198591,1,0,0:0:0:0:
256,192,198687,1,0,0:0:0:0:
256,192,198783,1,0,0:0:0:0:
256,192,198879,1,0,0:0:0:0:
256,192,198975,1,8,0:0:0:0:
256,192,199071,1,8,0:0:0:0:
256,192,200321,1,4,0:0:0:0:
256,192,200706,1,0,0:0:0:0:
256,192,200898,1,0,0:0:0:0:
256,192,200995,1,0,0:0:0:0:
256,192,201091,1,8,0:0:0:0:
256,192,201283,1,0,0:0:0:0:
256,192,201475,1,0,0:0:0:0:
256,192,201668,1,8,0:0:0:0:
256,192,201860,1,8,0:0:0:0:
256,192,202052,1,0,0:0:0:0:
256,192,202245,1,0,0:0:0:0:
256,192,202437,1,0,0:0:0:0:
256,192,202533,1,0,0:0:0:0:
256,192,202629,1,8,0:0:0:0:
256,192,202821,1,0,0:0:0:0:
256,192,203206,1,8,0:0:0:0:
256,192,203398,1,8,0:0:0:0:
256,192,203591,1,0,0:0:0:0:
256,192,203783,1,0,0:0:0:0:
256,192,203975,1,8,0:0:0:0:
256,192,204071,1,8,0:0:0:0:
256,192,204168,1,8,0:0:0:0:
256,192,204360,1,0,0:0:0:0:
256,192,204552,1,0,0:0:0:0:
256,192,204745,1,0,0:0:0:0:
256,192,204937,1,8,0:0:0:0:
256,192,205129,1,0,0:0:0:0:
256,192,205321,1,0,0:0:0:0:
256,192,205514,1,0,0:0:0:0:
256,192,205706,1,8,0:0:0:0:
256,192,205898,1,0,0:0:0:0:
256,192,206283,1,8,0:0:0:0:
256,192,206475,1,8,0:0:0:0:
256,192,206668,1,0,0:0:0:0:
256,192,206860,1,8,0:0:0:0:
256,192,207052,1,0,0:0:0:0:
256,192,207148,1,0,0:0:0:0:
256,192,207245,1,0,0:0:0:0:
256,192,207437,1,0,0:0:0:0:
256,192,207629,1,0,0:0:0:0:
256,192,207821,1,0,0:0:0:0:
256,192,208014,1,8,0:0:0:0:
256,192,208206,1,0,0:0:0:0:
256,192,208398,1,0,0:0:0:0:
256,192,208591,1,0,0:0:0:0:
256,192,208783,1,8,0:0:0:0:
256,192,208975,1,0,0:0:0:0:
256,192,209360,1,8,0:0:0:0:
256,192,209552,1,8,0:0:0:0:
256,192,209745,1,0,0:0:0:0:
256,192,209937,1,0,0:0:0:0:
256,192,210129,1,8,0:0:0:0:
256,192,210225,1,0,0:0:0:0:
256,192,210321,1,8,0:0:0:0:
256,192,210514,1,0,0:0:0:0:
256,192,210706,1,0,0:0:0:0:
256,192,210898,1,0,0:0:0:0:
256,192,211091,1,8,0:0:0:0:
256,192,211283,1,0,0:0:0:0:
256,192,211475,1,0,0:0:0:0:
256,192,211668,1,8,0:0:0:0:
256,192,211860,1,0,0:0:0:0:
256,192,212052,1,8,0:0:0:0:
256,192,212245,1,0,0:0:0:0:
256,192,212341,1,0,0:0:0:0:
256,192,212437,1,0,0:0:0:0:
256,192,212533,1,0,0:0:0:0:
256,192,212629,1,8,0:0:0:0:
256,192,212725,1,8,0:0:0:0:
256,192,212821,1,8,0:0:0:0:
256,192,212918,1,8,0:0:0:0:
256,192,213014,1,0,0:0:0:0:
256,192,213206,1,0,0:0:0:0:
256,192,213302,1,0,0:0:0:0:
256,192,213398,1,8,0:0:0:0:
256,192,213591,1,0,0:0:0:0:
256,192,213783,1,0,0:0:0:0:
256,192,213975,1,8,0:0:0:0:
256,192,214168,1,8,0:0:0:0:
256,192,214360,1,0,0:0:0:0:
256,192,214552,1,0,0:0:0:0:
256,192,214745,1,0,0:0:0:0:
256,192,214841,1,0,0:0:0:0:
256,192,214937,1,8,0:0:0:0:
256,192,215129,1,0,0:0:0:0:
256,192,215514,1,8,0:0:0:0:
256,192,215706,1,8,0:0:0:0:
256,192,215898,1,0,0:0:0:0:
256,192,216091,1,0,0:0:0:0:
256,192,216283,1,8,0:0:0:0:
256,192,216379,1,0,0:0:0:0:
256,192,216475,1,8,0:0:0:0:
256,192,216668,1,0,0:0:0:0:
256,192,216860,1,0,0:0:0:0:
256,192,217052,1,0,0:0:0:0:
256,192,217245,1,8,0:0:0:0:
256,192,217437,1,0,0:0:0:0:
256,192,217629,1,0,0:0:0:0:
256,192,217821,1,8,0:0:0:0:
256,192,217918,1,8,0:0:0:0:
256,192,218014,1,8,0:0:0:0:
256,192,218206,1,0,0:0:0:0:
256,192,218591,1,8,0:0:0:0:
256,192,218783,1,8,0:0:0:0:
256,192,218975,1,0,0:0:0:0:
256,192,219168,1,0,0:0:0:0:
256,192,219360,1,0,0:0:0:0:
256,192,219456,1,0,0:0:0:0:
256,192,219552,1,0,0:0:0:0:
256,192,219745,1,0,0:0:0:0:
256,192,219937,1,0,0:0:0:0:
256,192,220129,1,0,0:0:0:0:
256,192,220321,1,8,0:0:0:0:
256,192,220514,1,0,0:0:0:0:
256,192,220706,1,0,0:0:0:0:
256,192,220898,1,0,0:0:0:0:
256,192,221091,1,8,0:0:0:0:
256,192,221283,1,0,0:0:0:0:
256,192,221668,1,8,0:0:0:0:
256,192,221860,1,8,0:0:0:0:
256,192,222052,1,0,0:0:0:0:
256,192,222245,1,4,0:0:0:0:
256,192,222629,1,0,0:0:0:0:
256,192,223014,1,12,0:0:0:0:
256,192,223398,1,0,0:0:0:0:
256,192,223783,1,12,0:0:0:0:
256,192,223975,1,0,0:0:0:0:
256,192,224168,1,12,0:0:0:0:
256,192,224360,1,0,0:0:0:0:
256,192,224552,1,12,0:0:0:0:
256,192,224745,1,0,0:0:0:0:
256,192,224937,1,12,0:0:0:0:
256,192,225129,1,0,0:0:0:0:
256,192,225321,1,0,0:0:0:0:
256,192,225514,1,0,0:0:0:0:
256,192,225610,1,0,0:0:0:0:
256,192,225706,1,8,0:0:0:0:
256,192,225898,1,0,0:0:0:0:
256,192,226091,1,0,0:0:0:0:
256,192,226283,1,8,0:0:0:0:
256,192,226475,1,8,0:0:0:0:
256,192,226668,1,0,0:0:0:0:
256,192,226860,1,0,0:0:0:0:
256,192,227052,1,0,0:0:0:0:
256,192,227245,1,8,0:0:0:0:
256,192,227437,1,0,0:0:0:0:
256,192,227629,1,0,0:0:0:0:
256,192,227821,1,8,0:0:0:0:
256,192,228014,1,8,0:0:0:0:
256,192,228206,1,0,0:0:0:0:
256,192,228398,1,0,0:0:0:0:
256,192,228591,1,8,0:0:0:0:
256,192,228687,1,8,0:0:0:0:
256,192,228783,1,8,0:0:0:0:
256,192,228975,1,0,0:0:0:0:
256,192,229168,1,0,0:0:0:0:
256,192,229360,1,8,0:0:0:0:
256,192,229552,1,8,0:0:0:0:
256,192,229745,1,0,0:0:0:0:
256,192,229937,1,0,0:0:0:0:
256,192,230129,1,0,0:0:0:0:
256,192,230321,1,8,0:0:0:0:
256,192,230514,1,0,0:0:0:0:
256,192,230706,1,0,0:0:0:0:
256,192,230898,1,8,0:0:0:0:
256,192,231091,1,8,0:0:0:0:
256,192,231283,1,8,0:0:0:0:
256,192,231475,1,0,0:0:0:0:
256,192,231668,1,0,0:0:0:0:
256,192,231764,1,0,0:0:0:0:
256,192,231860,1,8,0:0:0:0:
256,192,232052,1,0,0:0:0:0:
256,192,232245,1,0,0:0:0:0:
256,192,232437,1,0,0:0:0:0:
256,192,232629,1,8,0:0:0:0:
256,192,232821,1,0,0:0:0:0:
256,192,233014,1,0,0:0:0:0:
256,192,233206,1,0,0:0:0:0:
256,192,233398,1,8,0:0:0:0:
256,192,233591,1,0,0:0:0:0:
256,192,233783,1,0,0:0:0:0:
256,192,233975,1,8,0:0:0:0:
256,192,234168,1,8,0:0:0:0:
256,192,234360,1,8,0:0:0:0:
256,192,234552,1,0,0:0:0:0:
256,192,234745,1,0,0:0:0:0:
256,192,234841,1,0,0:0:0:0:
256,192,234937,1,8,0:0:0:0:
256,192,235129,1,0,0:0:0:0:
256,192,235321,1,8,0:0:0:0:
256,192,235514,1,8,0:0:0:0:
256,192,235706,1,0,0:0:0:0:
256,192,235898,1,0,0:0:0:0:
256,192,236091,1,0,0:0:0:0:
256,192,236283,1,8,0:0:0:0:
256,192,236475,1,0,0:0:0:0:
256,192,236668,1,8,0:0:0:0:
256,192,236860,1,0,0:0:0:0:
256,192,236956,1,0,0:0:0:0:
256,192,237052,1,8,0:0:0:0:
256,192,237148,1,0,0:0:0:0:
256,192,237245,1,8,0:0:0:0:
256,192,237341,1,0,0:0:0:0:
256,192,237437,1,0,0:0:0:0:
256,192,237533,1,8,0:0:0:0:
256,192,237629,1,8,0:0:0:0:
256,192,237821,1,0,0:0:0:0:
256,192,237918,1,0,0:0:0:0:
256,192,238014,1,8,0:0:0:0:
256,192,238206,1,0,0:0:0:0:
256,192,238398,1,0,0:0:0:0:
256,192,238591,1,8,0:0:0:0:
256,192,238783,1,8,0:0:0:0:
256,192,238975,1,0,0:0:0:0:
256,192,239168,1,0,0:0:0:0:
256,192,239360,1,0,0:0:0:0:
256,192,239552,1,8,0:0:0:0:
256,192,239745,1,0,0:0:0:0:
256,192,239937,1,0,0:0:0:0:
256,192,240129,1,8,0:0:0:0:
256,192,240321,1,8,0:0:0:0:
256,192,240514,1,0,0:0:0:0:
256,192,240706,1,8,0:0:0:0:
256,192,240898,1,0,0:0:0:0:
256,192,240995,1,0,0:0:0:0:
256,192,241091,1,8,0:0:0:0:
256,192,241283,1,0,0:0:0:0:
256,192,241475,1,0,0:0:0:0:
256,192,241668,1,0,0:0:0:0:
256,192,241860,1,8,0:0:0:0:
256,192,242052,1,0,0:0:0:0:
256,192,242245,1,0,0:0:0:0:
256,192,242437,1,0,0:0:0:0:
256,192,242629,1,8,0:0:0:0:
256,192,242821,1,0,0:0:0:0:
256,192,243014,1,0,0:0:0:0:
256,192,243206,1,8,0:0:0:0:
256,192,243398,1,8,0:0:0:0:
256,192,243591,1,8,0:0:0:0:
256,192,243783,1,0,0:0:0:0:
256,192,243975,1,0,0:0:0:0:
256,192,244071,1,0,0:0:0:0:
256,192,244168,1,8,0:0:0:0:
256,192,244360,1,0,0:0:0:0:
256,192,244552,1,8,0:0:0:0:
256,192,244745,1,8,0:0:0:0:
256,192,244937,1,0,0:0:0:0:
256,192,245129,1,0,0:0:0:0:
256,192,245321,1,8,0:0:0:0:
256,192,245514,1,0,0:0:0:0:
256,192,245706,1,0,0:0:0:0:
256,192,245898,1,8,0:0:0:0:
256,192,246091,1,0,0:0:0:0:
256,192,246283,1,8,0:0:0:0:
256,192,246475,1,8,0:0:0:0:
256,192,246668,1,0,0:0:0:0:
256,192,246860,1,4,0:0:0:0:
256,192,247437,1,0,0:0:0:0:
256,192,247629,1,12,0:0:0:0:
256,192,248591,1,12,0:0:0:0:
256,192,248783,1,12,0:0:0:0:
256,192,248975,1,4,0:0:0:0:
256,192,249168,1,12,0:0:0:0:
256,192,249552,1,4,0:0:0:0:
256,192,249745,1,8,0:0:0:0:
256,192,249841,1,0,0:0:0:0:
256,192,249937,1,8,0:0:0:0:
256,192,250129,1,0,0:0:0:0:
256,192,250321,1,8,0:0:0:0:
256,192,250706,1,8,0:0:0:0:
256,192,251091,1,0,0:0:0:0:
256,192,251283,1,8,0:0:0:0:
256,192,251379,1,0,0:0:0:0:
256,192,251475,1,8,0:0:0:0:
256,192,251668,1,0,0:0:0:0:
256,192,251860,1,8,0:0:0:0:
256,192,252245,1,8,0:0:0:0:
256,192,252437,1,8,0:0:0:0:
256,192,252629,1,0,0:0:0:0:
256,192,252821,1,8,0:0:0:0:
256,192,252918,1,0,0:0:0:0:
256,192,253014,1,8,0:0:0:0:
256,192,253206,1,0,0:0:0:0:
256,192,253398,1,8,0:0:0:0:
256,192,253783,1,8,0:0:0:0:
256,192,254168,1,8,0:0:0:0:
256,192,254360,1,0,0:0:0:0:
256,192,254456,1,8,0:0:0:0:
256,192,254552,1,0,0:0:0:0:
256,192,254745,1,0,0:0:0:0:
256,192,254937,1,8,0:0:0:0:
256,192,255129,1,0,0:0:0:0:
256,192,255321,1,8,0:0:0:0:
256,192,255514,1,0,0:0:0:0:
256,192,255706,1,0,0:0:0:0:
256,192,255898,1,8,0:0:0:0:
256,192,255995,1,0,0:0:0:0:
256,192,256091,1,8,0:0:0:0:
256,192,256283,1,0,0:0:0:0:
256,192,256475,1,8,0:0:0:0:
256,192,256668,1,0,0:0:0:0:
256,192,256860,1,8,0:0:0:0:
256,192,257245,1,8,0:0:0:0:
256,192,257437,1,8,0:0:0:0:
256,192,257533,1,0,0:0:0:0:
256,192,257629,1,0,0:0:0:0:
256,192,257821,1,0,0:0:0:0:
256,192,258014,1,8,0:0:0:0:
256,192,258398,1,0,0:0:0:0:
256,192,258591,1,0,0:0:0:0:
256,192,258783,1,8,0:0:0:0:
256,192,258975,1,0,0:0:0:0:
256,192,259168,1,4,0:0:0:0:
256,192,259552,1,4,0:0:0:0:
256,192,259937,1,0,0:0:0:0:
256,192,260129,1,8,0:0:0:0:
256,192,260321,1,0,0:0:0:0:
256,192,260514,1,12,0:0:0:0:
256,192,260898,1,0,0:0:0:0:
256,192,261091,1,12,0:0:0:0:
256,192,261860,1,4,0:0:0:0:
256,192,262052,1,0,0:0:0:0:
256,192,262245,1,12,0:0:0:0:
256,192,262437,1,0,0:0:0:0:
256,192,262629,1,0,0:0:0:0:
256,192,262821,1,12,0:0:0:0:
256,192,263014,1,0,0:0:0:0:
256,192,263206,1,0,0:0:0:0:
256,192,263398,1,8,0:0:0:0:
256,192,263591,12,0,264937,0:0:0:0:
256,192,265321,12,0,271475,0:0:0:0:
