osu file format v14

[General]
AudioFilename: audio.mp3
AudioLeadIn: 0
PreviewTime: 199745
Countdown: 0
SampleSet: Normal
StackLeniency: 0.7
Mode: 1
LetterboxInBreaks: 0
WidescreenStoryboard: 0

[Editor]
Bookmarks: 156041,200656
DistanceSpacing: 2.2
BeatDivisor: 4
GridSize: 4
TimelineZoom: 1.4

[Metadata]
Title:Caffeine Fighter
TitleUnicode:カフェインファイター
Artist:Syaro(CV.Uchida Maaya)
ArtistUnicode:シャロ(CV.内田真礼)
Creator:desireofpainx
Version:Futsuu
Source:ご注文はうさぎですか?
Tags:Is the order a rabbit? GochiUsa kirima Gochuumon wa Usagi Desu ka? anime j-pop
BeatmapID:1175518
BeatmapSetID:555405

[Difficulty]
HPDrainRate:6
CircleSize:2
OverallDifficulty:4
ApproachRate:2
SliderMultiplier:1.29559960493089
SliderTickRate:1

[Events]
//Background and Video events
0,0,"syaro_background.png",0,120
//Break Periods
2,103783,114531
2,180706,185300
//Storyboard Layer 0 (Background)
//Storyboard Layer 1 (Fail)
//Storyboard Layer 2 (Pass)
//Storyboard Layer 3 (Foreground)
//Storyboard Sound Samples

[TimingPoints]
2245,384.615384615385,4,1,0,100,1,0
79168,-90.9090909090909,4,1,0,100,0,1
91379,-90.9090909090909,4,1,0,100,0,0
91475,-90.9090909090909,4,1,0,100,0,1
103783,-100,4,1,0,100,0,0
156091,-90.9090909090909,4,1,0,100,0,1
168302,-90.9090909090909,4,1,0,100,0,0
168398,-90.9090909090909,4,1,0,100,0,1
180706,-133.333333333333,4,1,0,100,0,0
200706,-90.9090909090909,4,1,0,100,0,1
212918,-90.9090909090909,4,1,0,100,0,0
213014,-90.9090909090909,4,1,0,100,0,1
224552,-90.9090909090909,4,1,0,100,0,0
225321,-86.9565217391304,4,1,0,100,0,1
237533,-86.9565217391304,4,1,0,100,0,0
237629,-86.9565217391304,4,1,0,100,0,1
249937,-86.9565217391304,4,1,0,100,0,0

[HitObjects]
256,192,2245,5,0,0:0:0:0:
256,192,2629,1,8,0:0:0:0:
256,192,3398,1,8,0:0:0:0:
256,192,4168,1,8,0:0:0:0:
256,192,4937,1,8,0:0:0:0:
256,192,5321,1,0,0:0:0:0:
256,192,5706,1,8,0:0:0:0:
256,192,6475,1,8,0:0:0:0:
256,192,7245,1,8,0:0:0:0:
256,192,8014,1,8,0:0:0:0:
256,192,8398,1,0,0:0:0:0:
256,192,8975,1,8,0:0:0:0:
256,192,9552,1,8,0:0:0:0:
256,192,9937,1,0,0:0:0:0:
256,192,10514,1,8,0:0:0:0:
256,192,11091,1,8,0:0:0:0:
256,192,11475,1,4,0:0:0:0:
256,192,12245,1,12,0:0:0:0:
256,192,13206,1,12,0:0:0:0:
256,192,13783,1,12,0:0:0:0:
256,192,14168,1,12,0:0:0:0:
256,192,14552,1,0,0:0:0:0:
256,192,14937,1,0,0:0:0:0:
256,192,15321,1,0,0:0:0:0:
256,192,15898,1,8,0:0:0:0:
256,192,16475,1,0,0:0:0:0:
256,192,16860,1,8,0:0:0:0:
256,192,17437,1,8,0:0:0:0:
256,192,18014,1,8,0:0:0:0:
256,192,18398,1,0,0:0:0:0:
256,192,18975,1,8,0:0:0:0:
256,192,19552,1,8,0:0:0:0:
256,192,19937,1,0,0:0:0:0:
256,192,20514,1,0,0:0:0:0:
256,192,20706,1,0,0:0:0:0:
256,192,21091,1,8,0:0:0:0:
256,192,21475,1,0,0:0:0:0:
256,192,22052,1,8,0:0:0:0:
256,192,22245,1,0,0:0:0:0:
256,192,22629,1,8,0:0:0:0:
256,192,23014,1,0,0:0:0:0:
256,192,23783,1,4,0:0:0:0:
256,192,24168,1,4,0:0:0:0:
256,192,24552,1,0,0:0:0:0:
256,192,24745,1,8,0:0:0:0:
256,192,24937,1,0,0:0:0:0:
256,192,25129,1,12,0:0:0:0:
256,192,25514,1,0,0:0:0:0:
256,192,25706,1,8,0:0:0:0:
256,192,26475,1,4,0:0:0:0:
256,192,26860,1,0,0:0:0:0:
256,192,27052,1,8,0:0:0:0:
256,192,27437,1,0,0:0:0:0:
256,192,27629,1,0,0:0:0:0:
256,192,28014,1,8,0:0:0:0:
256,192,28398,1,0,0:0:0:0:
256,192,28783,1,0,0:0:0:0:
256,192,28975,1,8,0:0:0:0:
256,192,29360,1,8,0:0:0:0:
256,192,29552,1,0,0:0:0:0:
256,192,29937,1,0,0:0:0:0:
256,192,30321,1,8,0:0:0:0:
256,192,30706,1,0,0:0:0:0:
256,192,31091,1,8,0:0:0:0:
256,192,31283,1,0,0:0:0:0:
256,192,31475,1,8,0:0:0:0:
256,192,31860,1,0,0:0:0:0:
256,192,32052,1,8,0:0:0:0:
256,192,32629,1,8,0:0:0:0:
256,192,33014,1,8,0:0:0:0:
256,192,33398,1,0,0:0:0:0:
256,192,33591,1,8,0:0:0:0:
256,192,34168,1,8,0:0:0:0:
256,192,34552,1,8,0:0:0:0:
256,192,34937,1,0,0:0:0:0:
256,192,35129,1,8,0:0:0:0:
256,192,35706,1,8,0:0:0:0:
256,192,36091,1,0,0:0:0:0:
256,192,36475,1,0,0:0:0:0:
256,192,36860,1,8,0:0:0:0:
256,192,37245,1,0,0:0:0:0:
256,192,37629,1,8,0:0:0:0:
256,192,38014,1,0,0:0:0:0:
256,192,38206,1,8,0:0:0:0:
256,192,38591,1,8,0:0:0:0:
256,192,38783,1,0,0:0:0:0:
256,192,39168,1,0,0:0:0:0:
256,192,39552,1,8,0:0:0:0:
256,192,39937,1,0,0:0:0:0:
256,192,40321,1,8,0:0:0:0:
256,192,40514,1,0,0:0:0:0:
256,192,40706,1,8,0:0:0:0:
256,192,41091,1,0,0:0:0:0:
256,192,41283,1,8,0:0:0:0:
256,192,41668,1,0,0:0:0:0:
256,192,41860,1,8,0:0:0:0:
256,192,42052,1,0,0:0:0:0:
256,192,42437,1,0,0:0:0:0:
256,192,42629,1,8,0:0:0:0:
256,192,43014,1,0,0:0:0:0:
256,192,43398,1,8,0:0:0:0:
256,192,43591,1,0,0:0:0:0:
256,192,43783,1,0,0:0:0:0:
256,192,44168,1,8,0:0:0:0:
256,192,44360,1,0,0:0:0:0:
256,192,44745,1,8,0:0:0:0:
256,192,44937,1,0,0:0:0:0:
256,192,45321,1,8,0:0:0:0:
256,192,45706,1,0,0:0:0:0:
256,192,45898,1,8,0:0:0:0:
256,192,46283,1,0,0:0:0:0:
256,192,46475,1,8,0:0:0:0:
256,192,46860,1,8,0:0:0:0:
256,192,47245,1,8,0:0:0:0:
256,192,47437,1,0,0:0:0:0:
256,192,47821,1,8,0:0:0:0:
256,192,48014,1,0,0:0:0:0:
256,192,48398,1,8,0:0:0:0:
256,192,48783,1,8,0:0:0:0:
256,192,49168,1,8,0:0:0:0:
256,192,49552,1,0,0:0:0:0:
256,192,49745,1,8,0:0:0:0:
256,192,50129,1,8,0:0:0:0:
256,192,50514,1,0,0:0:0:0:
256,192,50706,1,8,0:0:0:0:
256,192,51091,1,0,0:0:0:0:
256,192,51475,1,0,0:0:0:0:
256,192,52245,1,8,0:0:0:0:
256,192,52821,1,0,0:0:0:0:
256,192,53206,1,0,0:0:0:0:
256,192,53591,1,0,0:0:0:0:
256,192,54168,1,8,0:0:0:0:
256,192,54552,1,0,0:0:0:0:
256,192,55321,1,8,0:0:0:0:
256,192,55898,1,0,0:0:0:0:
256,192,56283,1,0,0:0:0:0:
256,192,56668,1,0,0:0:0:0:
256,192,57245,1,8,0:0:0:0:
256,192,57629,1,0,0:0:0:0:
256,192,58399,1,8,0:0:0:0:
256,192,58975,1,0,0:0:0:0:
256,192,59360,1,0,0:0:0:0:
256,192,59745,1,0,0:0:0:0:
256,192,60322,1,8,0:0:0:0:
256,192,60706,1,0,0:0:0:0:
256,192,61475,1,8,0:0:0:0:
256,192,62052,1,0,0:0:0:0:
256,192,62437,1,0,0:0:0:0:
256,192,62821,1,0,0:0:0:0:
256,192,63398,1,8,0:0:0:0:
256,192,63783,1,0,0:0:0:0:
256,192,64553,1,8,0:0:0:0:
256,192,65129,1,0,0:0:0:0:
256,192,65514,1,0,0:0:0:0:
256,192,65898,1,0,0:0:0:0:
256,192,66475,1,8,0:0:0:0:
256,192,66860,1,0,0:0:0:0:
256,192,67629,1,8,0:0:0:0:
256,192,68206,1,0,0:0:0:0:
256,192,68591,1,0,0:0:0:0:
256,192,68975,1,0,0:0:0:0:
256,192,69552,1,8,0:0:0:0:
256,192,69937,1,0,0:0:0:0:
256,192,70321,1,0,0:0:0:0:
256,192,70706,1,0,0:0:0:0:
256,192,71091,1,8,0:0:0:0:
256,192,71475,1,0,0:0:0:0:
256,192,71860,1,0,0:0:0:0:
256,192,72245,1,0,0:0:0:0:
256,192,72437,1,8,0:0:0:0:
256,192,72629,1,0,0:0:0:0:
256,192,73014,1,8,0:0:0:0:
256,192,73398,1,8,0:0:0:0:
256,192,73783,1,8,0:0:0:0:
256,192,74168,1,8,0:0:0:0:
256,192,74360,1,0,0:0:0:0:
256,192,74552,1,8,0:0:0:0:
256,192,74937,1,8,0:0:0:0:
256,192,75321,1,8,0:0:0:0:
256,192,75706,1,8,0:0:0:0:
256,192,75898,1,0,0:0:0:0:
256,192,76091,1,8,0:0:0:0:
256,192,76475,1,8,0:0:0:0:
256,192,76860,1,8,0:0:0:0:
256,192,77245,1,8,0:0:0:0:
256,192,77629,1,12,0:0:0:0:
256,192,78014,1,4,0:0:0:0:
256,192,78206,1,12,0:0:0:0:
256,192,78783,1,4,0:0:0:0:
256,192,79168,1,0,0:0:0:0:
256,192,79552,1,8,0:0:0:0:
256,192,79937,1,0,0:0:0:0:
256,192,80129,1,8,0:0:0:0:
256,192,80321,1,8,0:0:0:0:
256,192,80706,1,0,0:0:0:0:
256,192,81091,1,8,0:0:0:0:
256,192,81283,1,0,0:0:0:0:
256,192,81668,1,8,0:0:0:0:
256,192,81860,1,8,0:0:0:0:
256,192,82245,1,0,0:0:0:0:
256,192,82629,1,8,0:0:0:0:
256,192,83014,1,0,0:0:0:0:
256,192,83398,1,8,0:0:0:0:
256,192,83591,1,0,0:0:0:0:
256,192,83975,1,0,0:0:0:0:
256,192,84168,1,8,0:0:0:0:
256,192,84360,1,0,0:0:0:0:
256,192,84745,1,8,0:0:0:0:
256,192,84937,1,8,0:0:0:0:
256,192,85321,1,0,0:0:0:0:
256,192,85514,1,0,0:0:0:0:
256,192,85707,1,8,0:0:0:0:
256,192,86090,1,0,0:0:0:0:
256,192,86475,1,0,0:0:0:0:
256,192,86668,1,8,0:0:0:0:
256,192,87052,1,8,0:0:0:0:
256,192,87244,1,0,0:0:0:0:
256,192,87436,1,8,0:0:0:0:
256,192,87821,1,8,0:0:0:0:
256,192,88013,1,8,0:0:0:0:
256,192,88398,1,0,0:0:0:0:
256,192,88782,1,8,0:0:0:0:
256,192,89167,1,0,0:0:0:0:
256,192,89360,1,8,0:0:0:0:
256,192,89552,1,0,0:0:0:0:
256,192,89745,1,0,0:0:0:0:
256,192,90129,1,0,0:0:0:0:
256,192,90321,1,8,0:0:0:0:
256,192,90513,1,0,0:0:0:0:
256,192,90898,1,8,0:0:0:0:
256,192,91090,1,8,0:0:0:0:
256,192,91283,1,0,0:0:0:0:
256,192,91475,1,0,0:0:0:0:
256,192,91859,1,8,0:0:0:0:
256,192,92244,1,0,0:0:0:0:
256,192,92436,1,8,0:0:0:0:
256,192,92628,1,8,0:0:0:0:
256,192,93013,1,0,0:0:0:0:
256,192,93398,1,8,0:0:0:0:
256,192,93590,1,0,0:0:0:0:
256,192,93975,1,8,0:0:0:0:
256,192,94167,1,8,0:0:0:0:
256,192,94552,1,0,0:0:0:0:
256,192,94936,1,8,0:0:0:0:
256,192,95321,1,0,0:0:0:0:
256,192,95705,1,8,0:0:0:0:
256,192,95898,1,0,0:0:0:0:
256,192,96282,1,0,0:0:0:0:
256,192,96475,1,8,0:0:0:0:
256,192,96667,1,0,0:0:0:0:
256,192,97052,1,8,0:0:0:0:
256,192,97244,1,8,0:0:0:0:
256,192,97628,1,0,0:0:0:0:
256,192,97821,1,0,0:0:0:0:
256,192,98013,1,8,0:0:0:0:
256,192,98397,1,0,0:0:0:0:
256,192,98783,1,0,0:0:0:0:
256,192,98975,1,8,0:0:0:0:
256,192,99359,1,8,0:0:0:0:
256,192,99551,1,0,0:0:0:0:
256,192,99745,1,8,0:0:0:0:
256,192,100128,1,8,0:0:0:0:
256,192,100320,1,8,0:0:0:0:
256,192,100706,1,4,0:0:0:0:
256,192,101475,1,4,0:0:0:0:
256,192,102437,1,12,0:0:0:0:
256,192,102821,1,4,0:0:0:0:
256,192,103014,1,12,0:0:0:0:
256,192,103398,1,4,0:0:0:0:
256,192,116091,5,0,0:0:0:0:
256,192,116475,1,0,0:0:0:0:
256,192,116860,1,8,0:0:0:0:
256,192,117245,1,8,0:0:0:0:
256,192,117437,1,0,0:0:0:0:
256,192,117628,1,8,0:0:0:0:
256,192,118013,1,0,0:0:0:0:
256,192,118205,1,8,0:0:0:0:
256,192,118591,1,8,0:0:0:0:
256,192,118782,1,0,0:0:0:0:
256,192,119167,1,0,0:0:0:0:
256,192,119551,1,0,0:0:0:0:
256,192,119936,1,8,0:0:0:0:
256,192,120321,1,0,0:0:0:0:
256,192,120705,1,8,0:0:0:0:
256,192,121090,1,0,0:0:0:0:
256,192,121282,1,8,0:0:0:0:
256,192,121668,1,8,0:0:0:0:
256,192,121859,1,8,0:0:0:0:
256,192,122244,1,8,0:0:0:0:
256,192,122628,1,8,0:0:0:0:
256,192,122821,1,0,0:0:0:0:
256,192,123206,1,0,0:0:0:0:
256,192,123398,1,8,0:0:0:0:
256,192,123782,1,8,0:0:0:0:
256,192,124167,1,8,0:0:0:0:
256,192,124359,1,0,0:0:0:0:
256,192,124745,1,0,0:0:0:0:
256,192,124936,1,8,0:0:0:0:
256,192,125321,1,0,0:0:0:0:
256,192,125706,1,0,0:0:0:0:
256,192,126090,1,8,0:0:0:0:
256,192,126475,1,0,0:0:0:0:
256,192,126668,1,8,0:0:0:0:
256,192,127052,1,8,0:0:0:0:
256,192,127437,1,0,0:0:0:0:
256,192,127629,1,8,0:0:0:0:
256,192,128014,1,0,0:0:0:0:
256,192,128398,1,8,0:0:0:0:
256,192,128975,1,0,0:0:0:0:
256,192,129168,1,8,0:0:0:0:
256,192,129745,1,0,0:0:0:0:
256,192,130129,1,0,0:0:0:0:
256,192,130514,1,0,0:0:0:0:
256,192,130706,1,8,0:0:0:0:
256,192,131091,1,0,0:0:0:0:
256,192,131475,1,8,0:0:0:0:
256,192,132052,1,0,0:0:0:0:
256,192,132245,1,8,0:0:0:0:
256,192,132821,1,0,0:0:0:0:
256,192,133206,1,0,0:0:0:0:
256,192,133591,1,0,0:0:0:0:
256,192,133783,1,8,0:0:0:0:
256,192,134168,1,0,0:0:0:0:
256,192,134552,1,8,0:0:0:0:
256,192,135129,1,0,0:0:0:0:
256,192,135321,1,8,0:0:0:0:
256,192,135898,1,0,0:0:0:0:
256,192,136283,1,0,0:0:0:0:
256,192,136668,1,0,0:0:0:0:
256,192,136860,1,8,0:0:0:0:
256,192,137245,1,0,0:0:0:0:
256,192,137629,1,8,0:0:0:0:
256,192,138206,1,0,0:0:0:0:
256,192,138398,1,8,0:0:0:0:
256,192,138975,1,0,0:0:0:0:
256,192,139360,1,0,0:0:0:0:
256,192,139745,1,0,0:0:0:0:
256,192,139937,1,8,0:0:0:0:
256,192,140321,1,0,0:0:0:0:
256,192,140706,1,8,0:0:0:0:
256,192,141283,1,0,0:0:0:0:
256,192,141475,1,8,0:0:0:0:
256,192,142052,1,0,0:0:0:0:
256,192,142437,1,0,0:0:0:0:
256,192,142821,1,0,0:0:0:0:
256,192,143014,1,8,0:0:0:0:
256,192,143398,1,0,0:0:0:0:
256,192,143783,1,8,0:0:0:0:
256,192,144360,1,0,0:0:0:0:
256,192,144552,1,8,0:0:0:0:
256,192,145129,1,0,0:0:0:0:
256,192,145514,1,0,0:0:0:0:
256,192,145898,1,0,0:0:0:0:
256,192,146091,1,8,0:0:0:0:
256,192,146475,1,0,0:0:0:0:
256,192,146860,1,0,0:0:0:0:
256,192,147245,1,0,0:0:0:0:
256,192,147629,1,0,0:0:0:0:
256,192,148014,1,8,0:0:0:0:
256,192,148398,1,0,0:0:0:0:
256,192,148783,1,0,0:0:0:0:
256,192,149168,1,0,0:0:0:0:
256,192,149552,1,8,0:0:0:0:
256,192,149937,1,8,0:0:0:0:
256,192,150321,1,0,0:0:0:0:
256,192,150706,1,8,0:0:0:0:
256,192,151091,1,0,0:0:0:0:
256,192,151475,1,8,0:0:0:0:
256,192,151860,1,0,0:0:0:0:
256,192,152245,1,8,0:0:0:0:
256,192,152629,1,0,0:0:0:0:
256,192,153014,1,8,0:0:0:0:
256,192,153398,1,8,0:0:0:0:
256,192,153783,1,8,0:0:0:0:
256,192,154168,1,8,0:0:0:0:
256,192,154552,1,12,0:0:0:0:
256,192,154937,1,4,0:0:0:0:
256,192,155129,1,12,0:0:0:0:
256,192,155706,1,4,0:0:0:0:
256,192,156091,1,0,0:0:0:0:
256,192,156475,1,8,0:0:0:0:
256,192,156860,1,0,0:0:0:0:
256,192,157052,1,8,0:0:0:0:
256,192,157244,1,8,0:0:0:0:
256,192,157629,1,0,0:0:0:0:
256,192,158014,1,8,0:0:0:0:
256,192,158206,1,0,0:0:0:0:
256,192,158591,1,8,0:0:0:0:
256,192,158783,1,8,0:0:0:0:
256,192,159168,1,0,0:0:0:0:
256,192,159552,1,8,0:0:0:0:
256,192,159937,1,0,0:0:0:0:
256,192,160321,1,8,0:0:0:0:
256,192,160514,1,0,0:0:0:0:
256,192,160898,1,0,0:0:0:0:
256,192,161091,1,8,0:0:0:0:
256,192,161283,1,0,0:0:0:0:
256,192,161668,1,8,0:0:0:0:
256,192,161860,1,8,0:0:0:0:
256,192,162244,1,0,0:0:0:0:
256,192,162437,1,0,0:0:0:0:
256,192,162629,1,8,0:0:0:0:
256,192,163013,1,0,0:0:0:0:
256,192,163397,1,0,0:0:0:0:
256,192,163591,1,8,0:0:0:0:
256,192,163975,1,8,0:0:0:0:
256,192,164167,1,0,0:0:0:0:
256,192,164359,1,8,0:0:0:0:
256,192,164744,1,8,0:0:0:0:
256,192,164936,1,8,0:0:0:0:
256,192,165321,1,0,0:0:0:0:
256,192,165705,1,8,0:0:0:0:
256,192,166090,1,0,0:0:0:0:
256,192,166283,1,8,0:0:0:0:
256,192,166475,1,0,0:0:0:0:
256,192,166668,1,0,0:0:0:0:
256,192,167052,1,0,0:0:0:0:
256,192,167244,1,8,0:0:0:0:
256,192,167436,1,0,0:0:0:0:
256,192,167821,1,8,0:0:0:0:
256,192,168013,1,8,0:0:0:0:
256,192,168206,1,0,0:0:0:0:
256,192,168398,1,0,0:0:0:0:
256,192,168782,1,8,0:0:0:0:
256,192,169167,1,0,0:0:0:0:
256,192,169359,1,8,0:0:0:0:
256,192,169551,1,8,0:0:0:0:
256,192,169936,1,0,0:0:0:0:
256,192,170321,1,8,0:0:0:0:
256,192,170513,1,0,0:0:0:0:
256,192,170898,1,8,0:0:0:0:
256,192,171090,1,8,0:0:0:0:
256,192,171475,1,0,0:0:0:0:
256,192,171859,1,8,0:0:0:0:
256,192,172244,1,0,0:0:0:0:
256,192,172628,1,8,0:0:0:0:
256,192,172821,1,0,0:0:0:0:
256,192,173205,1,0,0:0:0:0:
256,192,173398,1,8,0:0:0:0:
256,192,173590,1,0,0:0:0:0:
256,192,173975,1,8,0:0:0:0:
256,192,174167,1,8,0:0:0:0:
256,192,174551,1,0,0:0:0:0:
256,192,174744,1,0,0:0:0:0:
256,192,174936,1,8,0:0:0:0:
256,192,175320,1,0,0:0:0:0:
256,192,175706,1,0,0:0:0:0:
256,192,175898,1,8,0:0:0:0:
256,192,176282,1,8,0:0:0:0:
256,192,176474,1,0,0:0:0:0:
256,192,176668,1,8,0:0:0:0:
256,192,177051,1,8,0:0:0:0:
256,192,177245,1,8,0:0:0:0:
256,192,177629,1,4,0:0:0:0:
256,192,178398,1,4,0:0:0:0:
256,192,179360,1,12,0:0:0:0:
256,192,179744,1,4,0:0:0:0:
256,192,179937,1,12,0:0:0:0:
256,192,180321,1,4,0:0:0:0:
256,192,186860,5,0,0:0:0:0:
256,192,187245,1,8,0:0:0:0:
256,192,188014,1,8,0:0:0:0:
256,192,188398,1,0,0:0:0:0:
256,192,188783,1,8,0:0:0:0:
256,192,189552,1,8,0:0:0:0:
256,192,189937,1,0,0:0:0:0:
256,192,190321,1,8,0:0:0:0:
256,192,191091,1,8,0:0:0:0:
256,192,191475,1,0,0:0:0:0:
256,192,191860,1,8,0:0:0:0:
256,192,192629,1,8,0:0:0:0:
256,192,193014,1,0,0:0:0:0:
256,192,193398,1,8,0:0:0:0:
256,192,193591,1,0,0:0:0:0:
256,192,193975,1,0,0:0:0:0:
256,192,194168,1,8,0:0:0:0:
256,192,194552,1,0,0:0:0:0:
256,192,194937,1,8,0:0:0:0:
256,192,195129,1,0,0:0:0:0:
256,192,195514,1,0,0:0:0:0:
256,192,195706,1,8,0:0:0:0:
256,192,196091,1,8,0:0:0:0:
256,192,196475,1,8,0:0:0:0:
256,192,196860,1,8,0:0:0:0:
256,192,197245,1,8,0:0:0:0:
256,192,197629,1,0,0:0:0:0:
256,192,198014,1,8,0:0:0:0:
256,192,198398,1,0,0:0:0:0:
256,192,198591,1,0,0:0:0:0:
256,192,198783,1,8,0:0:0:0:
256,192,198975,1,8,0:0:0:0:
256,192,200321,1,12,0:0:0:0:
256,192,200706,1,0,0:0:0:0:
256,192,201091,1,8,0:0:0:0:
256,192,201475,1,0,0:0:0:0:
256,192,201667,1,8,0:0:0:0:
256,192,201859,1,8,0:0:0:0:
256,192,202244,1,0,0:0:0:0:
256,192,202629,1,8,0:0:0:0:
256,192,202821,1,0,0:0:0:0:
256,192,203206,1,8,0:0:0:0:
256,192,203398,1,8,0:0:0:0:
256,192,203783,1,0,0:0:0:0:
256,192,204168,1,8,0:0:0:0:
256,192,204552,1,0,0:0:0:0:
256,192,204936,1,8,0:0:0:0:
256,192,205129,1,0,0:0:0:0:
256,192,205513,1,0,0:0:0:0:
256,192,205706,1,8,0:0:0:0:
256,192,205898,1,0,0:0:0:0:
256,192,206283,1,8,0:0:0:0:
256,192,206475,1,8,0:0:0:0:
256,192,206859,1,0,0:0:0:0:
256,192,207052,1,0,0:0:0:0:
256,192,207245,1,8,0:0:0:0:
256,192,207628,1,0,0:0:0:0:
256,192,208014,1,0,0:0:0:0:
256,192,208206,1,8,0:0:0:0:
256,192,208590,1,8,0:0:0:0:
256,192,208782,1,0,0:0:0:0:
256,192,208974,1,8,0:0:0:0:
256,192,209359,1,8,0:0:0:0:
256,192,209551,1,8,0:0:0:0:
256,192,209937,1,0,0:0:0:0:
256,192,210321,1,8,0:0:0:0:
256,192,210706,1,0,0:0:0:0:
256,192,210898,1,8,0:0:0:0:
256,192,211091,1,0,0:0:0:0:
256,192,211284,1,0,0:0:0:0:
256,192,211668,1,0,0:0:0:0:
256,192,211860,1,8,0:0:0:0:
256,192,212052,1,0,0:0:0:0:
256,192,212437,1,8,0:0:0:0:
256,192,212629,1,8,0:0:0:0:
256,192,212822,1,0,0:0:0:0:
256,192,213014,1,0,0:0:0:0:
256,192,213398,1,8,0:0:0:0:
256,192,213783,1,0,0:0:0:0:
256,192,213975,1,8,0:0:0:0:
256,192,214167,1,8,0:0:0:0:
256,192,214552,1,0,0:0:0:0:
256,192,214937,1,8,0:0:0:0:
256,192,215129,1,0,0:0:0:0:
256,192,215514,1,8,0:0:0:0:
256,192,215706,1,8,0:0:0:0:
256,192,216091,1,0,0:0:0:0:
256,192,216475,1,8,0:0:0:0:
256,192,216860,1,0,0:0:0:0:
256,192,217244,1,8,0:0:0:0:
256,192,217437,1,0,0:0:0:0:
256,192,217821,1,0,0:0:0:0:
256,192,218014,1,8,0:0:0:0:
256,192,218206,1,0,0:0:0:0:
256,192,218591,1,8,0:0:0:0:
256,192,218783,1,8,0:0:0:0:
256,192,219167,1,0,0:0:0:0:
256,192,219360,1,0,0:0:0:0:
256,192,219552,1,8,0:0:0:0:
256,192,219936,1,0,0:0:0:0:
256,192,220320,1,0,0:0:0:0:
256,192,220514,1,8,0:0:0:0:
256,192,220898,1,8,0:0:0:0:
256,192,221090,1,0,0:0:0:0:
256,192,221283,1,8,0:0:0:0:
256,192,221667,1,8,0:0:0:0:
256,192,221859,1,8,0:0:0:0:
256,192,222245,1,4,0:0:0:0:
256,192,223013,1,12,0:0:0:0:
256,192,223783,1,4,0:0:0:0:
256,192,224168,1,4,0:0:0:0:
256,192,224552,1,12,0:0:0:0:
256,192,224936,1,4,0:0:0:0:
256,192,225321,1,0,0:0:0:0:
256,192,225706,1,12,0:0:0:0:
256,192,226091,1,0,0:0:0:0:
256,192,226283,1,8,0:0:0:0:
256,192,226475,1,0,0:0:0:0:
256,192,226860,1,8,0:0:0:0:
256,192,227245,1,8,0:0:0:0:
256,192,227437,1,0,0:0:0:0:
256,192,227821,1,0,0:0:0:0:
256,192,228014,1,8,0:0:0:0:
256,192,228398,1,0,0:0:0:0:
256,192,228783,1,12,0:0:0:0:
256,192,229168,1,0,0:0:0:0:
256,192,229552,1,8,0:0:0:0:
256,192,229745,1,0,0:0:0:0:
256,192,230129,1,0,0:0:0:0:
256,192,230321,1,8,0:0:0:0:
256,192,230514,1,0,0:0:0:0:
256,192,230898,1,0,0:0:0:0:
256,192,231091,1,0,0:0:0:0:
256,192,231283,1,8,0:0:0:0:
256,192,231475,1,0,0:0:0:0:
256,192,231860,1,8,0:0:0:0:
256,192,232245,1,0,0:0:0:0:
256,192,232629,1,0,0:0:0:0:
256,192,232821,1,8,0:0:0:0:
256,192,233206,1,8,0:0:0:0:
256,192,233398,1,0,0:0:0:0:
256,192,233591,1,8,0:0:0:0:
256,192,233975,1,0,0:0:0:0:
256,192,234168,1,8,0:0:0:0:
256,192,234360,1,0,0:0:0:0:
256,192,234552,1,8,0:0:0:0:
256,192,234745,1,0,0:0:0:0:
256,192,234937,1,0,0:0:0:0:
256,192,235321,1,0,0:0:0:0:
256,192,235706,1,0,0:0:0:0:
256,192,235898,1,8,0:0:0:0:
256,192,236283,1,0,0:0:0:0:
256,192,236475,1,8,0:0:0:0:
256,192,236668,1,0,0:0:0:0:
256,192,237052,1,0,0:0:0:0:
256,192,237245,1,8,0:0:0:0:
256,192,237437,1,0,0:0:0:0:
256,192,237629,1,0,0:0:0:0:
256,192,238014,1,8,0:0:0:0:
256,192,238399,1,0,0:0:0:0:
256,192,238591,1,8,0:0:0:0:
256,192,238783,1,0,0:0:0:0:
256,192,239168,1,8,0:0:0:0:
256,192,239552,1,8,0:0:0:0:
256,192,239745,1,0,0:0:0:0:
256,192,240129,1,0,0:0:0:0:
256,192,240321,1,8,0:0:0:0:
256,192,240706,1,0,0:0:0:0:
256,192,241091,1,12,0:0:0:0:
256,192,241476,1,0,0:0:0:0:
256,192,241860,1,8,0:0:0:0:
256,192,242053,1,0,0:0:0:0:
256,192,242437,1,0,0:0:0:0:
256,192,242629,1,8,0:0:0:0:
256,192,242822,1,0,0:0:0:0:
256,192,243206,1,0,0:0:0:0:
256,192,243399,1,0,0:0:0:0:
256,192,243591,1,8,0:0:0:0:
256,192,243783,1,0,0:0:0:0:
256,192,244168,1,8,0:0:0:0:
256,192,244553,1,0,0:0:0:0:
256,192,244937,1,0,0:0:0:0:
256,192,245129,1,8,0:0:0:0:
256,192,245514,1,8,0:0:0:0:
256,192,245706,1,0,0:0:0:0:
256,192,245899,1,8,0:0:0:0:
256,192,246283,1,0,0:0:0:0:
256,192,246476,1,8,0:0:0:0:
256,192,246860,1,4,0:0:0:0:
256,192,247629,1,4,0:0:0:0:
256,192,248591,1,12,0:0:0:0:
256,192,248975,1,4,0:0:0:0:
256,192,249168,1,12,0:0:0:0:
256,192,249552,1,12,0:0:0:0:
256,192,249937,1,0,0:0:0:0:
256,192,250322,1,0,0:0:0:0:
256,192,250706,1,0,0:0:0:0:
256,192,251283,1,8,0:0:0:0:
256,192,251476,1,0,0:0:0:0:
256,192,251860,1,8,0:0:0:0:
256,192,252245,1,0,0:0:0:0:
256,192,252822,1,8,0:0:0:0:
256,192,253014,1,0,0:0:0:0:
256,192,253399,1,8,0:0:0:0:
256,192,253783,1,0,0:0:0:0:
256,192,254360,1,8,0:0:0:0:
256,192,254553,1,0,0:0:0:0:
256,192,254937,1,8,0:0:0:0:
256,192,255322,1,0,0:0:0:0:
256,192,255899,1,0,0:0:0:0:
256,192,256091,1,0,0:0:0:0:
256,192,256476,1,8,0:0:0:0:
256,192,256860,1,0,0:0:0:0:
256,192,257437,1,8,0:0:0:0:
256,192,257630,1,0,0:0:0:0:
256,192,258014,1,8,0:0:0:0:
256,192,258399,1,0,0:0:0:0:
256,192,259168,1,4,0:0:0:0:
256,192,259553,1,4,0:0:0:0:
256,192,259937,1,0,0:0:0:0:
256,192,260130,1,8,0:0:0:0:
256,192,260322,1,0,0:0:0:0:
256,192,260514,1,12,0:0:0:0:
256,192,260899,1,0,0:0:0:0:
256,192,261091,1,8,0:0:0:0:
256,192,261860,1,4,0:0:0:0:
256,192,262245,1,0,0:0:0:0:
256,192,262821,1,0,0:0:0:0:
256,192,263398,1,0,0:0:0:0:
256,192,263591,12,0,264937,0:0:0:0:
256,192,265321,12,0,271475,0:0:0:0:
