osu file format v14

[General]
AudioFilename: audio.mp3
AudioLeadIn: 0
PreviewTime: 199560
Countdown: 0
SampleSet: Soft
StackLeniency: 0.7
Mode: 2
LetterboxInBreaks: 0
WidescreenStoryboard: 1

[Editor]
DistanceSpacing: 0.9
BeatDivisor: 4
GridSize: 16
TimelineZoom: 1

[Metadata]
Title:Caffeine Fighter
TitleUnicode:カフェインファイター
Artist:Syaro (CV: Uchida Maaya)
ArtistUnicode:シャロ (CV: 内田真礼)
Creator:Greaper
Version:Secre's Rain
Source:ご注文はうさぎですか?
Tags:gochuumon wa usagi desu ka is the order a rabbit gochiusa kirima sharo 桐間紗路 Secre chickenbible anime pop japanese jpop j-pop
BeatmapID:2480827
BeatmapSetID:1041046

[Difficulty]
HPDrainRate:5
CircleSize:3.8
OverallDifficulty:8.7
ApproachRate:8.7
SliderMultiplier:1.85
SliderTickRate:2

[Events]
//Background and Video events
0,0,"background.jpg",0,0
//Break Periods
2,180714,189300
//Storyboard Layer 0 (Background)
//Storyboard Layer 1 (Fail)
//Storyboard Layer 2 (Pass)
//Storyboard Layer 3 (Foreground)
//Storyboard Layer 4 (Overlay)
//Storyboard Sound Samples

[TimingPoints]
2253,384.615384615385,4,2,11,60,1,0
8406,-100,4,2,11,60,0,0
11483,-100,4,2,11,60,0,0
13214,-100,4,2,11,75,0,0
14560,-100,4,2,12,70,0,0
17060,-100,4,2,11,60,0,0
17445,-100,4,2,12,60,0,0
23214,-100,4,2,11,60,0,0
23599,-100,4,2,12,60,0,0
26483,-100,4,2,11,60,0,0
26579,-100,4,2,11,60,0,0
26868,-100,4,2,12,60,0,0
39176,-100,4,2,12,60,0,0
51483,-100,4,2,12,60,0,0
63791,-100,4,2,12,60,0,0
69945,-100,4,2,12,65,0,0
73022,-100,4,2,12,70,0,0
77637,-100,4,2,12,80,0,0
78791,-100,4,2,11,80,0,0
78983,-100,4,2,12,80,0,0
79176,-90.9090909090909,4,2,12,75,0,1
81676,-90.9090909090909,4,2,11,75,0,1
82060,-90.9090909090909,4,2,12,75,0,1
93983,-90.9090909090909,4,2,11,75,0,1
94368,-90.9090909090909,4,2,12,75,0,1
100714,-100,4,2,12,60,0,0
102445,-100,4,2,12,70,0,0
103406,-100,4,2,11,70,0,0
103599,-100,4,2,12,70,0,0
103791,-100,4,2,12,60,0,0
106291,-100,4,2,11,60,0,0
106676,-100,4,2,12,60,0,0
112445,-100,4,2,11,60,0,0
112829,-100,4,2,12,60,0,0
115714,-100,4,2,11,60,0,0
115810,-100,4,2,11,60,0,0
116099,-100,4,2,12,60,0,0
128406,-100,4,2,12,60,0,0
140714,-100,4,2,12,60,0,0
146868,-100,4,2,12,65,0,0
149945,-100,4,2,12,70,0,0
154560,-100,4,2,12,80,0,0
155714,-100,4,2,11,80,0,0
155906,-100,4,2,12,80,0,0
156099,-83.3333333333333,4,2,12,75,0,1
158599,-83.3333333333333,4,2,11,75,0,1
158983,-83.3333333333333,4,2,12,75,0,1
170906,-83.3333333333333,4,2,11,75,0,1
171291,-83.3333333333333,4,2,12,75,0,1
177637,-100,4,2,12,60,0,0
180329,-100,4,2,11,60,0,0
180714,-100,4,2,12,60,0,0
193022,-100,4,2,11,60,0,0
196099,-100,4,2,12,60,0,0
197637,-100,4,2,12,70,0,0
200329,-100,4,2,11,80,0,0
200426,-100,4,2,11,80,0,0
200714,-83.3333333333333,4,2,12,75,0,1
203214,-83.3333333333333,4,2,11,75,0,1
203599,-83.3333333333333,4,2,12,75,0,1
215522,-83.3333333333333,4,2,11,75,0,1
215906,-83.3333333333333,4,2,12,75,0,1
225329,-83.3333333333333,4,2,12,75,0,1
227829,-83.3333333333333,4,2,11,75,0,1
228214,-83.3333333333333,4,2,12,75,0,1
240137,-83.3333333333333,4,2,11,75,0,1
240522,-83.3333333333333,4,2,12,75,0,1
246868,-100,4,2,12,60,0,0
248599,-100,4,2,12,70,0,0
249560,-100,4,2,11,70,0,0
249753,-100,4,2,12,70,0,0
249945,-100,4,2,12,60,0,0
252445,-100,4,2,11,60,0,0
252829,-100,4,2,12,60,0,0
258599,-100,4,2,11,60,0,0
258983,-100,4,2,12,60,0,0
261868,-100,4,2,11,60,0,0
261964,-100,4,2,12,60,0,0
262253,-100,4,2,12,60,0,0
264945,-100,4,2,12,5,0,0
265329,-100,4,2,12,60,0,0
271483,-100,4,2,12,5,0,0

[Colours]
Combo1 : 244,169,113
Combo2 : 254,231,177
Combo3 : 244,179,202
Combo4 : 255,125,125

[HitObjects]
389,189,1676,6,0,L|287:193,2,92.5
123,272,2253,2,0,P|107:213|220:156,1,185,4|8,0:0|0:0,0:0:0:0:
383,99,3022,2,0,L|389:303,1,185,0|8,0:0|0:0,0:0:0:0:
209,231,3599,6,0,L|396:232,1,185
301,167,4176,1,8,0:0:0:0:
137,140,4368,1,0,0:0:0:0:
328,101,4753,2,0,L|431:102,2,92.5,0|8|0,0:0|0:0|0:0,0:0:0:0:
71,270,5329,6,0,L|57:78,1,185,0|8,0:0|0:0,0:0:0:0:
255,188,6099,2,0,L|56:197,1,185,0|8,0:0|0:0,0:0:0:0:
346,54,6676,6,0,L|361:264,1,185
263,247,7253,1,8,0:0:0:0:
421,179,7445,1,0,0:0:0:0:
221,150,7829,2,0,L|122:153,2,92.5,0|8|0,0:0|0:0|0:0,0:0:0:0:
491,47,8406,6,0,L|497:165,1,92.5,8|0,0:3|0:0,0:0:0:0:
331,211,8791,2,0,L|221:209,1,92.5,8|8,0:0|0:3,0:0:0:0:
406,123,9176,2,0,L|501:123,2,92.5,0|8|8,0:0|0:3|0:0,0:0:0:0:
135,236,9753,6,0,L|123:115,1,92.5,8|0,0:3|0:0,0:0:0:0:
269,107,10137,1,0,0:0:0:0:
125,143,10329,1,8,0:0:0:0:
391,192,10522,2,0,L|491:192,1,92.5,8|0,0:3|0:0,0:0:0:0:
176,71,10906,2,0,L|51:74,2,92.5,8|8|0,0:3|0:0|0:0,0:0:0:0:
453,64,11483,6,0,L|464:181,1,92.5,4|0,0:0|0:0,0:0:0:0:
291,208,11868,2,0,L|165:209,1,92.5,0|8,0:0|0:3,0:0:0:0:
475,121,12253,2,0,L|478:17,1,92.5,2|0,0:0|0:0,0:0:0:0:
376,52,12637,1,0,0:0:0:0:
217,87,12829,6,0,L|206:208,1,92.5
362,182,13214,1,10,0:3:0:0:
208,179,13406,1,10,0:3:0:0:
362,182,13599,1,10,0:3:0:0:
63,270,13791,2,0,L|56:62,1,185,10|8,0:3|0:0,0:0:0:0:
158,75,14368,1,0,0:0:0:0:
425,79,14560,6,0,L|436:185,1,92.5,4|0,0:0|0:0,0:0:0:0:
265,176,14945,2,0,L|165:180,1,92.5,8|0,0:0|0:0,0:0:0:0:
336,98,15329,2,0,L|437:98,2,92.5,8|0|8,0:3|0:0|0:0,0:0:0:0:
174,133,15906,1,0,0:0:0:0:
436,61,16099,6,0,L|444:164,1,92.5,8|0,0:3|0:0,0:0:0:0:
269,211,16483,2,0,L|163:217,1,92.5,8|0,0:0|0:0,0:0:0:0:
328,123,16868,1,8,0:3:0:0:
176,216,17060,2,0,L|163:103,1,92.5,8|8,0:0|0:0,0:0:0:0:
328,123,17445,1,0,0:0:0:0:
56,234,17637,6,0,L|45:108,1,92.5,8|0,0:3|0:0,0:0:0:0:
212,90,18022,2,0,L|324:93,1,92.5,8|0,0:0|0:0,0:0:0:0:
144,195,18406,2,0,L|40:196,2,92.5,8|0|8,0:3|0:0|0:0,0:0:0:0:
309,127,18983,1,0,0:0:0:0:
55,251,19176,6,0,L|45:133,1,92.5,8|0,0:3|0:0,0:0:0:0:
346,180,19560,2,0,L|452:180,1,92.5,8|0,0:0|0:0,0:0:0:0:
187,130,19945,2,0,L|86:133,2,92.5,8|0|8,0:3|0:0|0:0,0:0:0:0:
358,88,20522,1,0,0:0:0:0:
101,262,20714,6,0,L|89:145,1,92.5,4|0,0:0|0:0,0:0:0:0:
258,172,21099,2,0,L|365:168,1,92.5,8|0,0:0|0:0,0:0:0:0:
184,248,21483,2,0,P|187:180|294:128,1,185,8|8,0:3|0:0,0:0:0:0:
440,142,22060,1,0,0:0:0:0:
281,232,22253,6,0,L|270:119,1,92.5,8|0,0:3|0:0,0:0:0:0:
440,142,22637,2,0,L|456:261,1,92.5,8|0,0:0|0:0,0:0:0:0:
296,277,23022,1,8,0:3:0:0:
440,142,23214,1,8,0:0:0:0:
296,277,23406,2,0,L|401:277,1,92.5,8|0,0:0|0:0,0:0:0:0:
113,167,23791,5,8,0:3:0:0:
331,98,24176,1,8,0:3:0:0:
123,221,24560,2,0,L|23:226,2,92.5,8|8|8,0:3|0:3|0:3,0:0:0:0:
428,62,25137,6,0,L|437:267,1,185,8|8,0:3|0:3,0:0:0:0:
118,288,25714,2,0,P|111:221|338:65,1,370,8|8,0:3|0:0,0:0:0:0:
143,251,26868,6,0,L|130:135,1,92.5,8|0,0:3|0:0,0:0:0:0:
240,103,27253,2,0,L|254:226,1,92.5
150,246,27637,2,0,L|44:249,2,92.5,8|0|8,0:3|0:0|0:3,0:0:0:0:
246,204,28214,1,0,0:0:0:0:
400,134,28406,5,8,0:3:0:0:
246,204,28599,2,0,L|137:204,1,92.5,0|8,0:0|0:3,0:0:0:0:
419,188,28983,1,0,0:0:0:0:
243,245,29368,2,0,L|140:248,2,92.5,0|8|0,0:0|0:3|0:0,0:0:0:0:
410,117,29945,5,0,0:0:0:0:
245,165,30137,2,0,L|128:168,2,92.5,0|8|0,0:0|0:3|0:0,0:0:0:0:
408,66,30714,2,0,L|418:199,1,92.5,8|0,0:3|0:0,0:0:0:0:
241,226,31099,2,0,L|141:229,1,92.5,8|0,0:3|0:0,0:0:0:0:
314,144,31483,6,0,L|416:141,2,92.5,8|0|8,0:3|0:0|0:3,0:0:0:0:
141,119,32060,1,0,0:0:0:0:
318,141,32445,2,0,L|214:141,2,92.5,0|8|0,0:0|0:3|0:0,0:0:0:0:
147,264,33022,6,0,L|136:166,1,92.5,4|0,0:0|0:0,0:0:0:0:
307,105,33406,2,0,L|322:224,1,92.5,8|0,0:3|0:0,0:0:0:0:
133,248,33983,2,0,L|243:249,2,92.5,0|8|0,0:0|0:3|0:0,0:0:0:0:
296,175,34560,5,8,0:3:0:0:
131,200,34753,2,0,L|33:201,1,92.5
205,130,35137,1,0,0:0:0:0:
382,149,35522,2,0,L|501:150,2,92.5,0|8|0,0:0|0:3|0:0,0:0:0:0:
107,267,36099,6,0,L|91:171,1,92.5,8|0,0:3|0:0,0:0:0:0:
255,111,36483,2,0,L|271:209,1,92.5,8|0,0:3|0:0,0:0:0:0:
442,218,36868,2,0,L|434:107,1,92.5,8|0,0:3|0:0,0:0:0:0:
288,242,37253,1,8,0:3:0:0:
435,125,37445,1,0,0:0:0:0:
156,157,37637,6,0,L|47:158,2,92.5,0|0|8,0:0|0:0|0:3,0:0:0:0:
332,72,38214,2,0,L|340:193,1,92.5,0|8,0:0|0:3,0:0:0:0:
163,240,38599,1,8,0:3:0:0:
209,238,38695,1,8,0:3:0:0:
255,237,38791,1,8,0:3:0:0:
163,240,38983,1,8,0:3:0:0:
441,101,39176,5,4,0:0:0:0:
277,147,39368,2,0,L|179:150,2,92.5,0|8|0,0:0|0:0|0:0,0:0:0:0:
442,83,39945,2,0,L|458:187,1,92.5,8|0,0:3|0:0,0:0:0:0:
353,228,40329,1,8,0:0:0:0:
83,271,40522,6,0,P|82:187|187:148,1,185
323,182,41099,1,8,0:0:0:0:
191,218,41291,2,0,L|58:220,1,92.5,0|8,0:0|0:3,0:0:0:0:
248,151,41676,2,0,L|343:152,2,92.5,0|8|0,0:0|0:0|0:0,0:0:0:0:
84,160,42253,5,8,0:3:0:0:
248,152,42445,1,0,0:0:0:0:
345,163,42637,2,0,L|358:48,1,92.5,8|0,0:0|0:0,0:0:0:0:
194,200,43022,2,0,L|91:202,1,92.5,8|0,0:3|0:0,0:0:0:0:
278,127,43406,2,0,L|392:128,1,92.5,8|0,0:0|0:0,0:0:0:0:
104,159,43791,6,0,L|6:164,2,92.5,8|0|8,0:3|0:0|0:0,0:0:0:0:
270,103,44368,1,0,0:0:0:0:
441,157,44753,2,0,L|335:154,2,92.5,0|8|0,0:0|0:0|0:0,0:0:0:0:
163,263,45329,6,0,L|37:261,2,92.5,4|0|8,0:0|0:0|0:0,0:0:0:0:
354,167,45906,1,0,0:0:0:0:
171,217,46291,2,0,L|267:217,2,92.5,0|8|0,0:0|0:0|0:0,0:0:0:0:
336,153,46868,6,0,L|443:152,2,92.5,8|0|8,0:3|0:0|0:0,0:0:0:0:
169,137,47445,1,0,0:0:0:0:
15,176,47829,2,0,L|110:175,2,92.5,0|8|0,0:0|0:0|0:0,0:0:0:0:
292,97,48406,6,0,L|394:93,1,92.5,8|0,0:3|0:0,0:0:0:0:
211,178,48791,2,0,L|99:186,1,92.5,8|0,0:0|0:0,0:0:0:0:
292,126,49176,2,0,L|396:125,2,92.5,8|0|8,0:3|0:0|0:0,0:0:0:0:
26,262,49753,6,0,L|19:74,1,185,12|12,0:0|0:0,0:0:0:0:
316,181,50522,2,0,L|214:180,2,92.5,12|4|8,0:0|0:0|0:3,0:0:0:0:
48,269,51099,2,0,L|36:167,1,92.5,8|8,0:0|0:3,0:0:0:0:
322,257,51483,6,0,P|379:207|301:145,1,185,4|0,0:0|0:0,0:0:0:0:
155,168,52060,1,8,0:3:0:0:
318,141,52253,1,8,0:3:0:0:
483,152,52637,1,8,0:0:0:0:
310,215,52829,6,0,L|186:217,2,92.5,0|0|8,0:0|0:0|0:3,0:0:0:0:
408,125,53406,2,0,L|413:243,1,92.5,0|8,0:0|0:3,0:0:0:0:
246,241,53791,2,0,L|127:244,1,92.5,8|0,0:3|0:0,0:0:0:0:
430,94,54176,2,0,L|440:201,1,92.5,8|0,0:0|0:0,0:0:0:0:
164,187,54560,5,8,0:3:0:0:
355,100,54945,2,0,L|365:197,1,92.5,0|8,0:0|0:3,0:0:0:0:
188,217,55522,1,0,0:0:0:0:
484,236,55906,6,0,P|485:167|368:95,1,185,8|8,0:3|0:3,0:0:0:0:
303,140,56483,2,0,L|207:146,2,92.5,0|8|8,0:0|0:3|0:3,0:0:0:0:
137,231,57060,2,0,L|37:235,2,92.5,0|8|0,0:0|0:0|0:0,0:0:0:0:
413,113,57637,6,0,L|421:216,1,92.5,4|0,0:0|0:0,0:0:0:0:
255,232,58022,2,0,L|153:242,1,92.5,0|8,0:0|0:3,0:0:0:0:
330,85,58406,1,8,0:3:0:0:
422,122,58598,1,0,0:0:0:0:
424,209,58790,1,8,0:0:0:0:
335,248,58982,1,8,0:3:0:0:
165,282,59176,6,0,L|153:93,1,185
444,52,59945,2,0,L|456:268,1,185,8|8,0:3|0:0,0:0:0:0:
347,274,60522,1,0,0:0:0:0:
73,299,60714,6,0,P|57:227|225:137,1,277.5,8|8,0:3|0:3,0:0:0:0:
306,166,61483,1,8,0:3:0:0:
135,207,61676,2,0,L|125:98,1,92.5,0|8,0:0|0:0,0:0:0:0:
434,242,62060,6,0,P|444:175|324:123,1,185,8|8,0:3|0:3,0:0:0:0:
261,160,62637,2,0,L|158:166,1,92.5,0|8,0:0|0:3,0:0:0:0:
334,72,63022,2,0,L|346:207,1,92.5,8|0,0:3|0:0,0:0:0:0:
83,269,63406,2,0,L|66:152,1,92.5,8|0,0:0|0:0,0:0:0:0:
335,261,63791,6,0,P|392:211|314:149,1,185,4|0,0:0|0:0,0:0:0:0:
155,168,64368,1,8,0:3:0:0:
331,145,64561,1,8,0:3:0:0:
484,118,64945,1,8,0:0:0:0:
310,215,65137,6,0,L|186:217,2,92.5,8|0|8,0:3|0:0|0:3,0:0:0:0:
408,125,65714,2,0,L|413:243,1,92.5,0|8,0:0|0:3,0:0:0:0:
246,241,66099,2,0,L|127:244,1,92.5,8|0,0:3|0:0,0:0:0:0:
430,94,66484,2,0,L|440:201,1,92.5,8|0,0:0|0:0,0:0:0:0:
164,187,66868,5,8,0:3:0:0:
355,100,67253,2,0,L|365:197,1,92.5,0|8,0:0|0:3,0:0:0:0:
188,217,67830,1,0,0:0:0:0:
484,236,68214,6,0,P|485:167|368:95,1,185,8|8,0:3|0:3,0:0:0:0:
303,140,68791,2,0,L|207:146,2,92.5,0|8|8,0:0|0:3|0:3,0:0:0:0:
137,231,69368,2,0,L|37:235,2,92.5,0|8|8,0:0|0:0|0:3,0:0:0:0:
413,113,69945,6,0,L|421:216,1,92.5,4|0,0:0|0:0,0:0:0:0:
255,232,70330,2,0,L|153:242,1,92.5,8|0,0:0|0:0,0:0:0:0:
330,85,70714,2,0,L|427:87,1,92.5,8|0,0:3|0:0,0:0:0:0:
242,169,71099,2,0,L|125:173,1,92.5,8|0,0:0|0:0,0:0:0:0:
412,140,71483,6,0,L|505:139,2,92.5,8|0|8,0:3|0:0|0:0,0:0:0:0:
153,202,72060,1,0,0:0:0:0:
23,156,72445,2,0,L|14:52,1,92.5,0|8,0:0|0:0,0:0:0:0:
109,53,72829,1,0,0:0:0:0:
382,152,73022,5,4,0:0:0:0:
224,164,73214,2,0,L|125:167,1,92.5,0|12,0:0|0:0,0:0:0:0:
295,90,73599,2,0,L|393:88,1,92.5,0|4,0:0|0:0,0:0:0:0:
108,222,73983,2,0,L|210:223,2,92.5,0|12|8,0:0|0:0|0:3,0:0:0:0:
404,100,74560,6,0,L|408:204,1,92.5,4|0,0:0|0:0,0:0:0:0:
226,248,74945,2,0,L|220:147,1,92.5,12|0,0:0|0:0,0:0:0:0:
480,87,75329,2,0,L|488:208,1,92.5,4|0,0:0|0:0,0:0:0:0:
209,140,75714,2,0,L|89:142,1,92.5,12|8,0:0|0:3,0:0:0:0:
384,207,76099,6,0,L|480:208,2,92.5,4|0|4,0:0|0:0|0:0,0:0:0:0:
211,186,76676,1,0,0:0:0:0:
470,72,76868,2,0,L|476:186,1,92.5,4|0,0:0|0:0,0:0:0:0:
143,263,77253,2,0,L|131:151,1,92.5,4|8,0:0|0:3,0:0:0:0:
422,169,77637,5,8,0:0:0:0:
269,196,77829,1,8,0:0:0:0:
422,169,78022,1,8,0:0:0:0:
151,149,78214,1,8,0:0:0:0:
24,187,78599,2,0,L|12:76,1,92.5,0|8,0:0|0:0,0:0:0:0:
110,82,78983,1,0,0:0:0:0:
418,250,79176,6,0,P|432:183|313:119,1,203.500006210327,4|8,0:0|0:0,0:0:0:0:
160,172,79753,1,0,0:0:0:0:
326,95,79945,2,0,L|336:221,1,101.750003105164,8|0,0:3|0:0,0:0:0:0:
160,172,80329,1,8,0:0:0:0:
332,156,80522,6,0,L|446:153,1,101.750003105164
254,221,80906,2,0,L|145:222,2,101.750003105164,0|8|0,0:0|0:0|0:0,0:0:0:0:
369,185,81483,1,8,0:3:0:0:
76,262,81676,2,0,L|181:263,2,101.750003105164,8|8|0,0:0|0:0|0:0,0:0:0:0:
430,106,82253,6,0,L|439:217,1,101.750003105164,8|0,0:3|0:0,0:0:0:0:
142,129,82637,2,0,L|134:242,1,101.750003105164,8|0,0:0|0:0,0:0:0:0:
427,164,83022,2,0,L|317:167,2,101.750003105164,8|0|8,0:3|0:0|0:0,0:0:0:0:
148,250,83599,6,0,L|133:142,1,101.750003105164,0|8,0:0|0:3,0:0:0:0:
315,142,83983,1,0,0:0:0:0:
134,149,84176,1,8,0:0:0:0:
315,142,84368,2,0,L|431:142,1,101.750003105164,0|8,0:0|0:3,0:0:0:0:
124,244,84753,2,0,L|5:247,2,101.750003105164,0|8|0,0:0|0:0|0:0,0:0:0:0:
420,103,85329,6,0,L|431:226,1,101.750003105164,4|0,0:0|0:0,0:0:0:0:
266,253,85714,1,8,0:0:0:0:
429,204,85906,1,0,0:0:0:0:
127,175,86099,2,0,L|262:169,2,101.750003105164,8|0|8,0:3|0:0|0:0,0:0:0:0:
440,59,86676,6,0,L|450:177,1,101.750003105164
182,227,87060,1,0,0:0:0:0:
333,136,87253,1,8,0:0:0:0:
43,157,87445,2,0,L|48:285,1,101.750003105164,0|8,0:0|0:3,0:0:0:0:
307,215,87829,2,0,L|423:215,2,101.750003105164,0|8|0,0:0|0:0|0:0,0:0:0:0:
25,245,88406,6,0,L|16:124,1,101.750003105164,8|0,0:3|0:0,0:0:0:0:
171,119,88791,1,8,0:0:0:0:
17,143,88983,1,0,0:0:0:0:
327,205,89176,2,0,L|442:205,2,101.750003105164,8|0|8,0:3|0:0|0:0,0:0:0:0:
45,313,89753,6,0,P|57:225|178:195,1,203.500006210327
330,230,90329,1,8,0:0:0:0:
173,166,90522,2,0,L|58:165,1,101.750003105164,0|8,0:0|0:3,0:0:0:0:
134,110,90810,1,8,0:3:0:0:
317,120,90906,2,0,L|379:121,1,50.8750015525818,8|8,0:3|0:3,0:0:0:0:
190,65,91099,2,0,L|134:66,1,50.8750015525818,8|8,0:3|0:3,0:0:0:0:
327,195,91291,2,0,L|393:199,1,50.8750015525818,8|8,0:3|0:3,0:0:0:0:
118,254,91483,6,0,P|104:187|223:123,1,203.500006210327,4|8,0:0|0:0,0:0:0:0:
352,172,92060,1,0,0:0:0:0:
186,95,92252,2,0,L|176:221,1,101.750003105164,8|0,0:3|0:0,0:0:0:0:
352,172,92636,1,8,0:0:0:0:
180,156,92829,6,0,L|66:153,1,101.750003105164
258,221,93214,2,0,L|367:222,2,101.750003105164,0|8|0,0:0|0:0|0:0,0:0:0:0:
143,185,93790,1,8,0:3:0:0:
436,262,93983,2,0,L|324:263,2,101.750003105164,8|8|0,0:0|0:0|0:0,0:0:0:0:
82,106,94560,6,0,L|73:217,1,101.750003105164,8|0,0:3|0:0,0:0:0:0:
370,129,94944,2,0,L|378:242,1,101.750003105164,8|0,0:0|0:0,0:0:0:0:
85,164,95329,2,0,L|195:167,2,101.750003105164,8|0|8,0:3|0:0|0:0,0:0:0:0:
364,250,95906,6,0,L|379:142,1,101.750003105164,0|8,0:0|0:3,0:0:0:0:
197,142,96290,1,0,0:0:0:0:
378,149,96483,1,8,0:0:0:0:
197,142,96675,2,0,L|81:142,1,101.750003105164,0|8,0:0|0:3,0:0:0:0:
388,244,97060,2,0,L|507:247,2,101.750003105164,0|8|0,0:0|0:0|0:0,0:0:0:0:
92,103,97636,6,0,L|81:226,1,101.750003105164,4|0,0:0|0:0,0:0:0:0:
246,253,98021,1,8,0:0:0:0:
83,204,98213,1,0,0:0:0:0:
385,175,98406,2,0,L|250:169,2,101.750003105164,8|0|8,0:3|0:0|0:0,0:0:0:0:
72,59,98983,6,0,L|62:177,1,101.750003105164
330,227,99367,1,0,0:0:0:0:
179,136,99560,1,8,0:0:0:0:
469,157,99752,2,0,L|464:285,1,101.750003105164,0|8,0:0|0:3,0:0:0:0:
205,215,100137,2,0,L|88:216,2,101.750003105164,0|8|0,0:0|0:0|0:0,0:0:0:0:
487,245,100714,6,0,L|494:144,1,92.5,4|0,0:0|0:0,0:0:0:0:
341,119,101098,1,0,0:0:0:0:
495,143,101290,1,8,0:3:0:0:
185,205,101483,2,0,L|86:210,1,92.5,8|0,0:0|0:0,0:0:0:0:
268,129,101868,1,0,0:0:0:0:
93,258,102060,6,0,L|79:132,1,92.5
404,207,102445,1,10,0:3:0:0:
244,228,102637,1,10,0:3:0:0:
404,207,102829,1,10,0:3:0:0:
97,276,103022,2,0,L|78:153,1,92.5,10|0,0:3|0:0,0:0:0:0:
343,155,103406,2,0,L|471:155,1,92.5,12|0,0:0|0:0,0:0:0:0:
87,79,103791,6,0,L|76:185,1,92.5,4|0,0:0|0:0,0:0:0:0:
247,176,104176,2,0,L|347:180,1,92.5,8|0,0:0|0:0,0:0:0:0:
176,98,104560,2,0,L|75:98,2,92.5,8|0|8,0:3|0:0|0:0,0:0:0:0:
338,133,105137,1,0,0:0:0:0:
76,61,105330,6,0,L|68:164,1,92.5,8|0,0:3|0:0,0:0:0:0:
243,211,105714,2,0,L|349:217,1,92.5,8|0,0:0|0:0,0:0:0:0:
184,123,106099,1,8,0:3:0:0:
336,216,106291,2,0,L|349:103,1,92.5,8|8,0:0|0:0,0:0:0:0:
184,123,106676,1,0,0:0:0:0:
456,234,106868,6,0,L|467:108,1,92.5,8|0,0:3|0:0,0:0:0:0:
300,90,107253,2,0,L|188:93,1,92.5,8|0,0:0|0:0,0:0:0:0:
368,195,107637,2,0,L|472:196,2,92.5,8|0|8,0:3|0:0|0:0,0:0:0:0:
207,127,108214,1,0,0:0:0:0:
460,260,108407,6,0,L|470:142,1,92.5,8|0,0:3|0:0,0:0:0:0:
180,173,108791,2,0,L|74:173,1,92.5,8|0,0:0|0:0,0:0:0:0:
340,122,109176,2,0,L|441:125,2,92.5,8|0|8,0:3|0:0|0:0,0:0:0:0:
169,80,109753,1,0,0:0:0:0:
426,254,109945,6,0,L|438:137,1,92.5,4|0,0:0|0:0,0:0:0:0:
269,164,110330,2,0,L|162:160,1,92.5,8|0,0:0|0:0,0:0:0:0:
343,240,110714,2,0,P|340:172|233:120,1,185,8|8,0:3|0:0,0:0:0:0:
87,134,111291,1,0,0:0:0:0:
246,224,111484,6,0,L|257:111,1,92.5,8|0,0:3|0:0,0:0:0:0:
87,134,111868,2,0,L|71:253,1,92.5,8|0,0:0|0:0,0:0:0:0:
231,269,112253,1,8,0:3:0:0:
87,134,112445,1,8,0:0:0:0:
231,269,112637,2,0,L|110:269,1,92.5,8|0,0:0|0:0,0:0:0:0:
399,167,113022,5,8,0:3:0:0:
181,98,113407,1,8,0:3:0:0:
389,221,113791,2,0,L|489:226,2,92.5,8|8|8,0:3|0:3|0:3,0:0:0:0:
84,62,114368,6,0,L|75:267,1,185,8|8,0:3|0:3,0:0:0:0:
394,288,114945,2,0,P|401:221|174:65,1,370,8|8,0:3|0:0,0:0:0:0:
345,126,116099,5,4,0:0:0:0:
184,157,116291,2,0,L|72:163,2,92.5,0|8|0,0:0|0:0|0:0,0:0:0:0:
356,93,116868,2,0,L|363:191,1,92.5,8|0,0:3|0:0,0:0:0:0:
206,224,117253,1,8,0:0:0:0:
356,93,117445,1,0,0:0:0:0:
104,222,117637,6,0,L|92:100,1,92.5
189,76,118022,1,8,0:0:0:0:
374,217,118214,2,0,P|371:147|265:104,1,185
109,212,118791,2,0,L|96:117,1,92.5,8|0,0:0|0:0,0:0:0:0:
189,101,119176,5,0,0:0:0:0:
355,157,119368,2,0,L|472:155,2,92.5,0|8|0,0:0|0:0|0:0,0:0:0:0:
186,265,119945,2,0,L|176:161,1,92.5,8|0,0:3|0:0,0:0:0:0:
337,139,120329,2,0,L|432:135,1,92.5,8|0,0:0|0:0,0:0:0:0:
156,169,120714,6,0,L|52:178,2,92.5,8|0|8,0:3|0:0|0:0,0:0:0:0:
317,97,121291,1,0,0:0:0:0:
483,156,121676,2,0,L|360:162,2,92.5,0|8|0,0:0|0:0|0:0,0:0:0:0:
192,199,122253,6,0,L|85:200,2,92.5,4|0|8,0:0|0:0|0:0,0:0:0:0:
359,115,122829,1,0,0:0:0:0:
486,167,123214,2,0,L|492:66,1,92.5,0|8,0:0|0:0,0:0:0:0:
386,54,123599,1,0,0:0:0:0:
119,183,123791,6,0,L|15:184,2,92.5,8|0|8,0:3|0:0|0:0,0:0:0:0:
286,114,124368,1,0,0:0:0:0:
444,180,124753,2,0,L|344:180,2,92.5,0|8|0,0:0|0:0|0:0,0:0:0:0:
162,210,125329,6,0,L|145:113,1,92.5,8|0,0:3|0:0,0:0:0:0:
317,94,125714,2,0,L|424:91,1,92.5,8|0,0:0|0:0,0:0:0:0:
237,225,126099,2,0,L|227:118,1,92.5,8|0,0:3|0:0,0:0:0:0:
389,96,126483,1,8,0:0:0:0:
132,207,126676,6,0,L|121:85,1,92.5,12|0,0:0|0:0,0:0:0:0:
401,192,127060,2,0,L|420:312,1,92.5,12|0,0:0|0:0,0:0:0:0:
157,287,127445,2,0,L|51:291,2,92.5,12|4|8,0:0|0:0|0:3,0:0:0:0:
422,140,128022,2,0,L|432:262,1,92.5,8|8,0:0|0:0,0:0:0:0:
166,257,128406,6,0,P|109:207|187:145,1,185,4|0,0:0|0:0,0:0:0:0:
346,165,128983,1,8,0:3:0:0:
169,141,129176,2,0,L|71:140,1,92.5,8|0,0:3|0:0,0:0:0:0:
237,79,129560,1,8,0:0:0:0:
350,224,129752,6,0,L|257:222,2,92.5,0|0|8,0:0|0:0|0:3,0:0:0:0:
189,240,130329,2,0,L|92:241,1,92.5,0|8,0:0|0:3,0:0:0:0:
259,239,130714,2,0,L|378:242,1,92.5,8|0,0:3|0:0,0:0:0:0:
75,92,131099,2,0,L|65:199,1,92.5,8|0,0:0|0:0,0:0:0:0:
341,185,131483,6,0,L|345:74,1,92.5,8|0,0:3|0:0,0:0:0:0:
177,145,131868,1,0,0:0:0:0:
344,90,132060,2,0,L|454:88,1,92.5,8|8,0:3|0:3,0:0:0:0:
268,232,132445,2,0,L|168:237,1,92.5,0|8,0:0|0:0,0:0:0:0:
466,241,132829,6,0,P|467:172|350:100,1,185,8|8,0:3|0:3,0:0:0:0:
218,143,133406,2,0,L|89:149,2,92.5,0|8|8,0:0|0:3|0:3,0:0:0:0:
382,229,133983,2,0,L|268:228,2,92.5,0|8|0,0:0|0:0|0:0,0:0:0:0:
92,111,134560,6,0,L|84:214,1,92.5,4|0,0:0|0:0,0:0:0:0:
250,230,134945,2,0,L|352:240,1,92.5,0|8,0:0|0:3,0:0:0:0:
175,83,135329,1,8,0:3:0:0:
83,120,135521,1,0,0:0:0:0:
81,207,135713,1,8,0:0:0:0:
170,246,135905,1,8,0:3:0:0:
340,280,136099,6,0,L|352:91,1,185
61,50,136868,2,0,L|49:266,1,185,8|8,0:3|0:0,0:0:0:0:
158,272,137445,1,0,0:0:0:0:
432,297,137637,6,0,P|448:225|280:135,1,277.5,8|8,0:3|0:3,0:0:0:0:
199,164,138406,1,8,0:3:0:0:
370,205,138599,2,0,L|380:96,1,92.5,0|8,0:0|0:0,0:0:0:0:
71,240,138983,6,0,P|61:173|181:121,1,185,8|8,0:3|0:3,0:0:0:0:
244,158,139560,2,0,L|347:164,1,92.5,0|8,0:0|0:3,0:0:0:0:
171,70,139945,2,0,L|159:205,1,92.5,8|0,0:3|0:0,0:0:0:0:
422,267,140329,2,0,L|439:150,1,92.5,8|0,0:0|0:0,0:0:0:0:
166,257,140714,6,0,P|109:207|187:145,1,185,4|0,0:0|0:0,0:0:0:0:
346,165,141291,1,8,0:3:0:0:
169,141,141484,2,0,L|71:140,1,92.5,8|0,0:3|0:0,0:0:0:0:
237,79,141868,1,8,0:0:0:0:
350,224,142060,6,0,L|257:222,2,92.5,8|0|8,0:3|0:0|0:3,0:0:0:0:
189,240,142637,2,0,L|92:241,1,92.5,0|8,0:0|0:3,0:0:0:0:
259,239,143022,2,0,L|378:242,1,92.5,8|0,0:3|0:0,0:0:0:0:
75,92,143407,2,0,L|65:199,1,92.5,8|0,0:0|0:0,0:0:0:0:
341,185,143791,6,0,L|345:74,1,92.5,8|0,0:3|0:0,0:0:0:0:
177,145,144176,1,0,0:0:0:0:
344,90,144368,2,0,L|454:88,1,92.5,8|8,0:3|0:3,0:0:0:0:
268,232,144753,2,0,L|168:237,1,92.5,0|8,0:0|0:0,0:0:0:0:
466,241,145137,6,0,P|467:172|350:100,1,185,8|8,0:3|0:3,0:0:0:0:
218,143,145714,2,0,L|89:149,2,92.5,0|8|8,0:0|0:3|0:3,0:0:0:0:
382,229,146291,2,0,L|268:228,2,92.5,0|8|8,0:0|0:0|0:3,0:0:0:0:
92,111,146868,6,0,L|84:214,1,92.5,4|0,0:0|0:0,0:0:0:0:
250,230,147253,2,0,L|352:240,1,92.5,8|0,0:0|0:0,0:0:0:0:
175,83,147637,1,8,0:3:0:0:
83,120,147829,1,0,0:0:0:0:
81,207,148021,1,8,0:0:0:0:
170,246,148213,1,0,0:0:0:0:
448,216,148406,6,0,L|356:216,2,92.5,8|0|8,0:3|0:0|0:0,0:0:0:0:
186,141,148983,2,0,L|86:144,1,92.5
403,103,149368,2,0,L|500:103,2,92.5,0|8|0,0:0|0:0|0:0,0:0:0:0:
136,243,149945,6,0,L|122:147,1,92.5,4|0,0:0|0:0,0:0:0:0:
284,135,150329,1,12,0:0:0:0:
138,244,150522,2,0,L|31:247,1,92.5,0|4,0:0|0:0,0:0:0:0:
342,194,150906,2,0,L|210:192,2,92.5,0|12|8,0:0|0:0|0:3,0:0:0:0:
80,266,151483,6,0,L|66:153,1,92.5,4|0,0:0|0:0,0:0:0:0:
249,157,151868,2,0,L|347:156,1,92.5,12|0,0:0|0:0,0:0:0:0:
77,269,152253,2,0,L|61:157,1,92.5,4|0,0:0|0:0,0:0:0:0:
362,137,152637,2,0,L|473:137,1,92.5,12|8,0:0|0:3,0:0:0:0:
151,201,153022,6,0,L|46:204,2,92.5,4|0|4,0:0|0:0|0:0,0:0:0:0:
321,122,153599,1,0,0:0:0:0:
148,284,153791,2,0,L|134:164,1,92.5,4|0,0:0|0:0,0:0:0:0:
323,150,154176,2,0,L|424:143,1,92.5,4|8,0:0|0:3,0:0:0:0:
354,84,154464,1,8,0:3:0:0:
155,232,154560,6,0,L|143:128,1,92.5,8|8,0:0|0:0,0:0:0:0:
312,139,154945,1,8,0:0:0:0:
31,302,155137,2,0,L|15:114,1,185,8|0,0:0|0:0,0:0:0:0:
321,183,155714,2,0,L|427:180,1,92.5,8|0,0:0|0:0,0:0:0:0:
94,250,156099,6,0,P|80:183|200:114,1,221.999993225098,4|8,0:0|0:0,0:0:0:0:
352,172,156676,1,0,0:0:0:0:
186,95,156868,2,0,L|176:224,1,110.999996612549,8|0,0:3|0:0,0:0:0:0:
352,172,157252,1,8,0:0:0:0:
180,156,157445,6,0,L|65:153,1,110.999996612549
258,221,157829,2,0,L|370:221,2,110.999996612549,0|8|0,0:0|0:0|0:0,0:0:0:0:
143,185,158406,1,8,0:3:0:0:
436,262,158599,2,0,L|315:264,2,110.999996612549,8|8|0,0:0|0:0|0:0,0:0:0:0:
82,106,159176,6,0,L|71:225,1,110.999996612549,8|0,0:3|0:0,0:0:0:0:
370,129,159560,2,0,L|379:257,1,110.999996612549,8|0,0:0|0:0,0:0:0:0:
85,164,159945,2,0,L|199:167,2,110.999996612549,8|0|8,0:3|0:0|0:0,0:0:0:0:
375,249,160522,6,0,L|383:134,1,110.999996612549
197,142,160906,1,0,0:0:0:0:
378,149,161099,1,8,0:0:0:0:
197,142,161291,2,0,L|74:141,1,110.999996612549,0|8,0:0|0:3,0:0:0:0:
388,244,161676,2,0,L|512:245,2,110.999996612549,0|8|0,0:0|0:0|0:0,0:0:0:0:
92,103,162252,6,0,L|83:237,1,110.999996612549,4|0,0:0|0:0,0:0:0:0:
246,253,162637,1,8,0:0:0:0:
83,204,162829,1,0,0:0:0:0:
385,175,163022,2,0,L|246:177,2,110.999996612549,8|0|8,0:3|0:0|0:0,0:0:0:0:
72,59,163599,6,0,L|62:187,1,110.999996612549
330,227,163983,1,0,0:0:0:0:
179,136,164176,1,8,0:0:0:0:
469,157,164368,2,0,L|465:293,1,110.999996612549,0|8,0:0|0:3,0:0:0:0:
205,215,164752,2,0,L|86:216,2,110.999996612549,0|8|0,0:0|0:0|0:0,0:0:0:0:
487,244,165329,6,0,L|499:117,1,110.999996612549,8|0,0:3|0:0,0:0:0:0:
341,119,165714,1,8,0:0:0:0:
495,143,165906,1,0,0:0:0:0:
185,205,166099,2,0,L|61:205,2,110.999996612549,8|0|8,0:3|0:0|0:0,0:0:0:0:
468,312,166676,6,0,P|457:222|335:194,1,221.999993225098
182,230,167252,1,8,0:0:0:0:
339,166,167445,2,0,L|462:167,1,110.999996612549,0|8,0:0|0:3,0:0:0:0:
382,115,167733,1,8,0:3:0:0:
195,119,167829,2,0,L|179:53,1,55.4999983062745,8|8,0:3|0:3,0:0:0:0:
365,54,168022,2,0,L|421:74,1,55.4999983062745,8|8,0:3|0:3,0:0:0:0:
214,191,168214,2,0,L|143:197,1,55.4999983062745,8|8,0:3|0:3,0:0:0:0:
418,250,168406,6,0,P|434:182|313:119,1,221.999993225098,4|8,0:0|0:0,0:0:0:0:
160,172,168983,1,0,0:0:0:0:
326,95,169175,2,0,L|340:227,1,110.999996612549,8|0,0:3|0:0,0:0:0:0:
160,172,169559,1,8,0:0:0:0:
332,156,169752,6,0,L|442:162,1,110.999996612549
264,221,170137,2,0,L|151:219,2,110.999996612549,0|8|0,0:0|0:0|0:0,0:0:0:0:
369,185,170713,1,8,0:3:0:0:
82,263,170906,2,0,L|196:264,2,110.999996612549,8|8|0,0:0|0:0|0:0,0:0:0:0:
430,106,171483,6,0,L|441:222,1,110.999996612549,8|0,0:3|0:0,0:0:0:0:
142,129,171867,2,0,L|134:252,1,110.999996612549,8|0,0:0|0:0,0:0:0:0:
427,164,172252,2,0,L|313:168,2,110.999996612549,8|0|8,0:3|0:0|0:0,0:0:0:0:
148,250,172829,6,0,L|135:135,1,110.999996612549
315,142,173213,1,0,0:0:0:0:
134,149,173406,1,8,0:0:0:0:
315,142,173598,2,0,L|439:142,1,110.999996612549,0|8,0:0|0:3,0:0:0:0:
129,245,173983,2,0,L|7:248,2,110.999996612549,0|8|0,0:0|0:0|0:0,0:0:0:0:
420,103,174560,6,0,L|429:230,1,110.999996612549,4|0,0:0|0:0,0:0:0:0:
266,253,174944,1,8,0:0:0:0:
429,204,175136,1,0,0:0:0:0:
127,175,175329,2,0,L|268:170,2,110.999996612549,8|0|8,0:3|0:0|0:0,0:0:0:0:
440,59,175906,6,0,L|452:182,1,110.999996612549
182,227,176290,1,0,0:0:0:0:
333,136,176483,1,8,0:0:0:0:
43,157,176675,2,0,L|51:293,1,110.999996612549,0|8,0:0|0:3,0:0:0:0:
307,215,177060,2,0,L|420:216,2,110.999996612549,0|8|0,0:0|0:0|0:0,0:0:0:0:
43,252,177637,6,0,L|33:145,1,92.5,4|0,0:0|0:0,0:0:0:0:
293,160,178022,1,0,0:0:0:0:
159,185,178214,1,8,0:3:0:0:
416,111,178406,2,0,L|510:111,2,92.5,8|0|0,0:0|0:0|0:0,0:0:0:0:
106,273,178983,6,0,L|96:155,1,92.5
431,162,179368,1,10,0:3:0:0:
274,185,179560,1,10,0:3:0:0:
431,162,179753,1,10,0:3:0:0:
151,177,179945,2,0,L|28:177,1,92.5,10|0,0:3|0:0,0:0:0:0:
358,119,180329,5,12,0:0:0:0:
256,192,189945,12,0,192637,0:0:0:0:
159,226,193022,6,0,L|368:231,1,185,8|8,0:3|0:0,0:0:0:0:
188,152,193599,1,8,0:3:0:0:
362,125,193791,2,0,L|470:130,2,92.5,0|8|8,0:0|0:3|0:0,0:0:0:0:
179,208,194368,1,8,0:3:0:0:
342,111,194560,6,0,L|353:212,1,92.5,8|0,0:3|0:0,0:0:0:0:
179,208,194945,1,8,0:0:0:0:
341,111,195137,2,0,L|446:108,1,92.5,8|0,0:3|0:0,0:0:0:0:
147,141,195522,2,0,L|33:143,2,92.5,8|8|8,0:3|0:0|0:3,0:0:0:0:
422,98,196099,6,0,L|433:209,1,92.5,8|8,0:0|0:0,0:0:0:0:
177,253,196483,2,0,L|164:134,1,92.5,8|8,0:0|0:0,0:0:0:0:
436,136,196868,1,8,0:0:0:0:
301,172,197060,1,8,0:0:0:0:
436,136,197253,1,8,0:0:0:0:
147,160,197445,1,8,0:0:0:0:
410,256,197637,6,0,L|470:256,1,46.25,8|8,0:0|0:0,0:0:0:0:
456,256,197829,2,0,L|410:256,1,46.25,8|8,0:0|0:0,0:0:0:0:
232,174,198022,2,0,L|166:177,1,46.25,8|8,0:0|0:0,0:0:0:0:
346,113,198214,2,0,L|412:111,1,46.25,8|8,0:0|0:0,0:0:0:0:
152,248,198406,6,0,L|138:168,1,46.25,8|8,0:0|0:0,0:0:0:0:
362,88,198599,2,0,L|380:167,1,46.25,8|8,0:0|0:0,0:0:0:0:
142,165,198791,2,0,L|78:166,2,46.25,8|8|8,0:0|0:0|0:0,0:0:0:0:
352,147,199079,1,8,0:0:0:0:
187,219,199753,6,0,L|75:218,2,92.5
360,106,200329,2,0,L|371:218,1,92.5,12|0,0:0|0:0,0:0:0:0:
75,242,200714,6,0,L|64:115,1,110.999996612549,4|0,0:0|0:0,0:0:0:0:
217,134,201099,1,8,0:0:0:0:
65,131,201291,1,0,0:0:0:0:
366,207,201483,2,0,L|487:207,1,110.999996612549,8|0,0:3|0:0,0:0:0:0:
294,145,201868,1,8,0:0:0:0:
464,68,202060,6,0,L|474:181,1,110.999996612549
300,223,202445,1,0,0:0:0:0:
464,68,202637,1,8,0:0:0:0:
300,223,202829,2,0,L|184:226,1,110.999996612549,0|8,0:0|0:3,0:0:0:0:
476,124,203214,2,0,L|359:127,2,110.999996612549,8|8|0,0:0|0:0|0:0,0:0:0:0:
192,178,203791,6,0,L|76:183,1,110.999996612549,8|0,0:3|0:0,0:0:0:0:
410,83,204176,2,0,L|416:212,1,110.999996612549,8|0,0:0|0:0,0:0:0:0:
108,249,204560,2,0,L|224:249,2,110.999996612549,8|0|8,0:3|0:0|0:0,0:0:0:0:
425,105,205137,6,0,L|430:220,1,110.999996612549,0|8,0:0|0:3,0:0:0:0:
267,251,205522,1,0,0:0:0:0:
429,215,205714,1,8,0:0:0:0:
267,251,205906,2,0,L|128:250,1,110.999996612549,0|8,0:0|0:3,0:0:0:0:
475,138,206291,2,0,L|335:141,2,110.999996612549,0|8|0,0:0|0:0|0:0,0:0:0:0:
168,182,206868,5,4,0:0:0:0:
317,140,207060,1,0,0:0:0:0:
29,262,207253,2,0,L|9:147,1,110.999996612549,8|0,0:0|0:0,0:0:0:0:
348,97,207637,2,0,L|460:98,2,110.999996612549,8|0|8,0:3|0:0|0:0,0:0:0:0:
33,245,208214,6,0,L|20:126,1,110.999996612549
326,188,208599,1,0,0:0:0:0:
177,176,208791,1,8,0:0:0:0:
458,67,208983,2,0,L|471:184,1,110.999996612549,0|8,0:0|0:3,0:0:0:0:
86,249,209368,2,0,L|200:246,2,110.999996612549,0|8|0,0:0|0:0|0:0,0:0:0:0:
396,80,209945,6,0,L|405:195,1,110.999996612549,8|0,0:3|0:0,0:0:0:0:
148,270,210329,2,0,L|125:126,1,110.999996612549,8|0,0:0|0:0,0:0:0:0:
456,138,210714,2,0,L|320:142,2,110.999996612549,8|0|8,0:3|0:0|0:0,0:0:0:0:
70,259,211291,6,0,L|63:127,1,110.999996612549
323,125,211676,1,0,0:0:0:0:
177,157,211868,1,8,0:0:0:0:
323,125,212060,1,0,0:0:0:0:
65,242,212253,2,0,L|64:162,1,55.4999983062745,8|8,0:3|0:3,0:0:0:0:
260,198,212445,2,0,L|330:198,1,55.4999983062745,8|8,0:3|0:3,0:0:0:0:
148,109,212637,2,0,L|75:109,1,55.4999983062745,8|8,0:3|0:3,0:0:0:0:
296,79,212829,2,0,L|356:78,1,55.4999983062745,8|8,0:3|0:3,0:0:0:0:
75,242,213022,6,0,L|64:115,1,110.999996612549,4|0,0:0|0:0,0:0:0:0:
217,134,213407,1,8,0:0:0:0:
65,131,213599,1,0,0:0:0:0:
366,207,213791,2,0,L|487:207,1,110.999996612549,8|0,0:3|0:0,0:0:0:0:
294,145,214176,1,8,0:0:0:0:
464,68,214368,6,0,L|474:181,1,110.999996612549
300,223,214753,1,0,0:0:0:0:
464,68,214945,1,8,0:0:0:0:
300,223,215137,2,0,L|184:226,1,110.999996612549,0|8,0:0|0:3,0:0:0:0:
476,124,215522,2,0,L|359:127,2,110.999996612549,8|8|0,0:0|0:0|0:0,0:0:0:0:
192,178,216099,6,0,L|76:183,1,110.999996612549,8|0,0:3|0:0,0:0:0:0:
410,83,216484,2,0,L|416:212,1,110.999996612549,8|0,0:0|0:0,0:0:0:0:
108,249,216868,2,0,L|224:249,2,110.999996612549,8|0|8,0:3|0:0|0:0,0:0:0:0:
425,105,217445,6,0,L|430:220,1,110.999996612549,0|8,0:0|0:3,0:0:0:0:
267,251,217830,1,0,0:0:0:0:
429,215,218022,1,8,0:0:0:0:
267,251,218214,2,0,L|128:250,1,110.999996612549,0|8,0:0|0:3,0:0:0:0:
475,138,218599,2,0,L|335:141,2,110.999996612549,0|8|0,0:0|0:0|0:0,0:0:0:0:
168,182,219176,5,4,0:0:0:0:
317,140,219368,1,0,0:0:0:0:
29,262,219561,2,0,L|9:147,1,110.999996612549,8|0,0:0|0:0,0:0:0:0:
348,97,219945,2,0,L|460:98,2,110.999996612549,8|0|8,0:3|0:0|0:0,0:0:0:0:
33,245,220522,6,0,L|20:126,1,110.999996612549,0|8,0:0|0:3,0:0:0:0:
326,188,220907,1,0,0:0:0:0:
177,176,221099,1,8,0:0:0:0:
441,69,221291,2,0,L|444:186,1,110.999996612549,0|8,0:0|0:3,0:0:0:0:
153,258,221676,2,0,L|267:255,2,110.999996612549,0|8|0,0:0|0:0|0:0,0:0:0:0:
425,82,222253,6,0,L|434:197,1,110.999996612549,8|0,0:3|0:0,0:0:0:0:
148,270,222637,2,0,L|125:126,1,110.999996612549,8|0,0:0|0:0,0:0:0:0:
456,138,223022,2,0,L|320:142,2,110.999996612549,8|0|8,0:3|0:0|0:0,0:0:0:0:
70,259,223599,6,0,L|63:127,1,110.999996612549,8|0,0:3|0:0,0:0:0:0:
323,125,223983,1,8,0:3:0:0:
177,157,224176,1,8,0:0:0:0:
323,125,224368,1,8,0:3:0:0:
162,135,224560,1,8,0:0:0:0:
414,219,224753,2,0,L|479:219,1,55.4999983062745,8|0,0:3|0:0,0:0:0:0:
243,157,224945,2,0,L|172:155,1,55.4999983062745,8|0,0:3|0:0,0:0:0:0:
369,111,225137,2,0,L|447:116,1,55.4999983062745,8|0,0:3|0:0,0:0:0:0:
163,62,225329,6,0,L|150:210,1,110.999996612549,4|0,0:0|0:0,0:0:0:0:
333,240,225714,2,0,L|456:240,1,110.999996612549,8|0,0:0|0:0,0:0:0:0:
137,150,226099,2,0,L|26:148,1,110.999996612549,8|0,0:3|0:0,0:0:0:0:
301,132,226483,1,8,0:0:0:0:
129,25,226676,6,0,L|126:152,1,110.999996612549
301,132,227060,1,0,0:0:0:0:
127,135,227253,1,8,0:0:0:0:
379,222,227445,2,0,L|504:223,1,110.999996612549,0|8,0:0|0:3,0:0:0:0:
158,140,227829,2,0,L|26:139,2,110.999996612549,8|8|0,0:0|0:0|0:0,0:0:0:0:
421,252,228406,6,0,L|436:114,1,110.999996612549,8|0,0:3|0:0,0:0:0:0:
78,68,228791,2,0,L|67:218,1,110.999996612549,8|0,0:0|0:0,0:0:0:0:
354,192,229176,2,0,L|231:194,2,110.999996612549,8|0|8,0:3|0:0|0:0,0:0:0:0:
74,68,229753,6,0,L|69:195,1,110.999996612549,0|8,0:0|0:3,0:0:0:0:
231,241,230137,1,0,0:0:0:0:
70,178,230329,1,8,0:0:0:0:
332,162,230522,2,0,L|457:165,1,110.999996612549,0|8,0:0|0:3,0:0:0:0:
131,97,230906,2,0,L|1:94,2,110.999996612549,0|8|0,0:0|0:0|0:0,0:0:0:0:
413,236,231483,6,0,L|428:113,1,110.999996612549,4|0,0:0|0:0,0:0:0:0:
87,57,231868,2,0,L|66:192,1,110.999996612549,8|0,0:0|0:0,0:0:0:0:
427,232,232253,2,0,L|316:227,2,110.999996612549,8|0|8,0:3|0:0|0:0,0:0:0:0:
55,67,232829,6,0,L|42:190,1,110.999996612549
342,187,233214,1,0,0:0:0:0:
191,150,233406,1,8,0:0:0:0:
463,280,233599,2,0,L|475:126,1,110.999996612549,0|8,0:0|0:3,0:0:0:0:
97,166,233983,2,0,L|231:169,2,110.999996612549,0|8|0,0:0|0:0|0:0,0:0:0:0:
461,274,234560,6,0,L|482:138,1,110.999996612549,8|0,0:3|0:0,0:0:0:0:
192,220,234945,2,0,L|82:213,1,110.999996612549,8|0,0:0|0:0,0:0:0:0:
374,146,235329,2,0,L|485:146,2,110.999996612549,8|0|8,0:3|0:0|0:0,0:0:0:0:
113,278,235906,6,0,L|108:167,1,110.999996612549
452,157,236291,2,0,L|336:164,2,110.999996612549,0|8|0,0:0|0:0|0:0,0:0:0:0:
169,175,236868,2,0,L|80:182,1,55.4999983062745,8|8,0:3|0:3,0:0:0:0:
293,107,237060,2,0,L|367:103,1,55.4999983062745,8|8,0:3|0:3,0:0:0:0:
153,240,237253,2,0,L|129:171,1,55.4999983062745,8|8,0:3|0:3,0:0:0:0:
323,188,237445,2,0,L|388:187,1,55.4999983062745,8|8,0:3|0:3,0:0:0:0:
103,34,237637,6,0,L|90:182,1,110.999996612549,4|0,0:0|0:0,0:0:0:0:
278,213,238022,2,0,L|401:213,1,110.999996612549,8|0,0:0|0:0,0:0:0:0:
120,136,238407,2,0,L|9:134,1,110.999996612549,8|0,0:3|0:0,0:0:0:0:
301,132,238791,1,8,0:0:0:0:
129,25,238984,6,0,L|126:152,1,110.999996612549
301,132,239368,1,0,0:0:0:0:
127,135,239561,1,8,0:0:0:0:
385,224,239753,2,0,L|510:225,1,110.999996612549,0|8,0:0|0:3,0:0:0:0:
158,140,240137,2,0,L|26:139,2,110.999996612549,8|8|0,0:0|0:0|0:0,0:0:0:0:
421,252,240714,6,0,L|436:114,1,110.999996612549,8|0,0:3|0:0,0:0:0:0:
78,68,241099,2,0,L|67:218,1,110.999996612549,8|0,0:0|0:0,0:0:0:0:
354,192,241484,2,0,L|231:194,2,110.999996612549,8|0|8,0:3|0:0|0:0,0:0:0:0:
74,68,242061,6,0,L|69:195,1,110.999996612549,0|8,0:0|0:3,0:0:0:0:
231,241,242445,1,0,0:0:0:0:
70,178,242637,1,8,0:0:0:0:
334,161,242830,2,0,L|459:164,1,110.999996612549,0|8,0:0|0:3,0:0:0:0:
131,97,243214,2,0,L|1:94,2,110.999996612549,0|8|0,0:0|0:0|0:0,0:0:0:0:
413,236,243791,6,0,L|428:113,1,110.999996612549,4|0,0:0|0:0,0:0:0:0:
87,57,244176,2,0,L|66:192,1,110.999996612549,8|0,0:0|0:0,0:0:0:0:
427,232,244561,2,0,L|316:227,2,110.999996612549,8|0|8,0:3|0:0|0:0,0:0:0:0:
55,67,245137,6,0,L|42:190,1,110.999996612549,0|8,0:0|0:3,0:0:0:0:
342,187,245522,1,0,0:0:0:0:
191,150,245714,1,8,0:0:0:0:
463,280,245907,2,0,L|475:126,1,110.999996612549,0|8,0:0|0:3,0:0:0:0:
126,168,246291,2,0,L|16:167,2,110.999996612549,0|8|0,0:0|0:0|0:0,0:0:0:0:
389,275,246868,6,0,L|396:170,1,92.5,4|0,0:0|0:0,0:0:0:0:
216,185,247253,2,0,L|115:187,1,92.5,0|8,0:0|0:3,0:0:0:0:
375,149,247637,2,0,L|380:270,1,92.5,8|0,0:0|0:0,0:0:0:0:
225,273,248022,1,0,0:0:0:0:
375,149,248214,6,0,L|488:148,1,92.5
145,178,248599,1,10,0:3:0:0:
300,175,248791,1,10,0:3:0:0:
145,178,248983,1,10,0:3:0:0:
439,82,249176,2,0,L|444:206,1,92.5,10|0,0:3|0:0,0:0:0:0:
165,231,249560,2,0,L|66:234,1,92.5,12|0,0:0|0:0,0:0:0:0:
425,79,249945,6,0,L|436:185,1,92.5,4|0,0:0|0:0,0:0:0:0:
265,176,250330,2,0,L|165:180,1,92.5,8|0,0:0|0:0,0:0:0:0:
336,98,250714,2,0,L|437:98,2,92.5,8|0|8,0:3|0:0|0:0,0:0:0:0:
174,133,251291,1,0,0:0:0:0:
436,61,251484,6,0,L|444:164,1,92.5,8|0,0:3|0:0,0:0:0:0:
269,211,251868,2,0,L|163:217,1,92.5,8|0,0:0|0:0,0:0:0:0:
328,123,252253,1,8,0:3:0:0:
176,216,252445,6,0,L|163:103,1,92.5,8|8,0:0|0:0,0:0:0:0:
328,123,252830,1,0,0:0:0:0:
56,234,253022,6,0,L|45:108,1,92.5,8|0,0:3|0:0,0:0:0:0:
212,90,253407,2,0,L|324:93,1,92.5,8|0,0:0|0:0,0:0:0:0:
144,195,253791,2,0,L|40:196,2,92.5,8|0|8,0:3|0:0|0:0,0:0:0:0:
305,127,254368,1,0,0:0:0:0:
42,249,254561,6,0,L|32:131,1,92.5,8|0,0:3|0:0,0:0:0:0:
310,174,254945,2,0,L|416:174,1,92.5,8|0,0:0|0:0,0:0:0:0:
136,124,255330,2,0,L|35:127,2,92.5,8|0|8,0:3|0:0|0:0,0:0:0:0:
307,82,255907,1,0,0:0:0:0:
50,256,256099,6,0,L|38:139,1,92.5,4|0,0:0|0:0,0:0:0:0:
207,166,256484,2,0,L|314:162,1,92.5,8|0,0:0|0:0,0:0:0:0:
133,242,256868,2,0,P|136:174|243:122,1,185,8|8,0:3|0:0,0:0:0:0:
389,136,257445,1,0,0:0:0:0:
230,226,257638,6,0,L|219:113,1,92.5,8|0,0:3|0:0,0:0:0:0:
389,136,258022,2,0,L|405:255,1,92.5,8|0,0:0|0:0,0:0:0:0:
245,271,258407,1,8,0:3:0:0:
389,136,258599,1,8,0:0:0:0:
245,271,258791,2,0,L|356:271,1,92.5,8|0,0:0|0:0,0:0:0:0:
78,166,259176,5,8,0:3:0:0:
331,98,259561,1,8,0:3:0:0:
123,221,259945,2,0,L|23:226,2,92.5,8|8|8,0:3|0:3|0:3,0:0:0:0:
428,62,260522,6,0,L|437:267,1,185,8|8,0:3|0:3,0:0:0:0:
118,288,261099,2,0,P|111:221|338:65,1,370,8|12,0:3|0:0,0:0:0:0:
433,113,262060,1,0,0:0:0:0:
145,215,262253,6,0,L|26:221,2,92.5,8|8|8,0:3|0:3|0:0,0:0:0:0:
399,153,262829,2,0,L|492:154,2,92.5,8|8|8,0:3|0:3|0:0,0:0:0:0:
85,129,263406,5,12,0:0:0:0:
256,192,263599,12,0,265137,0:0:0:0:
256,192,265329,12,0,271483,0:0:0:0:
