osu file format v14

[General]
AudioFilename: audio.mp3
AudioLeadIn: 0
PreviewTime: 163550
Countdown: 0
SampleSet: Soft
StackLeniency: 0.3
Mode: 0
LetterboxInBreaks: 0
WidescreenStoryboard: 0

[Editor]
DistanceSpacing: 1.2
BeatDivisor: 4
GridSize: 32
TimelineZoom: 3.299999

[Metadata]
Title:Kaimin! Anmin! Syalist Seikatsu
TitleUnicode:快眠!安眠!スヤリスト生活
Artist:Syalis Hime (CV: Minase Inori)
ArtistUnicode:スヤリス姫 (CV: 水瀬いのり)
Creator:Vararaup
Version:Mighty Quest for Sleep!
Source:魔王城でおやすみ
Tags:sleepy princess in the demon castle maoujou de oyasumi opening op anime japanese pop jpop j-pop オーロラ・栖夜・リース・カイミーン aurora syalis sleep hime goodnight 新田目駿 Shun Nitta
BeatmapID:2926504
BeatmapSetID:1420775

[Difficulty]
HPDrainRate:6
CircleSize:4
OverallDifficulty:8
ApproachRate:8.8
SliderMultiplier:2.4
SliderTickRate:1

[Events]
//Background and Video events
0,0,"0_AgIbkQYf5uHNexM5.jpg",0,0
//Break Periods
2,163751,169943
//Storyboard Layer 0 (Background)
//Storyboard Layer 1 (Fail)
//Storyboard Layer 2 (Pass)
//Storyboard Layer 3 (Foreground)
//Storyboard Layer 4 (Overlay)
//Storyboard Sound Samples

[TimingPoints]
-1343,425.531914893617,4,2,1,5,1,0
5252,-166.666666666667,4,2,1,45,0,0
10571,-111.111111111111,4,2,1,60,0,0
11422,-142.857142857143,4,2,1,60,0,0
12273,-111.111111111111,4,2,1,60,0,0
15677,-200,4,2,1,40,0,0
19082,-111.111111111111,4,2,1,60,0,0
25890,-142.857142857143,4,2,1,45,0,0
32699,-111.111111111111,4,2,1,60,0,0
39082,-111.111111111111,4,2,3,30,0,0
39507,-142.857142857143,4,2,2,50,0,0
46316,-111.111111111111,4,2,1,60,0,0
51422,-181.818181818182,4,2,1,60,0,0
51848,-142.857142857143,4,2,1,60,0,0
52273,-117.647058823529,4,2,1,60,0,0
52699,-100,4,2,1,60,0,0
54401,-111.111111111111,4,2,1,60,0,0
54826,-100,4,2,1,60,0,0
56316,-90.9090909090909,4,2,1,70,0,1
56741,-100,4,2,1,70,0,1
68443,-90.9090909090909,4,2,1,70,0,1
68869,-83.3333333333333,4,2,1,70,0,1
69294,-76.9230769230769,4,2,1,70,0,1
69720,-100,4,2,1,60,0,0
69933,-90.9090909090909,4,2,1,70,0,1
70358,-100,4,2,1,70,0,1
78656,-90.9090909090909,4,2,1,70,0,1
80358,-100,4,2,1,70,0,1
82061,-200,4,2,1,50,0,0
83763,-111.111111111111,4,2,1,60,0,0
90571,-142.857142857143,4,2,1,50,0,0
96954,-111.111111111111,4,2,1,60,0,0
103763,-111.111111111111,4,2,3,30,0,0
104188,-142.857142857143,4,2,2,50,0,0
110997,-111.111111111111,4,2,1,60,0,0
116103,-181.818181818182,4,2,1,60,0,0
116528,-142.857142857143,4,2,1,60,0,0
116954,-117.647058823529,4,2,1,60,0,0
117380,-100,4,2,1,60,0,0
120997,-90.9090909090909,4,2,1,70,0,1
121422,-100,4,2,1,70,0,1
133124,-90.9090909090909,4,2,1,70,0,1
133550,-83.3333333333333,4,2,1,70,0,1
133975,-76.9230769230769,4,2,1,70,0,1
134401,-100,4,2,1,60,0,0
134614,-90.9090909090909,4,2,1,70,0,1
135039,-100,4,2,1,70,0,1
143337,-90.9090909090909,4,2,1,70,0,1
145039,-100,4,2,1,70,0,1
146742,-200,4,2,1,50,0,0
148443,-111.111111111111,4,2,1,65,0,0
156528,-200,4,2,1,65,0,0
156954,-111.111111111111,4,2,1,65,0,0
158231,-200,4,2,1,65,0,0
158656,-111.111111111111,4,2,1,65,0,0
160145,-142.857142857143,4,2,1,65,0,0
161209,-76.9230769230769,4,2,1,65,0,0
161635,-52.6315789473684,4,2,1,65,0,0
162060,-200,4,2,1,50,0,0
170571,-200,4,2,1,30,0,0
173763,-111.111111111111,4,2,1,50,0,0
174614,-105.263157894737,4,2,1,50,0,0
175465,-100,4,2,1,50,0,0
175677,-90.9090909090909,4,2,1,50,0,0
176103,-83.3333333333333,4,2,1,55,0,0
176528,-76.9230769230769,4,2,1,60,0,0
177167,-400,4,2,1,50,0,0
177805,-100,4,2,1,70,0,1
185890,-90.9090909090909,4,2,1,70,0,1
187593,-100,4,2,1,60,0,0
190997,-100,4,2,1,70,0,1
194401,-111.111111111111,4,2,1,60,0,0
196103,-333.333333333333,4,2,1,40,0,0
199507,-111.111111111111,4,2,1,60,0,0
209720,-105.263157894737,4,2,1,60,0,0
213337,-200,4,2,1,5,0,0

[Colours]
Combo1 : 136,167,217
Combo2 : 142,117,189
Combo3 : 234,111,111
Combo4 : 251,218,106

[HitObjects]
256,192,3763,12,0,5039,0:2:0:0:
28,320,5252,6,0,B|65:308|105:321|89:336|120:349|166:339,1,143.999995605469,6|2,3:2|0:2,0:0:0:0:
237,265,5890,1,2,0:2:0:0:
241,286,6103,1,2,0:2:0:0:
219,178,6316,2,0,P|171:202|146:249,1,107.999996704102,2|2,0:2|0:2,0:0:0:0:
414,115,6954,6,0,P|412:186|415:260,1,143.999995605469,6|2,3:2|0:2,0:0:0:0:
483,341,7592,1,2,0:2:0:0:
494,322,7805,1,2,0:2:0:0:
390,345,8018,2,0,B|334:335|358:312|293:303,1,107.999996704102,2|2,0:2|0:2,0:0:0:0:
73,358,8656,6,0,P|127:316|131:245,1,143.999995605469,6|2,3:2|0:2,0:0:0:0:
48,201,9295,2,0,P|40:235|45:271,1,71.9999978027344,2|2,0:2|0:2,0:0:0:0:
122,159,9720,2,0,P|129:124|124:88,1,71.9999978027344,2|2,0:2|0:2,0:0:0:0:
10,56,10145,6,0,P|28:58|46:54,1,35.9999989013672,2|0,0:2|0:2,0:0:0:0:
112,3,10358,2,0,P|129:1|147:5,1,35.9999989013672,2|0,0:2|0:2,0:0:0:0:
399,53,10571,6,0,B|407:87|376:99|343:84|343:84|310:68|268:81,1,161.999995056153,6|0,3:2|0:2,0:0:0:0:
205,144,10997,2,0,P|243:208|299:167,1,161.999995056153,0|0,3:2|0:2,0:0:0:0:
267,81,11422,6,0,P|254:67|233:63,3,41.9999987182618,0|0|0|0,3:2|0:2|0:2|0:2,0:0:0:0:
232,63,11848,5,2,3:2:0:0:
266,37,11954,1,2,0:2:0:0:
309,37,12060,1,2,0:2:0:0:
347,56,12167,1,2,0:2:0:0:
372,92,12273,6,0,P|422:111|474:98,1,107.999996704102,6|0,3:2|0:2,0:0:0:0:
291,126,12699,2,0,P|298:183|297:241,1,107.999996704102,10|0,3:2|0:2,0:0:0:0:
235,337,13124,1,6,3:2:0:0:
98,274,13337,1,2,0:2:0:0:
20,345,13550,5,10,3:2:0:0:
195,217,13763,1,2,0:2:0:0:
18,86,13975,6,0,B|70:68|129:93|105:119|161:142|220:124,1,215.999993408203,6|10,3:2|3:2,0:0:0:0:
184,38,14614,1,2,0:2:0:0:
50,169,14826,2,0,P|42:221|61:272,1,107.999996704102,6|0,3:2|0:2,0:0:0:0:
187,363,15252,5,10,3:2:0:0:
205,337,15358,1,2,0:2:0:0:
234,324,15465,1,2,0:2:0:0:
265,328,15571,1,2,0:2:0:0:
290,349,15677,6,0,B|362:299|368:192|289:175|248:218,1,240,14|0,3:2|0:2,0:0:0:0:
251,216,16741,2,0,P|259:245|246:272,2,60,2|2|2,0:2|0:2|0:2,0:0:0:0:
177,52,17380,5,6,3:2:0:0:
296,63,17805,1,2,0:2:0:0:
381,147,18231,1,2,0:2:0:0:
502,28,18656,6,0,L|507:51,6,15,10|0|0|0|0|0|0,3:2|0:2|0:2|0:2|0:2|0:2|0:2,0:0:0:0:
394,60,19082,6,0,P|341:65|303:102,1,107.999996704102,6|2,3:2|0:2,0:0:0:0:
276,193,19401,1,2,0:2:0:0:
276,193,19507,2,0,P|226:196|217:147,1,107.999996704102,10|0,3:2|0:2,0:0:0:0:
480,46,19933,5,2,3:2:0:0:
483,78,20039,1,2,0:2:0:0:
471,109,20145,2,0,P|462:135|469:161,1,53.9999983520508,2|0,0:2|0:2,0:0:0:0:
512,239,20358,2,0,B|456:236|474:267|409:264,1,107.999996704102,10|0,3:2|0:2,0:0:0:0:
288,369,20784,6,0,P|312:321|301:269,1,107.999996704102,2|2,3:2|0:2,0:0:0:0:
255,191,21103,1,2,0:2:0:0:
255,191,21209,2,0,P|206:200|210:249,1,107.999996704102,10|0,3:2|0:2,0:0:0:0:
73,351,21635,5,2,3:2:0:0:
84,321,21741,1,2,0:2:0:0:
69,290,21848,2,0,P|58:284|45:282,2,26.9999991760254,2|0|0,0:2|0:2|0:2,0:0:0:0:
0,191,22061,2,0,P|55:196|105:180,1,107.999996704102,10|0,3:2|0:2,0:0:0:0:
224,17,22486,6,0,P|213:77|217:144,1,107.999996704102,6|2,3:2|0:2,0:0:0:0:
272,206,22805,1,2,0:2:0:0:
272,206,22912,2,0,P|241:244|198:219,1,107.999996704102,10|0,3:2|0:2,0:0:0:0:
409,10,23337,5,2,3:2:0:0:
438,22,23443,1,2,0:2:0:0:
455,49,23550,2,0,P|460:75|455:104,1,53.9999983520508,2|0,0:2|0:2,0:0:0:0:
452,191,23763,2,0,B|397:194|414:163|349:166,1,107.999996704102,10|0,3:2|0:2,0:0:0:0:
181,117,24188,6,0,P|203:165|196:217,1,107.999996704102,2|2,3:2|0:2,0:0:0:0:
132,283,24507,1,2,0:2:0:0:
132,283,24614,2,0,P|155:326|202:309,1,107.999996704102,10|0,3:2|0:2,0:0:0:0:
4,108,25039,5,2,3:2:0:0:
31,124,25145,1,2,0:2:0:0:
63,120,25252,2,0,P|75:112|82:102,2,26.9999991760254,2|0|0,0:2|0:2|0:2,0:0:0:0:
146,16,25465,2,0,P|195:18|251:47,1,107.999996704102,10|0,3:2|0:2,0:0:0:0:
343,184,25890,5,4,0:2:0:0:
343,184,26316,2,0,P|337:223|354:263,1,83.9999974365235,2|2,0:2|0:2,0:0:0:0:
491,307,26741,2,0,B|448:301|402:320|423:338|378:358|331:348,1,167.999994873047,2|2,0:2|0:2,0:0:0:0:
228,282,27380,5,2,0:2:0:0:
228,282,27486,1,2,0:2:0:0:
228,282,27592,2,0,P|236:325|224:364,1,83.9999974365235,2|2,0:2|0:2,0:0:0:0:
61,307,28018,2,0,P|102:312|144:315,1,83.9999974365235,2|2,0:2|0:2,0:0:0:0:
280,207,28443,5,2,0:2:0:0:
280,207,28656,2,0,L|291:237,2,27.9999991455078,2|2|2,0:2|0:2|0:2,0:0:0:0:
270,196,28869,2,0,P|231:194|179:187,1,83.9999974365235,2|0,0:2|0:2,0:0:0:0:
24,67,29294,6,0,B|0:62|-15:108|17:126|44:169|26:222,2,167.999994873047,2|2|2,0:2|0:2|0:2,0:0:0:0:
24,67,30571,1,2,0:2:0:0:
109,117,30784,1,2,0:2:0:0:
209,38,30997,6,0,P|285:49|377:48,1,167.999994873047,2|2,0:2|0:2,0:0:0:0:
476,38,31635,1,2,0:2:0:0:
367,135,31848,2,0,P|342:193|362:255,1,125.999996154785,2|0,0:2|0:2,0:0:0:0:
450,194,32273,6,0,L|419:198,1,20.9999993591309,8|0,3:2|0:2,0:0:0:0:
504,364,32699,6,0,P|512:309|509:257,1,107.999996704102,4|0,3:2|0:2,0:0:0:0:
473,116,33124,1,10,3:2:0:0:
429,196,33337,1,2,0:2:0:0:
303,54,33550,2,0,P|338:107|384:121,1,107.999996704102,2|0,3:2|0:2,0:0:0:0:
465,33,33975,1,10,3:2:0:0:
343,210,34188,5,2,0:2:0:0:
343,210,34294,1,2,0:2:0:0:
343,210,34401,2,0,P|280:214|232:213,1,107.999996704102,2|0,3:2|0:2,0:0:0:0:
99,196,34826,1,10,3:2:0:0:
147,307,35039,1,2,0:2:0:0:
32,376,35252,6,0,P|53:327|47:274,1,107.999996704102,2|0,3:2|0:2,0:0:0:0:
0,175,35677,1,8,3:2:0:0:
99,51,35890,1,2,0:2:0:0:
99,51,35997,1,2,0:2:0:0:
99,51,36103,2,0,B|152:30|214:56|184:80|241:108|304:91,1,215.999993408203,2|10,3:2|3:2,0:0:0:0:
270,6,36741,1,2,0:2:0:0:
137,132,36954,5,2,3:2:0:0:
182,231,37167,1,2,0:2:0:0:
141,323,37380,5,10,3:2:0:0:
235,152,37592,1,2,0:2:0:0:
451,189,37805,5,2,3:2:0:0:
430,182,38017,1,2,0:2:0:0:
408,185,38230,1,2,3:2:0:0:
393,200,38443,1,2,0:2:0:0:
270,6,38656,1,2,3:2:0:0:
416,42,39082,5,2,0:2:0:0:
388,326,39507,6,0,P|446:308|510:304,2,125.999996154785,6|2|2,3:2|0:2|3:2,3:0:0:0:
280,373,40358,1,2,0:2:0:0:
309,204,40571,1,8,0:2:0:0:
309,204,40677,1,8,0:2:0:0:
309,204,40784,2,0,P|318:244|308:285,1,83.9999974365235,8|2,0:2|3:2,0:0:0:0:
99,214,41209,6,0,P|158:234|221:237,2,125.999996154785,2|2|2,3:2|3:2|3:2,3:0:0:0:
0,145,42060,1,2,0:2:0:0:
43,294,42273,1,8,0:2:0:0:
43,294,42380,1,8,0:2:0:0:
43,294,42486,2,0,P|45:337|43:379,1,83.9999974365235,8|0,0:2|3:2,0:0:0:0:
191,341,42911,6,0,P|253:335|313:350,2,125.999996154785,2|2|2,3:2|3:2|3:2,3:0:0:0:
221,236,43763,1,2,0:2:0:0:
328,217,43975,1,10,3:2:0:0:
348,214,44082,1,8,0:2:0:0:
367,222,44188,1,10,0:2:0:0:
420,317,44401,1,2,3:2:0:0:
500,99,44614,5,2,3:2:0:0:
458,26,45039,1,2,3:2:0:0:
374,36,45465,1,2,3:2:0:0:
343,114,45890,1,2,3:2:0:0:
80,36,46316,6,0,P|36:66|19:117,1,107.999996704102,6|0,3:2|0:2,0:0:0:0:
153,210,46635,2,0,P|147:157|112:117,1,107.999996704102,2|0,0:2|0:2,0:0:0:0:
67,199,46954,1,2,0:2:0:0:
57,218,47167,1,2,3:2:0:0:
201,37,47380,6,0,P|226:26|253:25,1,53.9999983520508,8|0,0:1|0:2,0:0:0:0:
270,106,47592,2,0,P|244:115|218:115,1,53.9999983520508,8|0,3:1|0:2,0:0:0:0:
457,336,48018,6,0,P|464:283|437:236,1,107.999996704102,6|0,3:2|0:2,0:0:0:0:
278,273,48337,2,0,P|321:304|374:304,1,107.999996704102,2|0,0:2|0:2,0:0:0:0:
344,217,48656,1,2,0:2:0:0:
335,197,48869,1,2,3:2:0:0:
184,349,49082,6,0,P|186:318|177:285,1,53.9999983520508,8|0,0:1|0:2,0:0:0:0:
97,302,49294,2,0,P|94:328|101:354,1,53.9999983520508,8|0,3:1|0:2,0:0:0:0:
362,39,49720,5,6,3:2:0:0:
382,122,49933,1,2,0:2:0:0:
466,101,50146,1,2,0:2:0:0:
446,18,50358,1,2,0:2:0:0:
209,264,50571,5,2,0:2:0:0:
229,181,50784,1,2,0:2:0:0:
313,202,50997,1,2,0:2:0:0:
293,285,51209,1,2,0:2:0:0:
90,53,51422,6,0,P|94:85|94:120,1,66.0000020141602,2|0,3:2|0:2,0:0:0:0:
90,54,51848,6,0,P|94:95|94:137,1,83.9999974365235,0|0,3:2|0:2,0:0:0:0:
90,54,52273,6,0,P|94:104|94:155,1,102.000001945496,0|0,3:2|0:2,0:0:0:0:
90,54,52699,6,0,P|94:108|94:176,1,120,0|0,3:2|0:2,0:0:0:0:
24,350,53124,5,6,3:2:0:0:
48,317,53266,1,2,0:2:0:0:
93,303,53408,1,2,0:2:0:0:
146,320,53550,5,2,0:2:0:0:
186,358,53692,1,2,0:2:0:0:
249,361,53833,1,2,0:2:0:0:
308,320,53975,5,2,0:2:0:0:
300,248,54117,1,2,0:2:0:0:
235,216,54259,1,2,0:2:0:0:
170,258,54401,6,0,P|193:329|255:331,1,143.999995605469,10|0,3:2|0:2,0:0:0:0:
481,355,54826,5,14,3:2:0:0:
455,314,54968,1,2,0:2:0:0:
466,259,55110,1,2,0:2:0:0:
508,200,55252,5,2,0:2:0:0:
499,128,55394,1,2,0:2:0:0:
438,89,55536,1,2,0:2:0:0:
387,112,55677,5,2,0:2:0:0:
373,158,55819,1,2,0:2:0:0:
394,191,55961,1,2,0:2:0:0:
424,199,56103,6,0,P|438:199|453:194,2,30,2|0|0,0:2|0:2|0:2,0:0:0:0:
237,29,56316,6,0,B|214:54|214:54|257:183|257:183|242:209,1,198.000006042481,14|0,3:2|0:2,0:0:0:0:
235,298,56741,6,0,P|203:291|179:276,1,60,2|0,0:2|0:2,0:0:0:0:
42,305,56954,2,0,P|64:280|89:267,1,60,10|0,3:2|0:2,0:0:0:0:
126,127,57167,2,0,P|135:158|134:186,1,60,2|0,0:2|0:2,0:0:0:0:
304,365,57380,6,0,P|326:295|316:252,1,120,2|0,3:2|0:2,0:0:0:0:
325,307,57699,2,0,P|346:325|378:333,1,60,2|8,3:2|3:2,0:0:0:0:
505,118,58018,6,0,P|436:43|366:59,1,180,14|0,3:2|0:2,0:0:0:0:
358,142,58443,2,0,P|386:140|415:129,1,60,2|0,0:2|0:2,0:0:0:0:
250,36,58656,2,0,P|273:54|290:79,1,60,10|0,3:2|0:2,0:0:0:0:
252,229,58869,2,0,P|256:199|269:172,1,60,2|0,0:2|0:2,0:0:0:0:
122,30,59082,6,0,P|129:87|129:151,1,120,2|0,3:2|0:2,0:0:0:0:
129,98,59401,2,0,P|108:80|76:72,1,60,2|8,3:2|3:2,0:0:0:0:
14,311,59720,6,0,B|59:289|114:314|89:331|137:354|182:337,1,180,14|0,3:2|0:2,0:0:0:0:
250,273,60145,1,2,0:2:0:0:
129,98,60358,5,10,3:2:0:0:
155,251,60571,1,2,0:2:0:0:
42,150,60784,5,2,3:2:0:0:
56,237,60997,1,2,0:2:0:0:
213,49,61209,5,10,3:2:0:0:
250,273,61422,1,2,0:2:0:0:
457,128,61635,6,0,P|419:153|345:157,1,120,6|0,3:2|0:2,0:0:0:0:
102,78,62061,2,0,P|140:53|214:49,1,120,10|0,3:2|0:2,0:0:0:0:
200,261,62487,2,0,L|180:142,1,120,2|0,3:2|0:2,0:0:0:0:
337,66,62912,2,0,P|337:104|345:128,1,60,10|0,3:2|0:2,0:0:0:0:
501,201,63125,5,2,0:2:0:0:
508,230,63232,1,2,0:2:0:0:
496,258,63338,2,0,P|448:292|387:290,1,120,6|0,3:2|0:2,0:0:0:0:
180,142,63763,2,0,B|184:109|228:105|259:148|306:147|344:125,1,180,10|0,3:2|0:2,0:0:0:0:
421,61,64189,5,2,3:2:0:0:
496,258,64402,1,2,0:2:0:0:
389,290,64615,5,10,3:2:0:0:
464,171,64827,2,0,P|432:189|416:207,1,60,2|0,0:2|0:2,0:0:0:0:
294,347,65040,6,0,P|231:364|178:353,1,120,6|0,3:2|0:2,0:0:0:0:
129,278,65359,1,2,0:2:0:0:
129,278,65466,2,0,P|70:295|86:339,1,120,10|0,3:2|0:2,0:0:0:0:
256,155,65891,6,0,P|263:118|260:93,1,60,2|0,3:2|0:2,0:0:0:0:
132,16,66104,2,0,P|125:53|128:78,1,60,2|0,0:2|0:2,0:0:0:0:
11,165,66317,2,0,B|79:161|63:189|128:186,1,120,10|0,3:2|0:2,0:0:0:0:
251,249,66636,5,2,0:2:0:0:
251,249,66742,2,0,P|315:229|345:187,1,120,6|0,3:2|0:2,0:0:0:0:
439,193,67061,2,0,P|419:129|377:99,1,120,2|0,0:0|0:2,0:0:0:0:
400,277,67381,1,2,0:2:0:0:
267,73,67593,6,0,P|203:93|173:135,1,120,6|0,3:2|0:2,0:0:0:0:
79,129,67912,2,0,P|99:193|141:223,1,120,2|0,0:0|0:2,0:0:0:0:
104,42,68232,1,2,0:2:0:0:
302,172,68444,6,0,B|285:141|235:164|247:205|281:224|293:257|284:290|266:317,1,198.000006042481,14|0,3:2|0:2,0:0:0:0:
132,376,68870,6,0,P|89:293|182:268,1,215.999993408203,14|0,3:2|0:2,0:0:0:0:
374,328,69295,6,0,P|465:303|467:174,1,233.999989288331,14|0,3:2|0:2,0:0:0:0:
378,221,69721,6,0,L|409:244,2,30,0|0|0,0:2|0:2|0:2,0:0:0:0:
504,98,69934,6,0,B|475:80|475:80|355:142|355:142|326:131,1,198.000006042481,14|0,3:2|0:2,0:0:0:0:
305,0,70359,6,0,P|328:18|345:42,1,60,2|0,0:2|0:2,0:0:0:0:
166,86,70572,2,0,P|170:56|182:29,1,60,10|0,3:2|0:2,0:0:0:0:
249,192,70785,2,0,P|221:202|191:206,1,60,2|0,0:2|0:2,0:0:0:0:
26,69,70998,6,0,P|55:109|68:182,1,120,2|0,3:2|0:2,0:0:0:0:
75,112,71317,1,2,3:2:0:0:
82,95,71423,1,8,3:2:0:0:
24,332,71636,6,0,B|51:305|88:321|121:350|156:369|192:349,1,180,14|0,3:2|0:2,0:0:0:0:
287,372,72061,2,0,P|288:339|281:310,1,60,2|0,0:2|0:2,0:0:0:0:
140,236,72274,2,0,P|168:253|196:261,1,60,10|0,3:2|0:2,0:0:0:0:
333,176,72487,2,0,P|303:191|282:212,1,60,2|0,0:2|0:2,0:0:0:0:
388,365,72700,6,0,P|421:319|483:298,1,120,2|0,3:2|0:2,0:0:0:0:
435,331,73019,1,2,3:2:0:0:
437,348,73125,1,8,3:2:0:0:
512,133,73338,6,0,P|457:69|371:95,1,180,14|0,3:2|0:2,0:0:0:0:
333,176,73764,1,2,0:2:0:0:
171,57,73976,5,10,3:2:0:0:
210,207,74189,1,2,0:2:0:0:
88,116,74402,5,2,3:2:0:0:
110,201,74615,1,2,0:2:0:0:
250,0,74827,5,10,3:2:0:0:
306,220,75040,1,2,0:2:0:0:
41,29,75253,5,6,3:2:0:0:
22,53,75359,1,2,0:2:0:0:
18,82,75466,1,2,0:2:0:0:
33,108,75572,1,2,0:2:0:0:
88,152,75678,5,10,3:2:0:0:
103,178,75784,1,2,0:2:0:0:
99,207,75891,1,2,0:2:0:0:
80,231,75997,1,2,0:2:0:0:
15,262,76104,6,0,P|73:264|136:276,1,120,2|0,3:2|0:2,0:0:0:0:
281,367,76529,2,0,P|267:338|267:307,1,60,8|0,3:2|0:2,0:0:0:0:
388,146,76742,5,2,0:2:0:0:
403,171,76849,1,2,0:2:0:0:
408,200,76955,2,0,P|409:262|380:311,1,120,6|0,3:2|0:2,0:0:0:0:
110,112,77381,2,0,B|155:91|205:111|185:131|233:150|282:131,1,180,10|0,3:2|0:2,0:0:0:0:
368,73,77806,5,6,3:2:0:0:
277,257,78019,1,2,0:2:0:0:
248,54,78232,1,10,3:2:0:0:
441,264,78444,5,2,0:2:0:0:
471,265,78551,1,2,0:2:0:0:
502,251,78657,2,0,B|529:221|510:197|467:217|467:217|425:236|378:224|358:199,1,198.000006042481,6|0,3:2|0:2,0:0:0:0:
344,48,79083,6,0,P|403:33|401:154,1,198.000006042481,10|0,3:2|0:2,0:0:0:0:
289,151,79508,6,0,B|265:114|212:119|194:155|137:170|104:153,1,198.000006042481,6|0,3:2|0:2,0:0:0:0:
196,144,79934,1,2,3:2:0:0:
212,172,80040,1,2,0:2:0:0:
215,211,80146,1,2,0:2:0:0:
201,255,80253,1,2,0:2:0:0:
164,293,80359,6,0,P|102:304|50:284,1,120,6|0,3:2|0:2,0:0:0:0:
20,60,80785,2,0,P|82:49|134:69,1,120,8|0,3:2|0:2,0:0:0:0:
289,214,81210,5,0,3:2:0:0:
339,233,81317,1,0,0:2:0:0:
372,190,81423,1,2,0:2:0:0:
339,147,81529,1,0,0:2:0:0:
288,166,81636,5,10,3:2:0:0:
225,186,81742,1,0,0:2:0:0:
171,146,81849,1,2,0:2:0:0:
177,80,81955,1,0,0:2:0:0:
236,47,82061,5,6,3:2:0:0:
353,72,82487,1,2,0:2:0:0:
456,11,82912,1,2,0:2:0:0:
487,182,83338,6,0,L|492:205,6,15,10|0|0|0|0|0|0,3:2|0:2|0:2|0:2|0:2|0:2|0:2,0:0:0:0:
440,298,83764,6,0,P|385:325|334:322,1,107.999996704102,6|2,3:2|0:2,0:0:0:0:
266,262,84083,1,2,0:2:0:0:
266,262,84189,2,0,P|226:279|243:331,1,107.999996704102,10|0,3:2|0:2,0:0:0:0:
422,101,84615,5,2,3:2:0:0:
391,89,84721,1,2,0:2:0:0:
358,92,84827,2,0,P|332:100|307:94,1,53.9999983520508,2|0,0:2|0:2,0:0:0:0:
232,32,85040,2,0,B|235:87|204:70|207:135,1,107.999996704102,10|0,3:2|0:2,0:0:0:0:
66,277,85466,6,0,P|89:231|80:166,1,107.999996704102,2|2,3:2|0:2,0:0:0:0:
27,107,85785,1,2,0:2:0:0:
27,107,85891,2,0,P|44:67|96:84,1,107.999996704102,10|0,3:2|0:2,0:0:0:0:
185,296,86317,5,2,3:2:0:0:
214,310,86423,1,2,0:2:0:0:
246,311,86529,2,0,P|259:307|277:308,2,26.9999991760254,2|0|0,0:2|0:2|0:2,0:0:0:0:
371,357,86742,2,0,P|368:301|383:252,1,107.999996704102,10|0,3:2|0:2,0:0:0:0:
504,79,87168,6,0,P|467:118|415:129,1,107.999996704102,6|2,3:2|0:2,0:0:0:0:
329,93,87487,1,2,0:2:0:0:
329,93,87593,2,0,P|296:121|328:165,1,107.999996704102,10|0,3:2|0:2,0:0:0:0:
133,262,88019,5,2,3:2:0:0:
137,230,88125,1,2,0:2:0:0:
124,200,88232,2,0,P|115:176|117:149,1,53.9999983520508,2|0,0:2|0:2,0:0:0:0:
119,56,88444,2,0,B|64:53|81:84|16:81,1,107.999996704102,10|0,3:2|0:2,0:0:0:0:
65,322,88870,6,0,P|111:348|164:346,1,107.999996704102,2|2,3:2|0:2,0:0:0:0:
231,284,89189,1,2,0:2:0:0:
231,284,89295,2,0,P|271:301|254:353,1,107.999996704102,10|0,3:2|0:2,0:0:0:0:
141,100,89721,5,2,3:2:0:0:
167,119,89827,1,2,0:2:0:0:
199,117,89934,2,0,P|212:113|224:106,2,26.9999991760254,2|0|0,0:2|0:2|0:2,0:0:0:0:
305,26,90146,2,0,P|306:79|326:129,1,107.999996704102,10|0,3:2|0:2,0:0:0:0:
423,259,90572,5,6,3:2:0:0:
423,259,90998,2,0,P|388:286|348:293,1,83.9999974365235,2|2,3:2|0:2,0:0:0:0:
406,172,91423,2,0,P|472:183|503:296,1,167.999994873047,2|2,3:2|3:2,0:0:0:0:
423,342,92061,5,2,0:2:0:0:
423,342,92168,1,2,0:2:0:0:
422,342,92274,2,0,P|426:300|422:258,1,83.9999974365235,2|2,3:2|0:2,0:0:0:0:
315,188,92700,2,0,P|327:231|330:271,1,83.9999974365235,2|2,3:2|0:2,0:0:0:0:
339,364,93125,2,0,P|298:368|265:344,1,83.9999974365235,2|0,3:2|0:2,0:0:0:0:
153,272,93551,2,0,P|186:247|226:252,1,83.9999974365235,2|0,3:2|0:2,0:0:0:0:
34,350,93976,6,0,P|28:305|25:264,1,83.9999974365235,2|0,3:2|0:2,0:0:0:0:
20,169,94402,1,2,3:2:0:0:
20,169,94615,1,2,0:2:0:0:
95,115,94827,2,0,P|110:153|108:195,1,83.9999974365235,2|0,3:2|0:2,0:0:0:0:
153,272,95253,1,2,3:2:0:0:
153,272,95466,1,2,0:2:0:0:
118,358,95678,6,0,P|159:363|199:351,1,83.9999974365235,2|0,3:2|0:2,0:0:0:0:
274,293,96104,1,2,3:2:0:0:
345,355,96317,1,2,0:2:0:0:
440,305,96529,2,0,P|446:265|445:219,1,83.9999974365235,2|0,3:2|0:2,0:0:0:0:
490,114,96955,5,2,3:2:0:0:
463,95,97061,1,2,0:2:0:0:
430,93,97168,1,2,0:2:0:0:
402,110,97274,1,2,0:2:0:0:
387,140,97381,6,0,P|339:168|283:163,1,107.999996704102,6|0,3:2|0:2,0:0:0:0:
227,10,97806,1,10,3:2:0:0:
315,73,98019,1,2,0:2:0:0:
181,175,98232,2,0,P|178:228|187:285,1,107.999996704102,2|0,3:2|0:2,0:0:0:0:
281,328,98657,1,10,3:2:0:0:
63,335,98870,5,2,0:2:0:0:
63,335,98976,1,2,0:2:0:0:
63,335,99083,2,0,P|38:289|46:229,1,107.999996704102,2|0,3:2|0:2,0:0:0:0:
108,127,99508,1,10,3:2:0:0:
42,31,99721,1,2,0:2:0:0:
200,2,99934,6,0,P|196:57|225:100,1,107.999996704102,2|0,3:2|0:2,0:0:0:0:
336,149,100359,1,8,3:2:0:0:
503,197,100572,1,2,0:2:0:0:
503,197,100678,1,2,0:2:0:0:
503,197,100785,2,0,B|450:176|388:202|418:226|361:254|298:237,1,215.999993408203,2|10,3:2|3:2,0:0:0:0:
210,194,101423,1,2,0:2:0:0:
280,33,101636,5,2,3:2:0:0:
382,76,101849,1,2,0:2:0:0:
460,10,102061,5,10,3:2:0:0:
298,124,102274,1,2,0:2:0:0:
415,291,102487,5,2,3:2:0:0:
392,289,102699,1,2,0:2:0:0:
371,299,102912,1,2,3:2:0:0:
362,318,103125,1,2,0:2:0:0:
194,150,103338,1,2,3:2:0:0:
142,285,103764,5,2,0:2:0:0:
11,73,104189,6,0,P|17:134|14:201,2,125.999996154785,6|2|2,3:2|3:2|3:2,3:0:0:0:
106,4,105040,1,2,0:2:0:0:
195,154,105253,1,8,0:2:0:0:
195,154,105359,1,8,0:2:0:0:
195,153,105466,2,0,P|153:158|113:147,1,83.9999974365235,8|2,0:2|3:2,0:0:0:0:
261,88,105891,6,0,P|288:143|274:203,2,125.999996154785,2|2|2,3:2|3:2|3:2,3:0:0:0:
168,6,106742,1,2,0:2:0:0:
334,21,106955,1,8,0:2:0:0:
334,21,107061,1,8,0:2:0:0:
333,21,107168,2,0,P|371:33|415:35,1,83.9999974365235,8|0,0:2|3:2,0:0:0:0:
465,195,107593,6,0,P|491:251|490:313,2,125.999996154785,2|2|2,3:2|3:2|3:2,3:2:0:0:
391,276,108445,1,2,0:2:0:0:
284,255,108657,1,10,3:2:0:0:
264,251,108764,1,8,0:2:0:0:
249,236,108870,1,10,0:2:0:0:
235,127,109083,1,2,3:2:0:0:
102,355,109295,5,2,3:2:0:0:
36,302,109720,1,2,3:2:0:0:
83,232,110146,1,2,3:2:0:0:
36,302,110571,1,2,3:2:0:0:
438,322,110998,6,0,P|472:281|474:227,1,107.999996704102,6|0,3:2|0:2,0:0:0:0:
319,174,111317,2,0,P|339:223|384:252,1,107.999996704102,2|0,0:2|0:2,0:0:0:0:
405,161,111636,1,2,0:2:0:0:
411,140,111849,1,2,3:2:0:0:
326,323,112062,6,0,P|328:351|322:377,1,53.9999983520508,8|0,0:1|0:2,0:0:0:0:
237,366,112274,2,0,P|237:339|245:313,1,53.9999983520508,8|0,3:1|0:2,0:0:0:0:
177,37,112700,6,0,P|202:82|195:136,1,107.999996704102,6|0,3:2|0:2,0:0:0:0:
33,160,113019,2,0,P|60:114|110:93,1,107.999996704102,2|0,0:2|0:2,0:0:0:0:
119,186,113338,1,2,0:2:0:0:
121,207,113551,1,2,3:2:0:0:
301,67,113764,6,0,P|300:94|308:120,1,53.9999983520508,8|0,0:1|0:2,0:0:0:0:
389,110,113976,2,0,P|389:83|382:57,1,53.9999983520508,8|0,3:1|0:2,0:0:0:0:
185,309,114402,5,6,3:2:0:0:
38,286,114615,1,2,0:2:0:0:
118,255,114827,1,2,0:2:0:0:
105,340,115040,1,2,0:2:0:0:
371,99,115253,5,2,0:2:0:0:
224,127,115466,1,2,0:2:0:0:
306,155,115677,1,2,0:2:0:0:
289,71,115890,1,2,0:2:0:0:
421,331,116103,6,0,P|418:298|416:265,1,66.0000020141602,2|0,3:2|0:2,0:0:0:0:
421,331,116529,6,0,P|417:289|415:247,1,83.9999974365235,0|0,3:2|0:2,0:0:0:0:
421,331,116954,6,0,P|416:280|416:229,1,102.000001945496,0|0,3:2|0:2,0:0:0:0:
421,331,117380,6,0,P|416:277|418:212,1,120,0|0,3:2|0:2,0:0:0:0:
489,53,117805,5,6,3:2:0:0:
458,26,117947,1,2,0:2:0:0:
409,26,118089,1,2,0:2:0:0:
370,66,118231,5,2,0:2:0:0:
348,117,118372,1,2,0:2:0:0:
288,139,118514,1,2,0:2:0:0:
218,121,118656,5,2,0:2:0:0:
189,54,118798,1,2,0:2:0:0:
231,0,118940,1,2,0:2:0:0:
287,2,119082,5,2,0:2:0:0:
312,42,119223,1,2,0:0:0:0:
305,81,119365,1,2,0:0:0:0:
272,104,119507,5,14,3:2:0:0:
224,100,119649,1,2,0:0:0:0:
189,54,119791,1,2,0:0:0:0:
117,49,119933,5,2,0:0:0:0:
63,97,120075,1,2,0:0:0:0:
76,167,120216,1,2,0:0:0:0:
122,198,120358,5,2,0:0:0:0:
170,199,120500,1,2,0:0:0:0:
202,176,120642,1,2,0:0:0:0:
221,151,120784,6,0,P|227:137|230:122,2,30,2|0|0,0:2|0:2|0:2,0:0:0:0:
420,41,120997,6,0,B|439:68|439:68|386:192|386:192|398:219,1,198.000006042481,14|0,3:2|0:2,0:0:0:0:
442,293,121422,6,0,P|466:276|484:254,1,60,2|0,0:2|0:2,0:0:0:0:
310,236,121635,2,0,P|319:263|338:285,1,60,10|0,3:2|0:2,0:0:0:0:
202,358,121848,2,0,P|224:337|251:327,1,60,2|0,0:2|0:2,0:0:0:0:
14,192,122061,6,0,P|49:238|47:298,1,120,2|0,3:2|0:2,0:0:0:0:
52,242,122381,2,0,P|73:215|103:198,1,60,2|8,3:2|3:2,0:0:0:0:
364,33,122700,6,0,P|348:117|266:141,1,180,14|0,3:2|0:2,0:0:0:0:
222,62,123125,2,0,P|254:52|281:56,1,60,2|0,0:2|0:2,0:0:0:0:
99,89,123338,2,0,P|74:65|64:40,1,60,10|0,3:2|0:2,0:0:0:0:
179,198,123551,2,0,P|172:227|155:251,1,60,2|0,0:2|0:2,0:0:0:0:
267,362,123764,6,0,P|262:295|265:243,1,120,2|0,3:2|0:2,0:0:0:0:
262,298,124083,2,0,P|287:316|316:322,1,60,2|8,3:2|3:2,0:0:0:0:
477,121,124402,6,0,B|510:87|474:62|448:92|411:125|344:93,1,180,14|0,3:2|0:2,0:0:0:0:
281,31,124827,1,2,0:2:0:0:
404,195,125040,5,10,3:2:0:0:
315,321,125253,1,2,0:2:0:0:
474,285,125466,5,2,3:2:0:0:
421,363,125679,1,2,0:2:0:0:
346,94,125891,5,10,3:2:0:0:
217,295,126104,1,2,0:2:0:0:
68,112,126317,6,0,P|108:133|182:131,1,120,6|0,3:2|0:2,0:0:0:0:
417,31,126742,2,0,P|376:9|302:11,1,120,10|0,3:2|0:2,0:0:0:0:
330,212,127168,2,0,L|346:93,1,120,2|0,3:2|0:2,0:0:0:0:
506,235,127593,2,0,P|476:241|451:256,1,60,10|0,3:2|0:2,0:0:0:0:
295,356,127806,5,2,0:2:0:0:
266,364,127912,1,2,0:2:0:0:
236,359,128019,2,0,P|209:308|214:248,1,120,6|0,3:2|0:2,0:0:0:0:
53,87,128444,2,0,B|98:65|153:90|128:107|176:130|221:113,1,180,10|0,3:2|0:2,0:0:0:0:
232,24,128870,5,2,3:2:0:0:
82,168,129083,1,2,0:2:0:0:
128,278,129295,5,10,3:2:0:0:
0,196,129508,2,0,P|15:225|44:248,1,60,2|0,0:2|0:2,0:0:0:0:
226,202,129721,6,0,P|286:222|325:268,1,120,6|0,3:2|0:2,0:0:0:0:
333,355,130040,1,2,0:2:0:0:
333,355,130146,2,0,P|369:377|394:320,1,120,10|0,3:2|0:2,0:0:0:0:
312,100,130572,6,0,P|341:95|371:99,1,60,2|0,3:2|0:2,0:0:0:0:
490,221,130785,2,0,P|460:224|430:220,1,60,2|0,0:2|0:2,0:0:0:0:
417,15,130998,2,0,P|460:71|457:133,1,120,10|0,3:2|0:2,0:0:0:0:
337,218,131317,5,2,0:2:0:0:
336,217,131423,2,0,P|278:205|218:209,1,120,6|0,3:2|0:2,0:0:0:0:
169,288,131742,2,0,P|132:241|133:183,1,120,2|0,0:0|0:2,0:0:0:0:
254,308,132061,1,2,0:2:0:0:
312,82,132274,6,0,P|370:67|429:69,1,120,6|0,3:2|0:2,0:0:0:0:
481,145,132593,2,0,P|515:97|512:38,1,120,2|0,0:0|0:2,0:0:0:0:
412,190,132912,1,2,0:2:0:0:
239,13,133125,6,0,B|217:-2|190:13|192:47|231:56|220:133|162:160,1,198.000006042481,14|0,3:2|0:2,0:0:0:0:
0,142,133551,6,0,P|22:52|119:81,1,215.999993408203,14|0,3:2|0:2,0:0:0:0:
164,275,133976,6,0,P|233:338|343:272,1,233.999989288331,14|0,3:2|0:2,0:0:0:0:
255,222,134402,6,0,L|253:258,2,30,0|0|0,0:2|0:2|0:2,0:0:0:0:
95,181,134615,6,0,B|125:196|125:196|239:124|239:124|269:132,1,198.000006042481,14|0,3:2|0:2,0:0:0:0:
364,150,135040,6,0,P|366:116|356:91,1,60,2|0,0:2|0:2,0:0:0:0:
371,276,135253,2,0,P|400:294|426:299,1,60,10|0,3:2|0:2,0:0:0:0:
255,222,135466,2,0,P|228:235|208:257,1,60,2|0,0:2|0:2,0:0:0:0:
52,370,135678,6,0,P|67:323|46:253,1,120,2|0,3:2|0:2,0:0:0:0:
82,312,135998,1,2,3:2:0:0:
92,326,136104,1,8,3:2:0:0:
20,62,136317,6,0,P|54:141|139:155,1,180,14|0,3:2|0:2,0:0:0:0:
172,70,136742,2,0,P|142:67|112:72,1,60,2|0,0:2|0:2,0:0:0:0:
199,221,136955,2,0,P|218:198|231:171,1,60,10|0,3:2|0:2,0:0:0:0:
258,42,137168,2,0,P|269:69|287:93,1,60,2|0,0:2|0:2,0:0:0:0:
489,163,137381,6,0,P|439:131|381:139,1,120,2|0,3:2|0:2,0:0:0:0:
451,123,137700,1,2,3:2:0:0:
466,114,137806,1,8,3:2:0:0:
242,344,138019,6,0,B|275:365|313:352|336:315|367:292|409:301,1,180,14|0,3:2|0:2,0:0:0:0:
482,357,138444,1,2,0:2:0:0:
315,195,138657,5,10,3:2:0:0:
172,254,138870,1,2,0:2:0:0:
329,306,139083,5,2,3:2:0:0:
242,344,139296,1,2,0:2:0:0:
310,84,139508,5,10,3:2:0:0:
93,177,139721,1,2,0:2:0:0:
356,359,139934,5,6,3:2:0:0:
375,337,140040,1,2,0:2:0:0:
382,308,140147,1,2,0:2:0:0:
371,281,140253,1,2,0:2:0:0:
318,232,140359,5,10,3:2:0:0:
306,205,140465,1,2,0:2:0:0:
312,176,140572,1,2,0:2:0:0:
333,155,140678,1,2,0:2:0:0:
405,131,140785,6,0,P|456:160|512:146,1,120,2|0,3:2|0:2,0:0:0:0:
350,10,141210,2,0,P|335:35|313:55,1,60,8|0,3:2|0:2,0:0:0:0:
88,33,141423,5,2,0:2:0:0:
117,35,141529,1,2,0:2:0:0:
143,49,141636,2,0,P|169:92|164:162,1,120,6|0,3:2|0:2,0:0:0:0:
24,361,142061,2,0,P|63:268|141:253,1,180,10|0,3:2|0:2,0:0:0:0:
235,273,142487,5,6,3:2:0:0:
87,138,142700,1,2,0:2:0:0:
116,338,142912,1,10,3:2:0:0:
255,96,143125,5,2,0:2:0:0:
274,73,143232,1,2,0:2:0:0:
302,56,143338,2,0,B|346:34|394:44|419:98|468:101|476:35|434:47,1,198.000006042481,6|0,3:2|0:2,0:0:0:0:
339,136,143764,6,0,B|301:159|315:188|358:219|362:275|322:318,1,198.000006042481,10|0,3:2|0:2,0:0:0:0:
208,381,144189,6,0,P|175:301|303:294,1,198.000006042481,6|0,3:2|0:2,0:0:0:0:
173,311,144615,1,2,3:2:0:0:
148,333,144721,1,2,0:2:0:0:
110,344,144827,1,2,0:2:0:0:
64,334,144934,1,2,0:2:0:0:
35,295,145040,6,0,P|34:226|29:173,1,120,6|0,3:2|0:2,0:0:0:0:
186,34,145465,2,0,P|187:103|192:156,1,120,8|0,3:2|0:2,0:0:0:0:
349,322,145890,5,0,3:2:0:0:
401,309,145997,1,0,0:2:0:0:
430,263,146103,1,2,0:2:0:0:
416,210,146209,1,0,0:2:0:0:
368,184,146316,5,10,3:2:0:0:
305,204,146422,1,0,0:2:0:0:
288,267,146528,1,2,0:2:0:0:
223,283,146635,1,0,0:2:0:0:
176,236,146741,5,6,3:2:0:0:
56,248,147167,1,2,0:2:0:0:
19,362,147592,1,2,0:2:0:0:
2,173,148018,6,0,L|0:150,6,15,10|0|0|0|0|0|0,3:2|0:2|0:2|0:2|0:2|0:2|0:2,0:0:0:0:
119,127,148443,5,6,3:2:0:0:
231,24,148656,1,2,0:2:0:0:
236,56,148763,1,2,0:2:0:0:
240,88,148869,1,10,3:2:0:0:
253,190,149082,1,2,0:2:0:0:
131,256,149294,5,2,3:2:0:0:
247,350,149507,1,2,0:2:0:0:
349,293,149720,2,0,B|410:298|390:326|448:332,1,107.999996704102,10|0,3:2|0:2,0:0:0:0:
507,110,150145,5,6,3:2:0:0:
404,30,150358,1,2,0:2:0:0:
371,32,150464,1,2,0:2:0:0:
338,35,150571,1,10,3:2:0:0:
248,123,150784,1,2,0:2:0:0:
81,53,150997,5,2,3:2:0:0:
116,148,151209,1,2,0:2:0:0:
29,248,151422,2,0,P|19:304|34:356,1,107.999996704102,10|0,3:2|0:2,0:0:0:0:
190,243,151848,5,6,3:2:0:0:
279,335,152060,1,2,0:2:0:0:
311,337,152166,1,2,0:2:0:0:
343,340,152273,1,10,3:2:0:0:
444,258,152486,1,2,0:2:0:0:
418,44,152699,5,2,3:2:0:0:
334,142,152911,1,2,0:2:0:0:
205,126,153124,1,10,3:2:0:0:
147,9,153337,1,2,0:2:0:0:
21,137,153550,5,6,3:2:0:0:
0,141,153763,1,2,0:2:0:0:
157,221,153975,5,10,3:2:0:0:
178,217,154188,1,2,0:2:0:0:
25,287,154401,5,2,3:2:0:0:
172,365,154614,2,0,P|172:338|182:312,1,53.9999983520508,8|0,0:1|0:2,0:0:0:0:
260,325,154826,2,0,P|263:352|256:378,1,53.9999983520508,8|0,3:1|0:2,0:0:0:0:
478,350,155252,5,6,3:2:0:0:
392,265,155465,1,2,0:2:0:0:
386,233,155571,1,2,0:2:0:0:
381,201,155677,1,10,3:2:0:0:
446,96,155890,1,2,0:2:0:0:
272,29,156103,5,2,3:2:0:0:
164,138,156316,1,2,0:2:0:0:
67,67,156529,2,0,L|42:72,6,15,10|0|0|0|0|0|0,3:2|0:2|0:2|0:2|0:2|0:2|0:2,0:0:0:0:
10,189,156954,5,6,3:2:0:0:
97,311,157167,1,2,0:2:0:0:
103,279,157273,1,2,0:2:0:0:
109,247,157380,1,10,3:2:0:0:
220,203,157592,1,2,0:2:0:0:
340,344,157805,5,2,3:2:0:0:
454,330,158018,1,2,0:2:0:0:
482,165,158231,2,0,L|485:150,6,15,10|0|0|0|0|0|0,3:2|0:2|0:2|0:2|0:2|0:2|0:2,0:0:0:0:
440,47,158656,5,6,3:2:0:0:
338,144,158869,1,2,0:2:0:0:
305,140,158975,1,2,0:2:0:0:
272,136,159082,1,10,3:2:0:0:
190,32,159294,1,2,0:2:0:0:
26,174,159507,5,10,3:2:0:0:
143,300,159720,1,10,3:2:0:0:
315,306,159933,1,10,3:2:0:0:
446,179,160146,2,0,L|450:213,18,20.9999993591309,14|0|0|0|0|0|0|0|0|0|0|0|0|0|0|0|0|0|0,3:2|0:2|0:2|0:2|0:2|0:2|0:2|0:2|0:2|0:2|0:2|0:2|0:2|0:2|0:2|0:2|0:2|0:2|0:2,0:0:0:0:
381,100,161210,6,0,P|370:118|356:129,6,38.9999982147218,10|0|0|0|0|0|0,3:2|0:2|0:2|0:2|0:2|0:2|0:2,0:0:0:0:
480,83,161636,6,0,B|473:62|481:52|474:26,6,56.9999984779358,10|0|0|0|0|0|0,3:2|0:2|0:2|0:2|0:2|0:2|0:2,0:0:0:0:
256,192,162061,12,2,163551,0:2:0:0:
134,240,170572,5,2,0:2:0:0:
134,240,170998,1,2,0:2:0:0:
252,223,171423,5,2,0:2:0:0:
252,223,171849,1,2,0:2:0:0:
369,201,172274,5,2,0:2:0:0:
369,201,172700,1,2,0:2:0:0:
485,173,173125,5,2,0:2:0:0:
485,173,173551,1,2,0:2:0:0:
455,55,173764,6,0,P|432:82|411:96,1,53.9999983520508,0|0,3:2|3:2,0:0:0:0:
207,104,173976,1,14,3:2:0:0:
304,5,174189,1,2,0:2:0:0:
304,5,174295,1,2,0:2:0:0:
127,62,174615,6,0,P|117:87|116:120,1,56.9999984779358,2|0,3:2|0:2,0:0:0:0:
180,300,174827,1,14,0:2:0:0:
35,222,175040,1,2,0:2:0:0:
35,222,175146,1,2,0:2:0:0:
181,384,175466,6,0,P|207:379|236:364,1,60,2|0,3:2|0:2,0:0:0:0:
416,223,175678,6,0,B|437:197|422:165|369:172|364:215|307:219|263:190,1,198.000006042481,14|0,3:2|0:2,0:0:0:0:
198,58,176104,6,0,P|287:23|315:115,1,215.999993408203,14|0,3:2|0:2,0:0:0:0:
147,210,176529,6,0,B|121:232|106:265|108:299|117:335|150:360|185:367|219:367|242:350|253:341|253:341|266:328|256:307|236:313|238:329,1,311.999985717774,14|0,3:2|0:2,0:0:0:0:
238,193,177168,6,0,P|264:209|281:232,1,60,2|2,0:2|0:2,0:0:0:0:
511,383,177806,6,0,P|497:354|494:320,1,60,10|0,3:2|0:2,0:0:0:0:
478,149,178019,2,0,P|459:172|436:191,1,60,2|0,0:2|0:2,0:0:0:0:
288,365,178232,6,0,P|318:315|375:302,1,120,2|0,3:2|0:2,0:0:0:0:
332,331,178551,1,2,3:2:0:0:
333,348,178657,1,8,3:2:0:0:
507,65,178870,6,0,B|462:43|407:68|432:85|384:108|339:91,1,180,14|0,3:2|0:2,0:0:0:0:
291,19,179295,2,0,P|317:5|347:4,1,60,2|0,0:2|0:2,0:0:0:0:
237,177,179508,2,0,P|250:150|252:120,1,60,10|0,3:2|0:2,0:0:0:0:
132,4,179721,2,0,P|161:6|188:20,1,60,2|0,0:2|0:2,0:0:0:0:
113,228,179934,6,0,P|103:170|139:121,1,120,2|0,3:2|0:2,0:0:0:0:
90,180,180253,1,2,3:2:0:0:
79,194,180359,1,8,3:2:0:0:
471,309,180572,6,0,P|433:233|344:228,1,180,14|0,3:2|0:2,0:0:0:0:
282,293,180998,1,2,0:2:0:0:
118,140,181210,5,10,3:2:0:0:
286,111,181423,1,2,0:2:0:0:
133,31,181636,5,2,3:2:0:0:
229,15,181849,1,2,0:2:0:0:
93,244,182061,5,10,3:2:0:0:
340,203,182274,1,2,0:2:0:0:
8,135,182487,5,6,3:2:0:0:
31,116,182593,1,2,0:2:0:0:
61,112,182700,1,2,0:2:0:0:
86,126,182806,1,2,0:2:0:0:
130,182,182912,5,10,3:2:0:0:
156,196,183018,1,2,0:2:0:0:
186,192,183125,1,2,0:2:0:0:
209,173,183231,1,2,0:2:0:0:
257,118,183338,6,0,P|256:177|261:237,1,120,2|0,3:2|0:2,0:0:0:0:
408,346,183764,2,0,P|384:326|370:301,1,60,8|0,3:2|0:2,0:0:0:0:
473,84,183976,5,2,0:2:0:0:
492,107,184083,1,2,0:2:0:0:
500,135,184189,2,0,P|501:194|476:250,1,120,6|0,3:2|0:2,0:0:0:0:
201,88,184615,2,0,B|211:62|245:71|264:89|292:111|325:115|368:98,1,180,10|0,3:2|0:2,0:0:0:0:
331,19,185040,5,6,3:2:0:0:
251,196,185253,1,2,0:2:0:0:
100,61,185466,1,10,3:2:0:0:
39,343,185678,5,2,0:2:0:0:
45,313,185785,1,2,0:2:0:0:
66,290,185891,2,0,B|115:265|176:293|148:312|201:337|251:318,1,198.000006042481,6|0,3:2|0:2,0:0:0:0:
330,175,186317,6,0,P|278:142|243:258,1,198.000006042481,10|0,3:2|0:2,0:0:0:0:
348,349,186742,6,0,B|333:322|361:299|388:318|429:359|473:360|512:331,1,198.000006042481,6|0,3:2|0:2,0:0:0:0:
406,333,187168,1,2,3:2:0:0:
393,302,187274,1,2,0:2:0:0:
398,262,187381,1,2,0:2:0:0:
431,230,187487,1,2,0:2:0:0:
479,223,187593,6,0,B|516:209|530:179|539:137|518:99|470:78|429:97|429:97|392:115|356:107|333:74|335:37|359:9|388:-2|423:7|443:31|445:60|432:91,1,480,6|0,3:2|3:2,0:0:0:0:
349,204,188657,5,2,0:2:0:0:
214,255,188870,1,10,3:2:0:0:
227,111,189083,1,2,0:2:0:0:
282,318,189295,6,0,P|227:344|171:335,1,120,6|0,3:2|0:2,0:0:0:0:
143,166,189721,2,0,P|193:200|213:253,1,120,10|0,3:2|0:2,0:0:0:0:
68,363,190146,2,0,P|72:302|108:258,1,120,2|0,3:2|0:2,0:0:0:0:
282,318,190572,6,0,L|287:349,6,30,10|0|0|0|0|0|0,3:2|0:2|0:2|0:2|0:2|0:2|0:2,0:0:0:0:
401,280,190998,5,6,3:2:0:0:
484,193,191210,1,2,0:2:0:0:
494,164,191317,1,2,0:2:0:0:
492,134,191423,1,10,3:2:0:0:
417,39,191636,1,2,0:2:0:0:
251,28,191849,5,6,3:2:0:0:
151,113,192061,1,2,0:2:0:0:
137,146,192168,1,2,0:2:0:0:
143,181,192274,1,10,3:2:0:0:
227,283,192487,1,2,0:2:0:0:
400,314,192700,5,6,3:2:0:0:
498,209,192912,1,2,0:2:0:0:
512,169,193019,1,2,0:2:0:0:
504,127,193125,1,10,3:2:0:0:
416,12,193338,1,2,0:2:0:0:
230,6,193551,5,6,3:2:0:0:
101,70,193764,1,2,0:2:0:0:
92,213,193976,1,10,3:2:0:0:
206,300,194189,1,2,0:2:0:0:
344,256,194402,6,0,P|347:198|352:146,1,107.999996704102,6|0,3:2|0:2,0:0:0:0:
210,47,194827,2,0,P|207:102|201:154,1,107.999996704102,8|0,3:2|0:2,0:0:0:0:
74,355,195253,5,0,3:2:0:0:
27,340,195359,1,0,0:2:0:0:
15,292,195466,1,2,0:2:0:0:
49,257,195572,1,0,0:2:0:0:
105,274,195678,5,10,3:2:0:0:
109,333,195785,1,0,0:2:0:0:
162,358,195891,1,2,0:2:0:0:
215,331,195998,1,0,0:2:0:0:
217,272,196104,5,2,0:2:0:0:
217,272,196529,2,0,P|198:243|201:208,2,71.9999978027344,2|2|2,0:2|0:2|0:2,0:0:0:0:
289,223,197806,6,0,B|327:222|360:206|360:206|343:264|312:317|312:317|351:303|387:300,1,269.999991760254,2|0,0:2|0:2,0:0:0:0:
487,242,199508,6,0,P|499:191|481:138,1,107.999996704102,6|2,3:2|0:2,0:0:0:0:
408,91,199827,1,2,0:2:0:0:
408,91,199934,2,0,P|418:43|466:51,1,107.999996704102,10|0,3:2|0:2,0:0:0:0:
469,333,200359,5,2,3:2:0:0:
443,313,200466,1,2,0:2:0:0:
412,302,200572,2,0,P|384:298|361:306,1,53.9999983520508,2|0,0:2|0:2,0:0:0:0:
280,359,200785,2,0,B|283:294|252:311|255:256,1,107.999996704102,10|0,3:2|0:2,0:0:0:0:
303,97,201210,6,0,P|252:65|203:61,1,107.999996704102,2|2,3:2|0:2,0:0:0:0:
122,90,201529,1,2,0:2:0:0:
122,90,201636,2,0,P|89:53|125:19,1,107.999996704102,10|0,3:2|0:2,0:0:0:0:
14,282,202061,5,2,3:2:0:0:
39,261,202168,1,2,0:2:0:0:
71,258,202274,2,0,P|81:260|97:269,2,26.9999991760254,2|0|0,0:2|0:2|0:2,0:0:0:0:
126,356,202487,2,0,P|179:354|232:341,1,107.999996704102,10|0,3:2|0:2,0:0:0:0:
434,365,202912,6,0,P|416:314|420:260,1,107.999996704102,6|2,3:2|0:2,0:0:0:0:
483,196,203232,1,2,0:2:0:0:
483,196,203337,2,0,P|465:149|418:166,1,107.999996704102,10|0,3:2|0:0,0:0:0:0:
205,237,203764,5,2,3:2:0:0:
236,230,203870,1,2,0:2:0:0:
261,210,203976,2,0,P|272:184|268:158,1,53.9999983520508,2|0,0:2|0:2,0:0:0:0:
268,71,204189,2,0,B|213:68|230:99|165:96,1,107.999996704102,10|0,3:2|0:2,0:0:0:0:
61,313,204615,6,0,P|74:260|62:208,1,107.999996704102,2|2,3:2|0:2,0:0:0:0:
0,147,204934,1,2,0:2:0:0:
0,147,205039,2,0,P|18:100|65:117,1,107.999996704102,10|0,3:2|0:0,0:0:0:0:
177,336,205466,5,2,3:2:0:0:
204,352,205572,1,2,0:2:0:0:
236,353,205678,2,0,P|249:351|261:346,2,26.9999991760254,2|0|0,0:2|0:2|0:2,0:0:0:0:
361,367,205891,2,0,P|347:314|345:260,1,107.999996704102,10|0,3:2|0:2,0:0:0:0:
311,37,206317,6,0,P|364:27|411:52,1,107.999996704102,6|2,3:2|0:2,0:0:0:0:
462,132,206636,1,2,0:2:0:0:
462,132,206742,2,0,P|511:121|507:71,1,107.999996704102,10|0,3:2|0:2,0:0:0:0:
230,0,207168,5,2,3:2:0:0:
218,30,207274,1,2,0:2:0:0:
221,61,207381,2,0,P|231:85|248:106,1,53.9999983520508,2|0,0:2|0:2,0:0:0:0:
311,179,207593,2,0,B|246:176|263:207|208:204,1,107.999996704102,10|0,3:2|0:2,0:0:0:0:
14,21,208019,6,0,P|55:66|67:119,1,107.999996704102,2|2,3:2|0:2,0:0:0:0:
46,196,208338,1,2,0:2:0:0:
46,196,208444,2,0,P|89:220|120:180,1,107.999996704102,10|0,3:2|0:2,0:0:0:0:
308,38,208870,5,2,3:2:0:0:
295,67,208976,1,2,0:2:0:0:
296,99,209083,2,0,P|298:112|305:123,2,26.9999991760254,2|0|0,0:2|0:2|0:2,0:0:0:0:
398,146,209295,2,0,P|377:195|370:249,1,107.999996704102,10|0,3:2|0:2,0:0:0:0:
49,347,209721,6,0,P|93:312|149:311,1,113.999996955872,6|2,3:2|0:2,0:0:0:0:
210,380,210040,1,2,0:2:0:0:
210,380,210147,2,0,P|258:363|240:315,1,113.999996955872,10|0,3:2|0:2,0:0:0:0:
139,101,210572,5,2,3:2:0:0:
172,106,210678,1,2,0:2:0:0:
202,123,210785,2,0,L|173:151,1,28.4999992389679,2|0,0:0|0:0,0:0:0:0:
225,149,210891,2,0,L|189:172,1,28.4999992389679
234,185,210998,2,0,B|174:181|195:213|125:207,1,113.999996955872,10|0,3:2|0:2,0:0:0:0:
379,34,211423,6,0,P|414:77|426:132,1,113.999996955872,2|2,3:2|0:2,0:0:0:0:
362,192,211742,1,2,0:2:0:0:
362,192,211849,2,0,P|379:239|427:220,1,113.999996955872,10|0,3:2|0:2,0:0:0:0:
197,72,212274,5,2,3:2:0:0:
182,103,212381,1,2,0:2:0:0:
184,136,212487,2,0,L|146:132,1,28.4999992389679,2|0,0:0|0:0,0:0:0:0:
200,164,212593,2,0,L|152:169,1,28.4999992389679,0|0,0:0|0:0,0:0:0:0:
230,181,212700,2,0,P|258:222|252:287,1,113.999996955872,10|0,3:2|0:2,0:0:0:0:
26,356,213125,5,2,0:0:0:0:
256,192,213338,12,0,214827,0:0:0:0:
