osu file format v14

[General]
AudioFilename: audio.mp3
AudioLeadIn: 0
PreviewTime: 163550
Countdown: 0
SampleSet: Soft
StackLeniency: 0.3
Mode: 0
LetterboxInBreaks: 0
WidescreenStoryboard: 1

[Editor]
DistanceSpacing: 1.2
BeatDivisor: 4
GridSize: 32
TimelineZoom: 1.9

[Metadata]
Title:Kaimin! Anmin! Syalist Seikatsu
TitleUnicode:快眠!安眠!スヤリスト生活
Artist:Syalis Hime (CV: Minase Inori)
ArtistUnicode:スヤリス姫 (CV: 水瀬いのり)
Creator:Vararaup
Version:Hard
Source:魔王城でおやすみ
Tags:sleepy princess in the demon castle maoujou de oyasumi opening op anime japanese pop jpop j-pop オーロラ・栖夜・リース・カイミーン aurora syalis sleep hime goodnight 新田目駿 Shun Nitta
BeatmapID:2930453
BeatmapSetID:1420775

[Difficulty]
HPDrainRate:5
CircleSize:3.8
OverallDifficulty:6
ApproachRate:7
SliderMultiplier:1.8
SliderTickRate:1

[Events]
//Background and Video events
0,0,"0_AgIbkQYf5uHNexM5.jpg",0,0
//Break Periods
2,163750,172863
//Storyboard Layer 0 (Background)
//Storyboard Layer 1 (Fail)
//Storyboard Layer 2 (Pass)
//Storyboard Layer 3 (Foreground)
//Storyboard Layer 4 (Overlay)
//Storyboard Sound Samples

[TimingPoints]
-1343,425.531914893617,4,2,1,5,1,0
5252,-125,4,2,1,45,0,0
10571,-111.111111111111,4,2,1,60,0,0
11422,-111.111111111111,4,2,1,60,0,0
12273,-111.111111111111,4,2,1,60,0,0
15677,-166.666666666667,4,2,1,40,0,0
17380,-142.857142857143,4,2,1,40,0,0
19082,-111.111111111111,4,2,1,60,0,0
25890,-125,4,2,1,45,0,0
32699,-111.111111111111,4,2,1,60,0,0
39082,-111.111111111111,4,2,3,30,0,0
39507,-125,4,2,2,50,0,0
46316,-111.111111111111,4,2,1,60,0,0
51422,-111.111111111111,4,2,1,60,0,0
51848,-111.111111111111,4,2,1,60,0,0
52273,-111.111111111111,4,2,1,60,0,0
52699,-111.111111111111,4,2,1,60,0,0
54401,-111.111111111111,4,2,1,60,0,0
54826,-100,4,2,1,60,0,0
56316,-100,4,2,1,70,0,1
56741,-100,4,2,1,70,0,1
68443,-100,4,2,1,70,0,1
68869,-100,4,2,1,70,0,1
69294,-100,4,2,1,70,0,1
69720,-100,4,2,1,60,0,0
69933,-100,4,2,1,70,0,1
70358,-100,4,2,1,70,0,1
78656,-100,4,2,1,70,0,1
80358,-100,4,2,1,70,0,1
82061,-142.857142857143,4,2,1,50,0,0
83763,-111.111111111111,4,2,1,60,0,0
90571,-125,4,2,1,50,0,0
96954,-111.111111111111,4,2,1,60,0,0
103763,-111.111111111111,4,2,3,30,0,0
104188,-125,4,2,2,50,0,0
110997,-111.111111111111,4,2,1,60,0,0
116103,-111.111111111111,4,2,1,60,0,0
116528,-111.111111111111,4,2,1,60,0,0
116954,-111.111111111111,4,2,1,60,0,0
117380,-111.111111111111,4,2,1,60,0,0
120997,-100,4,2,1,70,0,1
121422,-100,4,2,1,70,0,1
133124,-100,4,2,1,70,0,1
133550,-100,4,2,1,70,0,1
133975,-100,4,2,1,70,0,1
134401,-100,4,2,1,60,0,0
134614,-100,4,2,1,70,0,1
135039,-100,4,2,1,70,0,1
143337,-100,4,2,1,70,0,1
145039,-100,4,2,1,70,0,1
146742,-142.857142857143,4,2,1,50,0,0
148443,-105.263157894737,4,2,1,65,0,0
156528,-105.263157894737,4,2,1,65,0,0
156954,-105.263157894737,4,2,1,65,0,0
158231,-105.263157894737,4,2,1,65,0,0
158656,-105.263157894737,4,2,1,65,0,0
160145,-100,4,2,1,65,0,0
161209,-100,4,2,1,65,0,0
161635,-100,4,2,1,65,0,0
162060,-125,4,2,1,50,0,0
170571,-166.666666666667,4,2,1,30,0,0
173763,-111.111111111111,4,2,1,50,0,0
174614,-105.263157894737,4,2,1,50,0,0
175465,-100,4,2,1,50,0,0
175677,-100,4,2,1,50,0,0
176103,-100,4,2,1,55,0,0
176528,-100,4,2,1,60,0,0
177167,-111.111111111111,4,2,1,50,0,0
177805,-100,4,2,1,70,0,1
185890,-100,4,2,1,70,0,1
187593,-100,4,2,1,60,0,0
190997,-100,4,2,1,70,0,1
194401,-105.263157894737,4,2,1,60,0,0
196103,-200,4,2,1,40,0,0
199507,-111.111111111111,4,2,1,60,0,0
209720,-111.111111111111,4,2,1,60,0,0
213337,-125,4,2,1,5,0,0

[Colours]
Combo1 : 136,167,217
Combo2 : 142,117,189
Combo3 : 234,111,111
Combo4 : 251,218,106

[HitObjects]
256,192,3763,12,0,4826,0:0:0:0:
15,306,5252,6,0,B|52:298|88:312|73:333|110:349|149:340,1,144,6|2,3:2|0:2,0:0:0:0:
238,366,5890,2,0,P|240:327|250:294,1,72,2|2,0:2|0:2,0:0:0:0:
319,232,6316,2,0,P|278:197|226:203,1,108,2|2,0:2|0:2,0:0:0:0:
441,346,6954,6,0,P|432:270|430:197,1,144,6|2,3:2|0:2,0:0:0:0:
492,133,7592,2,0,P|474:106|442:82,1,72,2|2,0:2|0:2,0:0:0:0:
360,36,8018,2,0,P|337:83|287:100,1,108,2|2,0:2|0:2,0:0:0:0:
99,51,8656,6,0,P|161:79|169:148,1,144,6|2,3:2|0:2,0:0:0:0:
88,196,9295,2,0,P|72:228|71:269,1,72,2|2,0:2|0:2,0:0:0:0:
135,331,9721,2,0,P|170:328|206:309,1,72,2|2,0:2|0:2,0:0:0:0:
224,220,10146,2,0,P|259:220|293:231,1,72,2|2,0:2|0:2,0:0:0:0:
394,320,10572,6,0,P|373:265|402:214,1,121.499996292114,6|0,3:2|0:2,0:0:0:0:
437,192,10998,2,0,P|461:154|432:82,1,121.499996292114,0|0,3:2|0:2,0:0:0:0:
397,81,11423,2,0,L|356:85,3,40.4999987640381,0|0|0|0,3:2|0:2|0:2|0:2,0:0:0:0:
320,65,11849,2,0,L|279:69,3,40.4999987640381,2|2|2|2,3:2|0:2|0:2|0:2,0:0:0:0:
246,46,12274,6,0,P|214:71|176:83,1,80.9999975280763,6|0,3:2|0:2,0:0:0:0:
78,76,12700,2,0,P|80:117|75:157,1,80.9999975280763,10|0,3:2|0:2,0:0:0:0:
40,247,13125,1,6,3:2:0:0:
78,336,13338,1,2,0:2:0:0:
170,366,13551,1,10,3:2:0:0:
264,343,13764,1,2,0:2:0:0:
316,261,13976,6,0,B|354:248|400:267|376:291|419:309|466:295,1,161.999995056153,6|10,3:2|3:2,0:0:0:0:
448,199,14615,1,2,0:2:0:0:
483,62,14827,2,0,P|445:107|387:125,1,121.499996292114,6|0,3:2|0:0,0:0:0:0:
346,118,15253,2,0,L|343:75,3,40.4999987640381,10|2|2|2,3:2|0:2|0:2|0:2,0:0:0:0:
307,61,15678,6,0,B|201:41|201:41|160:33|125:64|125:98,1,215.999993408203,14|0,3:2|0:2,0:0:0:0:
150,189,16742,2,0,P|175:182|194:163,2,53.9999983520508,2|2|2,0:2|0:2|0:2,0:0:0:0:
63,176,17381,6,0,P|74:236|123:272,1,125.999996154785,6|2,3:2|0:2,0:0:0:0:
271,343,18232,2,0,P|208:351|148:371,1,125.999996154785,2|10,0:2|3:2,0:0:0:0:
150,189,19083,6,0,P|189:215|223:220,1,80.9999975280763,6|2,3:2|0:2,0:0:0:0:
265,214,19402,1,2,0:2:0:0:
265,214,19508,2,0,P|304:205|343:215,1,80.9999975280763,10|0,3:2|0:2,0:0:0:0:
400,294,19934,2,0,L|395:341,2,40.4999987640381,2|2|2,3:2|0:2|0:2,0:0:0:0:
468,224,20359,2,0,P|470:184|474:144,1,80.9999975280763,10|0,3:2|0:2,0:0:0:0:
448,38,20785,6,0,P|420:68|383:84,1,80.9999975280763,2|2,3:2|0:2,0:0:0:0:
346,90,21104,1,2,0:2:0:0:
346,90,21210,2,0,P|307:79|266:84,1,80.9999975280763,10|0,3:2|0:2,0:0:0:0:
184,129,21636,1,2,3:2:0:0:
184,129,21742,1,2,0:2:0:0:
184,129,21849,1,2,0:2:0:0:
92,98,22061,2,0,P|87:57|85:17,1,80.9999975280763,10|0,3:2|0:2,0:0:0:0:
0,179,22487,6,0,P|39:183|74:203,1,80.9999975280763,6|2,3:2|0:2,0:0:0:0:
111,231,22806,1,2,0:2:0:0:
111,231,22912,2,0,P|149:241|189:234,1,80.9999975280763,10|0,3:2|0:2,0:0:0:0:
280,199,23338,2,0,L|274:158,2,40.4999987640381,2|2|2,3:2|0:2|0:2,0:0:0:0:
342,273,23764,2,0,P|345:313|351:354,1,80.9999975280763,10|0,3:2|0:2,0:0:0:0:
450,295,24189,6,0,P|469:260|468:220,1,80.9999975280763,2|2,3:2|0:2,0:0:0:0:
452,187,24508,1,2,0:2:0:0:
452,187,24615,2,0,P|436:146|439:110,1,80.9999975280763,10|0,3:2|0:2,0:0:0:0:
498,35,25040,1,2,3:2:0:0:
498,35,25146,1,2,0:2:0:0:
498,35,25253,1,2,0:2:0:0:
404,6,25466,2,0,P|360:14|323:15,1,80.9999975280763,10|0,3:2|0:2,0:0:0:0:
212,90,25891,5,4,0:2:0:0:
212,90,26317,2,0,P|207:125|215:160,1,72,2|2,0:2|0:2,0:0:0:0:
289,217,26742,2,0,B|327:229|364:212|348:198|388:184|426:195,1,144,2|2,0:2|0:2,0:0:0:0:
507,261,27381,5,2,0:2:0:0:
507,261,27487,1,2,0:2:0:0:
507,261,27593,2,0,P|513:295|503:329,1,72,2|2,0:2|0:2,0:0:0:0:
414,363,28019,2,0,P|379:365|343:363,1,72,2|2,0:2|0:2,0:0:0:0:
273,303,28444,2,0,P|199:320|133:344,1,144,2|2,0:2|0:2,0:0:0:0:
46,233,29295,6,0,B|72:241|76:273|48:285|42:309|39:339|46:366,2,144,2|2|2,0:2|0:2|0:2,0:0:0:0:
72,58,30572,5,2,0:2:0:0:
30,144,30785,1,2,0:2:0:0:
30,144,30998,2,0,P|95:150|159:106,1,144,2|2,0:2|0:2,0:0:0:0:
190,19,31636,1,2,0:2:0:0:
282,33,31849,2,0,P|352:47|420:72,1,144,2|8,0:2|3:2,0:0:0:0:
499,244,32700,6,0,P|461:259|421:258,1,80.9999975280763,4|0,3:2|0:2,0:0:0:0:
340,203,33125,1,10,3:2:0:0:
249,238,33338,1,2,0:2:0:0:
167,184,33551,2,0,P|155:228|157:264,1,80.9999975280763,2|0,3:2|0:2,0:0:0:0:
191,353,33976,1,10,3:2:0:0:
56,344,34189,5,2,0:2:0:0:
56,344,34295,1,2,0:2:0:0:
56,344,34402,2,0,P|63:303|54:265,1,80.9999975280763,2|0,3:2|0:2,0:0:0:0:
10,178,34827,2,0,P|1:138|8:99,1,80.9999975280763,10|2,3:2|0:2,0:0:0:0:
103,77,35253,2,0,B|141:64|187:83|163:107|206:125|253:111,1,161.999995056153,2|8,3:2|3:2,0:0:0:0:
381,40,35891,5,2,0:2:0:0:
381,40,35998,1,2,0:2:0:0:
381,40,36104,2,0,P|456:62|487:134,1,161.999995056153,2|10,3:2|3:2,0:0:0:0:
482,231,36742,1,2,0:2:0:0:
394,273,36955,2,0,P|368:304|332:320,1,80.9999975280763,2|2,3:2|0:2,0:0:0:0:
239,289,37381,2,0,P|224:251|228:211,1,80.9999975280763,10|2,3:2|0:2,0:0:0:0:
281,130,37806,5,2,3:2:0:0:
243,40,38019,1,2,0:2:0:0:
146,28,38232,1,2,3:2:0:0:
88,106,38444,1,2,0:2:0:0:
125,196,38657,1,2,3:2:0:0:
115,360,39508,6,0,P|61:353|8:349,2,108,6|2|2,3:2|0:2|3:2,0:0:0:0:
167,282,40359,2,0,P|220:318|301:323,1,144,2|8,0:2|0:2,0:0:0:0:
376,270,40998,5,2,3:2:0:0:
376,270,41104,1,0,0:0:0:0:
376,270,41210,2,0,P|429:275|483:275,2,108,2|2|2,3:2|3:2|3:2,0:0:0:0:
295,218,42061,2,0,P|329:158|306:88,1,144,2|8,0:2|0:2,0:0:0:0:
219,57,42700,1,0,3:2:0:0:
139,114,42912,6,0,B|199:120|181:145|239:151,2,108,2|2|2,3:2|3:2|3:2,0:0:0:0:
45,126,43764,2,0,P|30:160|30:194,1,72,2|10,0:2|3:2,0:0:0:0:
83,271,44189,2,0,P|121:270|152:256,1,72,10|2,0:2|3:2,0:0:0:0:
238,150,44615,6,0,B|212:158|208:190|236:202|242:226|245:256|238:283,3,144,2|2|2|2,3:2|3:2|3:2|3:2,0:0:0:0:
443,352,46317,6,0,P|424:318|424:274,1,80.9999975280763,6|0,3:2|0:2,0:0:0:0:
449,251,46636,1,2,0:2:0:0:
449,251,46742,2,0,P|461:206|452:169,1,80.9999975280763,8|2,0:0|0:2,0:0:0:0:
419,81,47168,1,2,3:2:0:0:
344,142,47381,1,8,0:1:0:0:
344,142,47593,1,8,3:1:0:0:
199,4,48019,6,0,P|162:21|136:51,1,80.9999975280763,6|0,3:2|0:2,0:0:0:0:
109,75,48338,1,2,0:2:0:0:
109,75,48444,2,0,P|68:70|33:51,1,80.9999975280763,8|2,0:0|0:2,0:0:0:0:
3,144,48870,1,2,3:2:0:0:
49,235,49083,1,8,0:1:0:0:
49,235,49295,1,8,3:1:0:0:
222,160,49721,6,0,P|192:187|182:225,1,80.9999975280763,6|2,3:2|0:2,0:0:0:0:
225,313,50146,2,0,P|263:324|301:314,1,80.9999975280763,2|2,0:2|0:2,0:0:0:0:
355,232,50572,5,2,0:2:0:0:
355,232,50785,1,2,0:2:0:0:
423,301,50998,1,2,0:2:0:0:
423,301,51210,1,2,0:2:0:0:
486,226,51423,1,2,3:2:0:0:
485,52,51849,6,0,P|446:47|408:61,1,80.9999975280763,0|0,3:2|0:2,0:0:0:0:
329,4,52274,2,0,P|297:28|279:64,1,80.9999975280763,0|0,3:2|0:2,0:0:0:0:
182,69,52700,2,0,P|176:108|190:146,1,80.9999975280763,0|0,3:2|0:2,0:0:0:0:
277,264,53125,5,6,3:2:0:0:
277,264,54402,1,10,3:2:0:0:
190,146,54827,1,14,3:2:0:0:
190,146,56103,1,2,0:2:0:0:
51,83,56316,6,0,B|96:102|142:79|127:68|169:44|222:64,1,180,14|2,3:2|0:2,0:0:0:0:
298,134,56955,2,0,P|341:119|374:89,1,90,10|2,3:2|0:2,0:0:0:0:
465,38,57381,2,0,P|467:81|471:127,1,90,2|0,3:2|0:2,0:0:0:0:
478,172,57700,1,2,3:2:0:0:
478,172,57806,1,8,3:2:0:0:
440,312,58019,6,0,P|393:240|306:238,1,180,14|2,3:2|0:2,0:0:0:0:
245,322,58657,2,0,P|205:341|160:343,1,90,10|2,3:2|0:2,0:0:0:0:
60,372,59083,2,0,P|61:328|55:280,1,90,2|0,3:2|0:2,0:0:0:0:
52,245,59402,1,2,3:2:0:0:
52,245,59508,1,8,3:2:0:0:
7,89,59721,6,0,P|96:92|185:111,1,180,14|2,3:2|0:2,0:0:0:0:
279,155,60359,1,10,3:2:0:0:
279,155,60572,1,2,0:2:0:0:
287,47,60785,1,2,3:2:0:0:
287,47,60998,1,2,0:2:0:0:
391,20,61210,1,10,3:2:0:0:
449,112,61423,1,2,0:2:0:0:
379,194,61636,6,0,P|364:237|370:281,1,90,6|0,3:2|0:2,0:0:0:0:
490,297,62061,2,0,P|504:254|498:210,1,90,10|0,3:2|0:2,0:0:0:0:
449,112,62487,2,0,P|397:105|358:89,1,90,2|0,3:2|0:2,0:0:0:0:
282,25,62912,1,10,3:2:0:0:
142,63,63125,5,2,0:2:0:0:
142,63,63232,1,2,0:2:0:0:
142,63,63338,2,0,P|171:98|176:146,1,90,6|0,3:2|0:2,0:0:0:0:
104,214,63763,2,0,P|89:261|99:303,1,90,10|0,3:2|0:0,0:0:0:0:
186,355,64189,1,2,3:2:0:0:
254,276,64402,1,2,0:2:0:0:
357,280,64615,1,10,3:2:0:0:
426,369,64827,5,2,0:2:0:0:
426,369,64934,1,0,0:2:0:0:
426,369,65040,2,0,P|456:333|468:292,1,90,6|0,3:2|0:2,0:0:0:0:
405,208,65466,2,0,P|387:167|390:122,1,90,10|0,3:2|0:2,0:0:0:0:
439,31,65891,1,2,3:2:0:0:
336,47,66104,1,2,0:2:0:0:
242,3,66317,2,0,P|197:6|153:15,1,90,10|0,3:2|0:2,0:0:0:0:
37,100,66742,6,0,P|30:148|44:186,1,90,6|0,3:2|0:2,0:0:0:0:
66,225,67061,1,2,0:0:0:0:
66,225,67168,2,0,P|82:267|76:312,1,90,8|2,3:2|0:2,0:0:0:0:
193,362,67593,6,0,P|231:339|277:340,1,90,6|0,3:2|0:2,0:0:0:0:
317,358,67912,1,2,0:0:0:0:
317,358,68019,2,0,P|359:370|404:365,1,90,8|2,3:2|0:2,0:0:0:0:
501,234,68444,6,0,P|459:249|414:245,1,90,14|0,3:2|0:0,0:0:0:0:
396,89,68870,2,0,P|430:117|449:157,1,90,14|0,3:2|0:0,0:0:0:0:
318,258,69295,2,0,P|269:185|302:106,1,180,14|0,3:2|0:2,0:0:0:0:
196,18,69934,6,0,B|143:-2|101:22|116:33|70:56|25:37,1,180,14|2,3:2|0:2,0:0:0:0:
0,137,70572,2,0,P|19:179|21:224,1,90,10|2,3:2|0:2,0:0:0:0:
3,324,70998,2,0,P|53:326|92:346,1,90,2|0,3:2|0:2,0:0:0:0:
129,363,71317,1,2,3:2:0:0:
129,363,71423,1,8,3:2:0:0:
247,261,71636,6,0,P|286:340|369:354,1,180,14|2,3:2|0:2,0:0:0:0:
473,365,72274,2,0,P|471:321|466:272,1,90,10|2,3:2|0:2,0:0:0:0:
468,171,72700,2,0,P|428:192|382:193,1,90,2|0,3:2|0:2,0:0:0:0:
348,186,73019,1,2,3:2:0:0:
348,186,73125,1,8,3:2:0:0:
266,44,73338,6,0,P|182:29|83:24,1,180,14|2,3:2|0:2,0:0:0:0:
9,97,73976,1,10,3:2:0:0:
9,97,74189,1,2,0:2:0:0:
10,208,74402,1,2,3:2:0:0:
10,208,74615,1,2,0:2:0:0:
99,267,74827,1,10,3:2:0:0:
192,212,75040,1,2,0:2:0:0:
200,104,75253,6,0,L|243:114,3,45,6|2|2|2,3:2|0:2|0:2|0:2,0:0:0:0:
277,91,75678,2,0,L|320:101,3,45,10|2|2|2,3:2|0:2|0:2|0:2,0:0:0:0:
357,83,76104,2,0,P|398:96|445:95,1,90,2|0,3:2|0:2,0:0:0:0:
510,174,76529,1,8,3:2:0:0:
464,323,76742,5,2,0:2:0:0:
464,323,76849,1,2,0:2:0:0:
464,323,76955,2,0,P|441:283|402:261,1,90,6|0,3:2|0:2,0:0:0:0:
307,218,77381,2,0,P|309:263|306:308,1,90,10|0,3:2|0:0,0:0:0:0:
217,369,77806,1,6,3:2:0:0:
109,355,78019,1,2,0:2:0:0:
75,252,78232,1,10,3:2:0:0:
147,173,78444,5,2,0:2:0:0:
147,173,78551,1,2,0:2:0:0:
147,173,78657,2,0,P|191:177|231:159,1,90,6|0,3:2|0:0,0:0:0:0:
207,7,79083,2,0,P|180:42|176:87,1,90,10|0,3:2|0:0,0:0:0:0:
324,140,79508,2,0,P|306:99|269:73,1,90,6|0,3:2|0:0,0:0:0:0:
231,158,79934,2,0,L|226:207,3,45,2|2|2|2,3:2|0:2|0:2|0:2,0:0:0:0:
223,242,80359,6,0,P|266:250|310:261,1,90,6|0,3:2|0:2,0:0:0:0:
364,350,80785,2,0,P|405:364|450:369,1,90,8|0,3:2|0:2,0:0:0:0:
501,286,81210,1,0,3:2:0:0:
501,286,81317,1,0,0:2:0:0:
501,286,81423,1,2,0:2:0:0:
501,286,81529,1,0,0:2:0:0:
501,286,81636,2,0,L|510:239,3,45,10|0|2|0,3:2|0:2|0:2|0:2,0:0:0:0:
498,208,82061,6,0,P|436:200|399:151,1,125.999996154785,6|2,3:2|0:2,0:0:0:0:
501,23,82912,2,0,P|440:40|378:45,1,125.999996154785,2|10,0:2|3:2,0:0:0:0:
189,17,83764,6,0,P|215:51|224:89,1,80.9999975280763,6|2,3:2|0:2,0:0:0:0:
230,127,84083,1,2,0:2:0:0:
230,127,84189,2,0,P|214:163|213:203,1,80.9999975280763,10|0,3:2|0:2,0:0:0:0:
285,269,84615,2,0,L|329:262,2,40.4999987640381,2|2|2,3:2|0:2|0:2,0:0:0:0:
229,349,85040,2,0,P|187:354|148:359,1,80.9999975280763,10|0,3:2|0:2,0:0:0:0:
35,327,85466,6,0,P|53:292|52:252,1,80.9999975280763,2|2,3:2|0:2,0:0:0:0:
39,221,85785,1,2,0:2:0:0:
39,221,85891,2,0,P|23:183|30:144,1,80.9999975280763,10|0,3:2|0:2,0:0:0:0:
82,65,86317,1,2,3:2:0:0:
82,65,86423,1,2,0:2:0:0:
82,65,86529,1,2,0:2:0:0:
164,116,86742,2,0,P|204:118|249:115,1,80.9999975280763,10|0,3:2|0:2,0:0:0:0:
367,36,87168,6,0,P|361:75|373:114,1,80.9999975280763,6|2,3:2|0:2,0:0:0:0:
407,145,87487,1,2,0:2:0:0:
407,145,87593,2,0,P|419:185|412:224,1,80.9999975280763,10|0,3:2|0:2,0:0:0:0:
345,305,88019,2,0,L|342:348,2,40.4999987640381,2|2|2,3:2|0:2|0:2,0:0:0:0:
276,224,88444,2,0,P|236:222|196:216,1,80.9999975280763,10|0,3:2|0:2,0:0:0:0:
81,257,88870,6,0,P|95:219|88:180,1,80.9999975280763,2|2,3:2|0:2,0:0:0:0:
71,148,89189,1,2,0:2:0:0:
71,148,89295,2,0,P|65:108|78:71,1,80.9999975280763,10|0,3:2|0:2,0:0:0:0:
166,23,89721,1,2,3:2:0:0:
166,23,89827,1,2,0:2:0:0:
166,23,89934,1,2,0:2:0:0:
235,90,90146,2,0,P|274:99|314:102,1,80.9999975280763,10|0,3:2|0:2,0:0:0:0:
426,185,90572,5,6,3:2:0:0:
426,185,90998,2,0,P|401:207|390:245,1,72,2|2,3:2|0:2,0:0:0:0:
464,299,91423,2,0,P|403:333|334:318,1,144,2|2,3:2|3:2,0:0:0:0:
273,262,92061,5,2,0:2:0:0:
273,262,92168,1,2,0:2:0:0:
273,262,92274,2,0,P|238:254|202:257,1,72,2|2,3:2|0:2,0:0:0:0:
137,325,92700,2,0,P|102:334|66:331,1,72,2|2,3:2|0:2,0:0:0:0:
1,263,93125,2,0,P|19:186|24:121,1,144,2|2,3:2|3:2,0:0:0:0:
145,27,93976,6,0,B|183:16|223:30|207:44|244:61|282:49,1,144,2|2,3:2|3:2,0:0:0:0:
371,19,94615,1,2,0:2:0:0:
428,91,94827,2,0,P|404:158|404:229,1,144,2|2,3:2|3:2,0:0:0:0:
403,331,95465,1,2,0:2:0:0:
313,285,95677,6,0,P|245:264|180:291,1,144,2|2,3:2|3:2,0:0:0:0:
114,368,96316,1,2,0:2:0:0:
41,297,96528,2,0,P|49:244|51:190,1,108,2|0,3:2|0:0,0:0:0:0:
48,150,96954,6,0,L|88:145,3,40.4999987640381,2|2|2|2,3:2|0:2|0:2|0:2,0:0:0:0:
111,111,97380,2,0,P|151:110|191:105,1,80.9999975280763,6|0,3:2|0:2,0:0:0:0:
259,35,97805,1,10,3:2:0:0:
355,25,98018,1,2,0:2:0:0:
428,101,98231,2,0,P|414:139|419:178,1,80.9999975280763,2|0,3:2|0:2,0:0:0:0:
480,265,98656,2,0,P|484:304|471:342,1,80.9999975280763,10|2,3:2|0:2,0:0:0:0:
437,360,98975,5,2,0:2:0:0:
437,360,99082,2,0,P|397:341|361:333,1,80.9999975280763,2|0,3:2|0:2,0:0:0:0:
264,346,99507,2,0,P|269:304|271:265,1,80.9999975280763,10|2,3:2|0:2,0:0:0:0:
297,171,99933,2,0,B|254:158|208:174|226:190|185:209|142:195,1,161.999995056153,2|8,3:2|3:2,0:0:0:0:
60,166,100571,5,2,0:2:0:0:
60,166,100677,1,2,0:2:0:0:
59,166,100784,2,0,P|47:245|46:326,1,161.999995056153,2|10,3:2|3:2,0:0:0:0:
128,379,101422,1,2,0:2:0:0:
212,330,101635,2,0,P|244:352|283:362,1,80.9999975280763,2|2,3:2|0:2,0:0:0:0:
364,308,102061,2,0,P|367:267|356:228,1,80.9999975280763,10|2,3:2|0:2,0:0:0:0:
314,140,102487,5,2,3:2:0:0:
353,51,102700,1,2,0:2:0:0:
451,41,102913,1,2,3:2:0:0:
508,120,103125,1,2,0:2:0:0:
469,209,103338,1,2,3:2:0:0:
348,329,104189,6,0,P|392:359|444:369,2,108,6|2|2,3:2|3:2|3:2,0:0:0:0:
278,265,105040,2,0,P|207:275|138:295,1,144,2|8,0:2|0:2,0:0:0:0:
54,281,105678,5,2,3:2:0:0:
54,281,105785,1,0,0:0:0:0:
54,281,105891,2,0,P|56:333|24:381,2,108,2|2|2,3:2|3:2|3:2,0:0:0:0:
17,194,106742,2,0,P|0:126|42:66,1,144,2|8,0:2|0:2,0:0:0:0:
127,35,107381,1,0,3:2:0:0:
190,107,107593,6,0,B|130:113|148:138|90:144,2,108,2|2|2,3:2|3:2|3:2,0:2:0:0:
283,119,108444,2,0,P|298:153|298:187,1,72,2|10,0:2|3:2,0:0:0:0:
240,261,108870,2,0,P|204:266|169:258,1,72,10|2,0:2|3:2,0:0:0:0:
90,143,109295,6,0,B|116:151|113:187|83:211|75:239|82:283,3,144,2|2|2|2,3:2|3:2|3:2|3:2,0:0:0:0:
252,347,110998,6,0,P|289:332|329:339,1,80.9999975280763,6|0,3:2|0:2,0:0:0:0:
365,357,111317,1,2,0:2:0:0:
365,357,111423,2,0,P|403:369|442:359,1,80.9999975280763,8|2,0:0|0:2,0:0:0:0:
506,285,111849,1,2,3:2:0:0:
464,203,112061,1,8,0:1:0:0:
464,203,112274,1,8,3:1:0:0:
343,49,112700,6,0,P|350:88|338:126,1,80.9999975280763,6|0,3:2|0:2,0:0:0:0:
308,146,113019,1,2,0:2:0:0:
308,146,113125,2,0,P|267:142|228:151,1,80.9999975280763,8|2,0:0|0:2,0:0:0:0:
161,221,113551,1,2,3:2:0:0:
221,296,113764,1,8,0:1:0:0:
221,296,113976,1,8,3:1:0:0:
52,217,114402,6,0,P|22:190|12:152,1,80.9999975280763,6|2,3:2|0:2,0:0:0:0:
55,64,114827,2,0,P|93:53|131:63,1,80.9999975280763,2|2,0:2|0:2,0:0:0:0:
183,152,115253,1,2,0:2:0:0:
183,152,115466,1,2,0:2:0:0:
264,97,115678,1,2,0:2:0:0:
264,97,115891,1,2,0:2:0:0:
326,171,116104,1,2,3:2:0:0:
383,325,116529,6,0,P|344:330|306:316,1,80.9999975280763,0|0,3:2|0:2,0:0:0:0:
221,365,116955,2,0,P|189:340|172:304,1,80.9999975280763,0|0,3:2|0:2,0:0:0:0:
75,307,117380,2,0,P|69:268|83:230,1,80.9999975280763,0|0,3:2|0:2,0:0:0:0:
175,113,117805,5,6,3:2:0:0:
283,223,119508,1,14,3:2:0:0:
283,223,120572,1,8,0:1:0:0:
283,223,120785,1,8,0:1:0:0:
422,288,120998,6,0,B|369:268|327:292|342:303|296:326|251:307,1,180,14|2,3:2|0:2,0:0:0:0:
186,225,121636,2,0,P|192:180|219:145,1,90,10|2,3:2|0:2,0:0:0:0:
322,135,122061,2,0,P|363:152|407:160,1,90,2|0,3:2|0:2,0:0:0:0:
452,162,122381,1,2,3:2:0:0:
452,162,122487,1,8,3:2:0:0:
512,38,122700,6,0,P|419:13|335:8,1,180,14|2,3:2|0:2,0:0:0:0:
250,66,123338,2,0,P|211:89|167:98,1,90,10|2,3:2|0:2,0:0:0:0:
70,61,123764,2,0,P|65:105|77:148,1,90,2|0,3:2|0:2,0:0:0:0:
94,190,124083,1,2,3:2:0:0:
94,190,124189,1,8,3:2:0:0:
59,338,124402,6,0,P|116:271|203:276,1,180,14|2,3:2|0:2,0:0:0:0:
287,344,125040,1,10,3:2:0:0:
287,344,125253,1,2,0:2:0:0:
393,364,125466,1,2,3:2:0:0:
393,364,125679,1,2,0:2:0:0:
446,271,125891,1,10,3:2:0:0:
373,191,126104,1,2,0:2:0:0:
275,237,126317,6,0,P|229:240|188:223,1,90,6|0,3:2|0:2,0:0:0:0:
205,103,126742,2,0,P|250:100|291:117,1,90,10|0,3:2|0:2,0:0:0:0:
373,191,127168,2,0,P|373:236|380:281,1,90,2|0,3:2|0:2,0:0:0:0:
463,340,127593,1,10,3:2:0:0:
511,198,127806,5,2,0:2:0:0:
511,198,127912,1,2,0:2:0:0:
511,198,128019,2,0,P|512:153|497:110,1,90,6|0,3:2|0:2,0:0:0:0:
402,68,128444,2,0,P|358:79|313:83,1,90,10|0,3:2|0:0,0:0:0:0:
226,27,128870,1,2,3:2:0:0:
123,14,129083,1,2,0:2:0:0:
56,92,129295,1,10,3:2:0:0:
90,199,129508,5,2,0:2:0:0:
90,199,129615,1,0,0:2:0:0:
90,199,129721,2,0,P|94:251|94:292,1,90,6|0,3:2|0:2,0:0:0:0:
162,366,130146,2,0,P|201:344|245:340,1,90,10|0,3:2|0:2,0:0:0:0:
345,368,130572,1,2,3:2:0:0:
419,296,130785,1,2,0:2:0:0:
374,202,130998,2,0,P|363:158|377:116,1,90,10|0,3:2|0:2,0:0:0:0:
481,14,131423,6,0,P|438:1|384:8,1,90,6|0,3:2|0:2,0:0:0:0:
357,21,131742,1,2,0:0:0:0:
357,21,131849,2,0,P|317:41|273:38,1,90,8|2,3:2|0:2,0:0:0:0:
128,24,132274,6,0,P|149:62|149:107,1,90,6|0,3:2|0:2,0:0:0:0:
130,144,132593,1,2,0:0:0:0:
130,144,132700,2,0,P|117:187|126:231,1,90,8|2,3:2|0:2,0:0:0:0:
205,346,133125,6,0,P|246:358|290:351,1,90,14|0,3:2|0:0,0:0:0:0:
298,199,133551,2,0,P|255:186|211:191,1,90,14|0,3:2|0:0,0:0:0:0:
365,269,133976,2,0,P|392:186|341:111,1,180,14|0,3:2|0:2,0:0:0:0:
224,22,134615,6,0,B|171:2|129:26|144:37|98:60|53:41,1,180,14|2,3:2|0:2,0:0:0:0:
2,131,135253,2,0,P|1:177|20:216,1,90,10|2,3:2|0:2,0:0:0:0:
119,245,135678,2,0,P|159:222|183:186,1,90,2|0,3:2|0:2,0:0:0:0:
192,149,135998,1,2,3:2:0:0:
192,149,136104,1,8,3:2:0:0:
316,47,136317,6,0,P|402:48|454:118,1,180,14|2,3:2|0:2,0:0:0:0:
413,214,136955,2,0,P|417:258|426:307,1,90,10|2,3:2|0:2,0:0:0:0:
338,360,137381,2,0,P|291:344|248:350,1,90,2|0,3:2|0:2,0:0:0:0:
216,362,137700,1,2,3:2:0:0:
216,362,137806,1,8,3:2:0:0:
48,375,138019,6,0,P|57:285|60:195,1,180,14|2,3:2|0:2,0:0:0:0:
28,101,138657,1,10,3:2:0:0:
28,101,138870,1,2,0:2:0:0:
97,13,139083,1,2,3:2:0:0:
97,13,139296,1,2,0:2:0:0:
203,23,139508,1,10,3:2:0:0:
244,123,139721,1,2,0:2:0:0:
180,210,139934,6,0,L|128:219,3,45,6|2|2|2,3:2|0:2|0:2|0:2,0:0:0:0:
100,197,140359,2,0,L|48:206,3,45,10|2|2|2,3:2|0:2|0:2|0:2,0:0:0:0:
18,188,140785,2,0,P|26:232|25:276,1,90,2|0,3:2|0:2,0:0:0:0:
89,358,141210,1,8,3:2:0:0:
232,304,141423,5,2,0:2:0:0:
232,304,141529,1,2,0:2:0:0:
232,304,141636,2,0,P|271:290|322:298,1,90,6|0,3:2|0:2,0:0:0:0:
410,343,142061,2,0,P|410:298|417:254,1,90,10|0,3:2|0:0,0:0:0:0:
460,154,142487,1,6,3:2:0:0:
416,54,142700,1,2,0:2:0:0:
308,48,142912,1,10,3:2:0:0:
252,143,143125,5,2,0:2:0:0:
252,143,143232,1,2,0:2:0:0:
252,143,143338,2,0,P|208:139|168:157,1,90,6|0,3:2|0:0,0:0:0:0:
192,309,143764,2,0,P|219:274|223:229,1,90,10|0,3:2|0:0,0:0:0:0:
75,176,144189,2,0,P|93:217|130:243,1,90,6|0,3:2|0:0,0:0:0:0:
167,157,144615,2,0,L|159:108,3,45,2|2|2|2,3:2|0:2|0:2|0:2,0:0:0:0:
155,72,145040,6,0,P|200:65|245:63,1,90,6|0,3:2|0:2,0:0:0:0:
311,142,145466,2,0,P|356:143|400:137,1,90,8|0,3:2|0:2,0:0:0:0:
500,210,145891,1,0,3:2:0:0:
500,210,145998,1,0,0:2:0:0:
500,210,146104,1,2,0:2:0:0:
500,210,146210,1,0,0:2:0:0:
500,210,146317,2,0,L|494:262,3,45,10|0|2|0,3:2|0:2|0:2|0:2,0:0:0:0:
482,287,146742,6,0,P|414:286|355:298,1,125.999996154785,6|2,3:2|0:2,0:0:0:0:
213,375,147593,2,0,P|250:327|242:266,1,125.999996154785,2|10,0:2|3:2,0:0:0:0:
58,295,148444,5,6,3:2:0:0:
13,213,148657,1,2,0:2:0:0:
13,213,148764,1,2,0:2:0:0:
13,213,148870,2,0,P|8:170|18:130,1,85.4999977169037,10|2,3:2|0:2,0:0:0:0:
78,46,149294,1,2,3:2:0:0:
180,53,149507,1,2,0:2:0:0:
233,140,149720,2,0,P|238:183|228:223,1,85.4999977169037,10|0,3:2|0:2,0:0:0:0:
163,323,150145,5,6,3:2:0:0:
272,345,150358,1,2,0:2:0:0:
272,345,150465,1,2,0:2:0:0:
272,345,150571,2,0,P|314:350|358:352,1,85.4999977169037,10|2,3:2|0:2,0:0:0:0:
460,356,150997,1,2,3:2:0:0:
508,266,151209,1,2,0:2:0:0:
462,173,151422,2,0,P|411:168|351:167,1,85.4999977169037,10|0,3:2|0:2,0:0:0:0:
263,233,151848,5,6,3:2:0:0:
191,175,152060,1,2,0:2:0:0:
191,175,152167,1,2,0:2:0:0:
191,175,152273,2,0,P|186:132|200:92,1,85.4999977169037,10|2,3:2|0:2,0:0:0:0:
270,16,152699,1,2,3:2:0:0:
372,11,152911,1,2,0:2:0:0:
454,71,153124,1,10,3:2:0:0:
462,173,153337,1,2,0:2:0:0:
395,250,153550,6,0,P|399:293|385:333,1,85.4999977169037,6|2,3:2|0:2,0:0:0:0:
264,322,153975,2,0,P|259:279|273:239,1,85.4999977169037,10|2,3:2|0:2,0:0:0:0:
339,160,154401,1,2,3:2:0:0:
257,106,154614,1,8,0:1:0:0:
257,106,154826,1,8,3:1:0:0:
66,36,155252,5,6,3:2:0:0:
23,128,155465,1,2,0:2:0:0:
23,128,155571,1,2,0:2:0:0:
23,128,155678,2,0,P|16:170|28:212,1,85.4999977169037,10|2,3:2|0:2,0:0:0:0:
98,286,156103,1,2,3:2:0:0:
200,282,156316,1,2,0:2:0:0:
257,197,156529,2,0,P|263:154|251:112,1,85.4999977169037,10|0,3:2|0:2,0:0:0:0:
338,26,156954,5,6,3:2:0:0:
441,71,157167,1,2,0:2:0:0:
441,71,157273,1,2,0:2:0:0:
441,71,157380,2,0,P|445:113|444:156,1,85.4999977169037,10|2,3:2|0:2,0:0:0:0:
441,258,157805,1,2,3:2:0:0:
348,302,158018,1,2,0:2:0:0:
263,243,158231,2,0,P|220:237|177:238,1,85.4999977169037,10|0,3:2|0:2,0:0:0:0:
61,337,158656,5,6,3:2:0:0:
39,236,158869,1,2,0:2:0:0:
39,236,158975,1,2,0:2:0:0:
39,236,159082,2,0,P|31:194|42:153,1,85.4999977169037,10|2,3:2|0:2,0:0:0:0:
108,68,159507,1,10,3:2:0:0:
207,29,159720,1,10,3:2:0:0:
313,38,159933,1,10,3:2:0:0:
395,103,160145,6,0,P|365:212|278:139,1,270,14|8,3:2|3:2,0:0:0:0:
313,38,160997,1,0,0:2:0:0:
207,29,161209,6,0,P|170:69|163:107,1,90,10|0,3:2|0:2,0:0:0:0:
165,144,161528,1,0,0:2:0:0:
165,144,161635,2,0,P|154:187|126:222,1,90,10|0,3:2|0:2,0:0:0:0:
93,241,161954,1,0,0:2:0:0:
93,241,162060,1,0,0:0:0:0:
256,192,162167,12,2,163550,0:2:0:0:
73,296,173763,6,0,L|81:352,2,40.4999987640381,0|0|14,3:2|3:2|3:2,0:0:0:0:
159,140,174614,5,2,3:2:0:0:
159,140,174826,1,14,0:2:0:0:
272,292,175465,5,2,3:2:0:0:
272,292,175678,2,0,P|314:307|359:303,1,90,14|0,3:2|0:0,0:0:0:0:
377,147,176103,2,0,P|343:175|324:215,1,90,14|0,3:2|0:0,0:0:0:0:
455,316,176528,2,0,P|504:243|471:164,1,180,14|0,3:2|0:2,0:0:0:0:
408,65,177167,6,0,B|359:46|321:68|335:78|293:99|252:82,1,161.999995056153,2|2,0:2|0:2,0:0:0:0:
158,42,177805,6,0,P|113:41|71:58,1,90,10|2,3:2|0:2,0:0:0:0:
15,145,178231,2,0,P|22:190|25:235,1,90,2|0,3:2|0:2,0:0:0:0:
31,278,178550,1,2,3:2:0:0:
31,278,178656,1,8,3:2:0:0:
134,367,178869,6,0,P|169:287|253:268,1,180,14|2,3:2|0:2,0:0:0:0:
336,330,179507,2,0,P|375:350|422:353,1,90,10|2,3:2|0:2,0:0:0:0:
499,285,179933,2,0,P|496:240|475:199,1,90,2|0,3:2|0:2,0:0:0:0:
453,173,180252,1,2,3:2:0:0:
453,173,180358,1,8,3:2:0:0:
448,24,180571,6,0,P|357:32|269:46,1,180,14|2,3:2|0:2,0:0:0:0:
196,130,181209,1,10,3:2:0:0:
196,130,181422,1,2,0:2:0:0:
187,241,181635,1,2,3:2:0:0:
187,241,181848,1,2,0:2:0:0:
271,302,182060,1,10,3:2:0:0:
368,261,182273,1,2,0:2:0:0:
380,153,182486,6,0,L|334:146,3,45,6|2|2|2,3:2|0:2|0:2|0:2,0:0:0:0:
308,115,182912,2,0,L|262:108,3,45,10|2|2|2,3:2|0:2|0:2|0:2,0:0:0:0:
235,79,183337,2,0,P|191:76|146:70,1,90,2|0,3:2|0:2,0:0:0:0:
43,49,183763,1,8,3:2:0:0:
9,199,183975,5,2,0:2:0:0:
9,199,184082,1,2,0:2:0:0:
9,199,184188,2,0,P|1:243|13:286,1,90,6|0,3:2|0:2,0:0:0:0:
104,336,184614,2,0,P|145:320|177:288,1,90,10|0,3:2|0:0,0:0:0:0:
162,186,185039,1,6,3:2:0:0:
246,125,185252,1,2,0:2:0:0:
337,174,185465,1,10,3:2:0:0:
327,283,185677,5,2,0:2:0:0:
327,283,185784,1,2,0:2:0:0:
327,283,185890,2,0,P|355:316|397:331,1,90,6|0,3:2|0:0,0:0:0:0:
485,205,186316,2,0,P|441:211|407:241,1,90,10|0,3:2|0:0,0:0:0:0:
477,382,186741,2,0,P|492:340|483:295,1,90,6|0,3:2|0:0,0:0:0:0:
398,331,187167,2,0,L|343:338,3,45,2|2|2|2,3:2|0:2|0:2|0:2,0:0:0:0:
316,322,187593,6,0,B|295:348|265:351|238:342|215:324|207:299|206:273|213:253|213:253|221:231|219:203|191:179|158:178|131:204|126:232|139:260|167:268,1,360,6|0,3:2|3:2,0:0:0:0:
303,235,188656,1,2,0:2:0:0:
303,235,188869,2,0,P|295:186|271:151,1,90,10|2,3:2|0:2,0:0:0:0:
164,112,189294,6,0,P|83:148|50:229,1,180,6|10,3:2|3:2,0:0:0:0:
169,366,190145,2,0,P|258:367|348:375,1,180,2|10,3:2|3:2,0:0:0:0:
489,249,190997,5,6,3:2:0:0:
512,150,191209,1,2,0:2:0:0:
512,150,191316,1,2,0:2:0:0:
512,150,191422,2,0,P|490:110|455:82,1,90,10|2,3:2|0:2,0:0:0:0:
348,98,191848,5,6,3:2:0:0:
322,207,192060,1,2,0:2:0:0:
322,207,192167,1,2,0:2:0:0:
322,207,192273,2,0,P|343:246|378:274,1,90,10|2,3:2|0:2,0:0:0:0:
489,249,192699,5,6,3:2:0:0:
512,150,192911,1,2,0:2:0:0:
512,150,193018,1,2,0:2:0:0:
512,150,193124,2,0,P|490:110|455:82,1,90,10|2,3:2|0:2,0:0:0:0:
348,98,193550,5,6,3:2:0:0:
267,25,193763,1,2,0:2:0:0:
159,18,193975,1,10,3:2:0:0:
65,72,194188,1,2,0:2:0:0:
51,168,194401,6,0,P|93:172|135:179,1,85.4999977169037,6|0,3:2|0:2,0:0:0:0:
177,273,194826,2,0,P|219:280|261:284,1,85.4999977169037,8|0,3:2|0:2,0:0:0:0:
364,353,195252,1,0,3:2:0:0:
364,353,195358,1,0,0:2:0:0:
364,353,195465,1,2,0:2:0:0:
364,353,195571,1,0,0:2:0:0:
364,353,195678,2,0,L|409:361,3,42.7499988584519,10|0|2|0,3:2|0:2|0:2|0:2,0:0:0:0:
449,366,196103,5,2,0:2:0:0:
462,200,196528,2,0,P|451:240|411:262,2,90,2|2|2,0:2|0:2|0:2,0:0:0:0:
260,197,197805,6,0,B|303:209|345:207|345:207|305:268|250:313|250:313|293:311|335:321,1,315,2|0,0:2|0:0,0:0:0:0:
463,276,199507,6,0,P|480:241|482:200,1,80.9999975280763,6|2,3:2|0:2,0:0:0:0:
468,166,199826,1,2,0:2:0:0:
468,166,199933,2,0,P|456:127|464:87,1,80.9999975280763,10|0,3:2|0:2,0:0:0:0:
375,46,200358,2,0,L|381:0,2,40.4999987640381,2|2|2,3:2|0:2|0:2,0:0:0:0:
293,100,200784,2,0,P|290:140|285:181,1,80.9999975280763,10|0,3:2|0:2,0:0:0:0:
339,280,201209,6,0,P|296:279|260:291,1,80.9999975280763,2|2,3:2|0:2,0:0:0:0:
231,319,201528,1,2,0:2:0:0:
231,319,201635,2,0,P|193:332|153:327,1,80.9999975280763,10|0,3:2|0:2,0:0:0:0:
75,286,202060,1,2,3:2:0:0:
75,286,202167,1,2,0:2:0:0:
75,286,202273,1,2,0:2:0:0:
106,193,202486,2,0,P|111:153|113:114,1,80.9999975280763,10|0,3:2|0:2,0:0:0:0:
197,8,202912,6,0,P|224:36|261:53,1,80.9999975280763,6|2,3:2|0:2,0:0:0:0:
306,54,203232,1,2,0:2:0:0:
306,54,203338,2,0,P|345:45|385:49,1,80.9999975280763,10|0,3:2|0:0,0:0:0:0:
469,98,203764,2,0,L|509:102,2,40.4999987640381,2|2|2,3:2|0:2|0:2,0:0:0:0:
388,153,204189,2,0,P|384:194|379:233,1,80.9999975280763,10|0,3:2|0:2,0:0:0:0:
315,335,204615,6,0,P|270:340|234:329,1,80.9999975280763,2|2,3:2|0:2,0:0:0:0:
205,312,204934,1,2,0:2:0:0:
205,312,205040,2,0,P|168:295|127:296,1,80.9999975280763,10|0,3:2|0:0,0:0:0:0:
44,337,205466,1,2,3:2:0:0:
44,337,205572,1,2,0:2:0:0:
44,337,205678,1,2,0:2:0:0:
12,244,205891,2,0,P|6:200|5:160,1,80.9999975280763,10|0,3:2|0:2,0:0:0:0:
0,31,206317,6,0,P|39:27|78:39,1,80.9999975280763,6|2,3:2|0:2,0:0:0:0:
113,68,206636,1,2,0:2:0:0:
113,68,206742,2,0,P|150:83|189:81,1,80.9999975280763,10|0,3:2|0:2,0:0:0:0:
279,41,207168,2,0,L|284:0,2,40.4999987640381,2|2|2,3:2|0:2|0:2,0:0:0:0:
320,129,207593,2,0,P|360:130|400:136,1,80.9999975280763,10|0,3:2|0:2,0:0:0:0:
475,200,208019,6,0,P|476:240|458:275,1,80.9999975280763,2|2,3:2|0:2,0:0:0:0:
426,300,208338,1,2,0:2:0:0:
426,300,208444,2,0,P|385:299|348:313,1,80.9999975280763,10|0,3:2|0:2,0:0:0:0:
274,374,208870,1,2,3:2:0:0:
274,374,208976,1,2,0:2:0:0:
274,374,209083,1,2,0:2:0:0:
210,300,209295,2,0,P|213:260|214:220,1,80.9999975280763,10|0,3:2|0:2,0:0:0:0:
276,88,209721,6,0,P|235:101|195:96,1,80.9999975280763,6|2,3:2|0:2,0:0:0:0:
164,82,210040,1,2,0:2:0:0:
164,82,210146,2,0,P|125:71|86:78,1,80.9999975280763,10|0,3:2|0:2,0:0:0:0:
16,145,210572,1,2,3:2:0:0:
16,145,210678,1,2,0:2:0:0:
16,145,210785,2,0,P|17:166|20:185,1,40.4999987640381,2|0,0:0|0:0,0:0:0:0:
39,229,210998,2,0,P|63:261|75:299,1,80.9999975280763,10|0,3:2|0:2,0:0:0:0:
205,351,211423,6,0,P|219:313|219:272,1,80.9999975280763,2|2,3:2|0:2,0:0:0:0:
204,240,211742,1,2,0:2:0:0:
204,240,211849,2,0,P|189:202|193:162,1,80.9999975280763,10|0,3:2|0:2,0:0:0:0:
245,84,212274,1,2,3:2:0:0:
245,84,212381,1,2,0:2:0:0:
245,84,212487,2,0,P|270:85|292:88,1,40.4999987640381,2|0,0:0|0:0,0:0:0:0:
333,97,212700,2,0,P|358:128|395:143,1,80.9999975280763,10|0,3:2|0:2,0:0:0:0:
256,192,213125,12,0,214827,0:0:0:0:
