osu file format v14

[General]
AudioFilename: audio.mp3
AudioLeadIn: 0
PreviewTime: 51699
Countdown: 0
SampleSet: Soft
StackLeniency: 0.4
Mode: 0
LetterboxInBreaks: 0
WidescreenStoryboard: 0

[Editor]
DistanceSpacing: 1.8
BeatDivisor: 4
GridSize: 4
TimelineZoom: 1.4

[Metadata]
Title:Kaimin! Anmin! Syalist Seikatsu (TV Size)
TitleUnicode:快眠!安眠!スヤリスト生活 (TV Size)
Artist:Syalis Hime (CV: Minase Inori)
ArtistUnicode:スヤリス姫 (CV: 水瀬いのり)
Creator:verychill
Version:kunka's Hard
Source:魔王城でおやすみ
Tags:sleepy princess in the demon castle maoujou de oyasumi opening op anime japanese pop jpop j-pop オーロラ・栖夜・リース・カイミーン Aurora Sya Lis Goodereste kunka kunkakunkakunkakunka Silent Rock HeTo
BeatmapID:2647778
BeatmapSetID:1273683

[Difficulty]
HPDrainRate:4
CircleSize:4
OverallDifficulty:5.5
ApproachRate:7
SliderMultiplier:1.4
SliderTickRate:1

[Events]
//Background and Video events
Video,-574,"video.mp4"
0,0,"zzz_bg.jpg",0,0
//Break Periods
//Storyboard Layer 0 (Background)
//Storyboard Layer 1 (Fail)
//Storyboard Layer 2 (Pass)
//Storyboard Layer 3 (Foreground)
//Storyboard Layer 4 (Overlay)
//Storyboard Sound Samples

[TimingPoints]
2338,425.531914893617,4,2,1,30,1,0
2550,-100,4,2,1,35,0,0
2763,-100,4,2,1,40,0,0
2976,-100,4,2,1,45,0,0
3189,-100,4,2,1,50,0,0
3401,-100,4,2,1,55,0,0
3614,-100,4,2,99,5,0,0
3827,-125,4,2,1,70,0,0
9146,-100,4,2,1,70,0,0
10848,-100,4,2,1,80,0,0
14252,-125,4,2,1,65,0,0
17657,-100,4,2,1,80,0,0
24465,-125,4,2,11,50,0,0
24572,-125,4,2,1,50,0,0
27869,-125,4,2,11,50,0,0
27976,-125,4,2,1,50,0,0
31167,-125,4,2,99,5,0,0
31274,-100,4,2,1,80,0,0
37657,-100,4,2,1,60,0,0
38082,-111.111111111111,4,2,1,50,0,0
43189,-111.111111111111,4,2,1,70,0,0
44891,-100,4,2,1,80,0,0
51699,-125,4,2,1,50,0,0
54891,-90.9090909090909,4,2,11,90,0,1
54997,-90.9090909090909,4,2,1,90,0,1
63933,-90.9090909090909,4,2,99,5,0,1
64040,-90.9090909090909,4,2,1,90,0,1
67018,-86.9565217391304,4,2,1,90,0,1
67444,-83.3333333333333,4,2,1,90,0,1
67869,-80,4,2,1,90,0,1
68295,-80,4,2,1,90,0,0
68508,-90.9090909090909,4,2,11,90,0,1
68614,-90.9090909090909,4,2,1,90,0,1
77550,-90.9090909090909,4,2,99,5,0,1
77657,-90.9090909090909,4,2,1,90,0,1
80635,-125,4,2,1,65,0,0
82337,-100,4,2,1,80,0,0
85742,-166.666666666667,4,2,1,50,0,0
86167,-166.666666666667,4,2,1,40,0,0
86593,-166.666666666667,4,2,1,30,0,0
87018,-166.666666666667,4,2,1,20,0,0
87444,-166.666666666667,4,2,1,10,0,0

[Colours]
Combo1 : 196,0,103
Combo2 : 209,163,252
Combo3 : 251,216,142
Combo4 : 249,134,163
Combo5 : 45,94,185
Combo6 : 99,241,146
Combo7 : 99,210,248
Combo8 : 62,145,109

[HitObjects]
256,192,2338,12,0,3614,0:0:0:0:
256,192,3827,6,0,P|344:272|352:160,1,280,4|2,3:2|0:0,0:0:0:0:
183,64,5529,6,0,B|131:104|75:68|75:68|123:188|11:212,1,280,4|2,3:1|0:0,0:0:0:0:
182,343,7231,6,0,B|230:317|287:350|287:350|362:305|383:386|452:309,1,280,4|2,3:2|0:2,0:0:0:0:
481,187,8720,1,2,0:2:0:0:
310,71,9146,70,0,P|311:36|326:5,1,70,6|0,3:2|0:0,0:0:0:0:
407,26,9572,2,0,P|406:61|391:92,1,70,2|0,3:3|0:0,0:0:0:0:
332,152,9997,2,0,P|316:183|315:218,1,70,2|0,3:3|0:0,0:0:0:0:
336,299,10423,1,8,3:2:0:0:
246,348,10635,1,8,0:0:0:0:
246,348,10742,1,8,0:0:0:0:
246,348,10848,6,0,B|180:313|180:381|112:349,1,140,4|8,3:2|3:2,0:0:0:0:
38,310,11486,1,0,0:0:0:0:
55,227,11699,2,0,P|49:194|40:159,1,70,2|2,3:3|0:0,0:0:0:0:
123,144,12125,2,0,P|131:177|138:212,1,70,8|2,3:2|0:0,0:0:0:0:
229,263,12550,6,0,P|280:228|353:246,1,140,4|8,3:1|3:2,0:0:0:0:
429,211,13189,1,2,0:0:0:0:
403,131,13401,2,0,L|332:138,1,70,4|0,3:2|0:0,0:0:0:0:
282,70,13827,2,0,L|212:63,1,70,10|2,3:2|0:2,0:0:0:0:
113,84,14252,22,0,B|20:170|101:206|64:292|64:292|121:254|175:254|223:293,1,392,4|0,3:1|0:0,0:0:0:0:
317,329,15955,102,0,P|360:299|419:309,1,112,6|2,3:2|0:0,0:0:0:0:
487,193,16806,1,2,0:0:0:0:
353,184,17231,1,10,0:0:0:0:
317,329,17657,21,4,3:2:0:0:
234,316,17869,1,2,0:0:0:0:
234,316,17976,1,2,0:0:0:0:
234,316,18082,2,0,P|196:316|162:322,1,70,8|2,3:2|0:0,0:0:0:0:
82,342,18508,2,0,L|73:309,3,35,2|2|0|0,3:2|1:2|1:2|1:0,0:0:0:0:
49,273,18933,2,0,L|56:198,1,70,8|2,3:2|0:0,0:0:0:0:
130,164,19359,5,2,3:2:0:0:
204,202,19572,1,2,0:0:0:0:
204,202,19678,1,2,0:0:0:0:
204,202,19784,2,0,P|238:196|273:196,1,70,8|2,3:2|0:0,0:0:0:0:
345,240,20210,2,0,L|341:277,3,35,2|0|0|0,3:2|1:0|1:2|1:0,0:0:0:0:
358,324,20635,1,8,3:2:0:0:
457,291,20848,1,2,0:0:0:0:
422,191,21061,101,4,3:2:0:0:
454,113,21274,1,2,0:0:0:0:
454,113,21380,1,2,0:0:0:0:
454,113,21486,2,0,P|454:78|448:43,1,70,8|2,3:2|0:0,0:0:0:0:
364,43,21912,2,0,L|323:54,3,35,2|2|0|0,3:2|1:2|1:2|1:0,0:0:0:0:
306,86,22337,2,0,P|270:78|234:78,1,70,8|2,3:2|0:0,0:0:0:0:
160,114,22763,5,2,3:2:0:0:
203,186,22976,1,2,0:0:0:0:
203,186,23082,1,2,0:0:0:0:
203,186,23189,2,0,P|203:220|197:255,1,70,8|2,3:2|0:0,0:0:0:0:
128,302,23614,2,0,L|92:296,3,35,2|0|0|0,3:2|1:0|1:2|1:0,0:0:0:0:
42,309,24040,1,8,3:2:0:0:
11,209,24252,1,2,0:0:0:0:
65,117,24465,6,0,P|121:109|175:125,1,112,4|4,1:1|0:3,0:0:0:0:
307,125,25316,2,0,P|360:109|415:117,1,112,8|2,1:3|0:0,0:0:0:0:
477,150,25955,1,2,0:0:0:0:
480,154,26061,1,2,0:0:0:0:
483,158,26167,2,0,L|477:221,1,56,2|0,0:0|0:0,0:0:0:0:
407,248,26593,2,0,L|413:311,1,56,4|0,0:3|0:0,0:0:0:0:
342,338,27018,2,0,P|287:328|239:355,1,112,8|2,1:3|0:0,0:0:0:0:
138,194,27869,6,0,P|82:203|36:177,1,112,0|4,1:0|0:3,0:0:0:0:
65,103,28508,1,2,0:0:0:0:
141,116,28720,1,8,1:3:0:0:
64,282,29146,1,2,0:0:0:0:
64,282,29359,1,2,0:0:0:0:
134,315,29572,2,0,L|192:305,1,56,2|0,0:0|0:0,0:0:0:0:
261,335,29997,1,4,0:3:0:0:
261,335,30210,1,2,0:0:0:0:
329,297,30423,2,0,P|336:270|329:238,1,56,8|0,0:3|0:0,0:0:0:0:
314,166,30848,2,0,P|349:145|394:147,1,84,2|0,1:1|0:0,0:0:0:0:
433,148,31274,102,0,L|422:73,1,70,4|0,3:2|0:0,0:0:0:0:
365,17,31699,1,10,3:2:0:0:
281,4,31912,1,2,0:0:0:0:
203,35,32125,2,0,P|143:68|77:44,1,140,2|10,3:2|3:2,0:0:0:0:
38,119,32763,1,2,0:0:0:0:
38,119,32869,1,2,0:0:0:0:
38,119,32976,6,0,L|49:190,1,70,2|2,3:2|0:0,0:0:0:0:
94,258,33401,1,10,3:2:0:0:
177,248,33614,1,2,0:0:0:0:
257,271,33827,2,0,P|290:211|266:145,1,140,2|8,3:2|3:2,0:0:0:0:
309,49,34465,1,2,0:0:0:0:
309,49,34572,1,2,0:0:0:0:
309,49,34678,102,0,B|377:33|377:33|444:65,1,140,2|10,3:3|3:2,0:0:0:0:
507,114,35316,1,2,0:0:0:0:
456,181,35529,2,0,L|450:252,1,70,2|2,3:3|0:0,0:0:0:0:
369,223,35955,2,0,L|363:153,1,70,8|2,3:2|0:0,0:0:0:0:
293,66,36380,21,2,3:3:0:0:
185,165,36593,1,2,0:0:0:0:
212,20,36806,1,2,3:3:0:0:
276,154,37018,1,2,0:0:0:0:
144,82,37231,1,2,3:3:0:0:
377,35,37657,1,2,0:1:0:0:
365,223,38082,86,0,P|353:269|353:322,2,94.499997116089,4|0|0,3:2|0:0|3:2,3:3:0:0:
395,153,38933,1,2,0:0:0:0:
368,82,39146,2,0,P|379:73|394:65,2,31.4999990386963,0|0|0,1:2|1:0|1:2,0:0:0:0:
303,41,39572,1,0,3:2:0:0:
298,38,39678,1,2,0:0:0:0:
293,35,39784,38,0,P|250:23|202:44,2,94.499997116089,2|2|2,3:2|3:2|3:2,3:3:0:0:
302,110,40635,1,2,0:0:0:0:
364,153,40848,2,0,P|381:148|400:145,2,31.4999990386963,0|0|0,1:2|1:2|1:2,0:0:0:0:
320,215,41274,1,0,3:2:0:0:
358,279,41486,70,0,P|406:284|445:262,2,94.499997116089,2|0|2,3:2|1:0|3:2,3:0:0:0:
282,281,42338,1,2,0:0:0:0:
213,312,42550,2,0,P|218:328|221:348,2,31.4999990386963,0|0|0,1:2|1:0|1:2,0:0:0:0:
156,261,42976,1,0,3:2:0:0:
190,193,43189,69,2,3:3:0:0:
178,157,43614,1,2,3:3:0:0:
192,122,44040,1,2,3:3:0:0:
180,86,44465,1,10,3:3:0:0:
194,51,44891,38,0,P|238:34|298:41,1,105,4|0,3:2|1:2,0:0:0:0:
324,68,45316,2,0,L|398:61,1,70,10|2,3:2|0:0,0:0:0:0:
470,95,45742,1,2,3:2:0:0:
401,201,45955,1,8,0:1:0:0:
310,114,46167,2,0,L|240:120,1,70,8|0,3:1|0:0,0:0:0:0:
159,211,46593,54,0,P|213:202|255:235,1,105,4|0,3:1|1:2,0:0:0:0:
269,267,47018,2,0,L|262:336,1,70,10|2,3:2|0:0,0:0:0:0:
181,359,47444,1,2,3:2:0:0:
65,307,47657,1,8,0:1:0:0:
128,198,47869,2,0,L|121:128,1,70,8|0,3:1|0:0,0:0:0:0:
221,54,48295,85,4,3:2:0:0:
221,54,48508,1,0,0:0:0:0:
322,78,48720,1,2,0:3:0:0:
322,78,48933,1,0,0:0:0:0:
251,155,49146,37,2,0:3:0:0:
352,179,49359,1,0,0:0:0:0:
424,102,49572,1,2,0:3:0:0:
393,1,49785,1,0,0:0:0:0:
322,78,49997,38,0,L|336:146,1,70,2|0,3:3|0:0,0:0:0:0:
409,187,50423,2,0,L|395:255,1,70,0|0,3:2|1:2,0:0:0:0:
296,289,50848,2,0,L|282:221,1,70,0|0,3:2|1:2,0:0:0:0:
206,181,51274,2,0,L|220:113,1,70,0|0,3:2|1:2,0:0:0:0:
256,192,51699,12,8,52976,0:2:0:0:
256,192,53401,12,8,54678,3:2:0:0:
256,192,54891,22,0,P|328:176|397:210,1,154.000004699707,4|2,3:2|0:0,0:0:0:0:
454,283,55529,1,10,3:2:0:0:
398,357,55742,1,2,0:0:0:0:
308,334,55955,2,0,L|193:343,1,115.50000352478,2|0,3:2|1:2,0:0:0:0:
146,346,56380,1,8,3:2:0:0:
63,242,56593,6,0,P|133:206|206:225,1,154.000004699707,6|2,3:2|0:0,0:0:0:0:
295,220,57231,1,8,3:2:0:0:
346,143,57444,1,2,0:0:0:0:
286,71,57657,2,0,L|171:80,1,115.50000352478,2|0,3:2|1:2,0:0:0:0:
124,83,58082,1,8,3:2:0:0:
42,186,58295,6,0,P|25:259|61:326,1,154.000004699707,6|0,3:2|1:2,0:0:0:0:
150,303,58933,1,10,3:3:0:0:
236,337,59146,1,0,1:2:0:0:
318,294,59359,1,8,3:3:0:0:
228,198,59572,1,0,1:2:0:0:
260,110,59784,1,10,3:3:0:0:
228,198,59997,1,0,1:2:0:0:
357,175,60210,70,0,P|394:174|431:193,1,77.0000023498536,6|0,3:2|0:0,0:0:0:0:
400,319,60635,2,0,P|363:320|326:301,1,77.0000023498536,2|0,3:3|0:0,0:0:0:0:
225,220,61061,2,0,P|188:219|151:238,1,77.0000023498536,2|0,3:3|0:0,0:0:0:0:
71,339,61486,1,8,3:2:0:0:
20,217,61699,1,8,0:2:0:0:
20,217,61806,1,8,0:2:0:0:
20,217,61912,6,0,P|20:179|29:138,1,77.0000023498536,4|0,3:2|0:0,0:0:0:0:
87,69,62338,2,0,L|166:74,1,77.0000023498536,10|0,3:2|0:0,0:0:0:0:
238,128,62763,1,2,3:2:0:0:
238,128,62976,1,2,0:0:0:0:
213,217,63189,1,8,3:2:0:0:
213,217,63401,1,2,0:2:0:0:
259,296,63614,6,0,P|313:280|372:292,1,115.50000352478,6|0,3:2|0:0,0:0:0:0:
413,307,64040,2,0,P|452:302|483:276,1,77.0000023498536,10|0,3:2|0:0,0:0:0:0:
480,186,64465,1,10,3:3:0:0:
390,166,64678,1,10,0:3:0:0:
343,246,64891,1,10,3:3:0:0:
92,173,65316,54,0,L|67:99,1,77.0000023498536,4|0,3:1|0:0,0:0:0:0:
83,56,65635,2,0,L|155:31,1,77.0000023498536,2|0,1:2|0:0,0:0:0:0:
201,20,65955,1,2,0:0:0:0:
295,110,66167,2,0,L|320:184,1,77.0000023498536,4|0,3:2|0:0,0:0:0:0:
304,227,66486,2,0,L|231:251,1,77.0000023498536,2|0,1:2|0:0,0:0:0:0:
186,263,66806,1,2,0:2:0:0:
15,170,67018,22,0,P|53:160|91:172,1,80.5000015354157,6|0,3:2|0:0,0:0:0:0:
155,31,67444,102,0,P|192:48|214:83,1,83.9999974365235,4|0,3:1|0:0,0:0:0:0:
373,100,67869,54,0,P|352:160|302:98,1,175,4|10,3:2|3:2,0:0:0:0:
465,39,68508,86,0,L|449:194,1,154.000004699707,4|2,3:2|0:0,0:0:0:0:
475,280,69146,1,10,3:2:0:0:
399,333,69359,1,2,0:0:0:0:
316,291,69572,2,0,P|295:239|310:183,1,115.50000352478,2|0,3:2|1:2,0:0:0:0:
335,145,69997,1,8,3:2:0:0:
257,38,70210,6,0,B|219:30|219:30|106:60,1,154.000004699707,6|2,3:2|0:0,0:0:0:0:
48,130,70848,1,8,3:2:0:0:
61,221,71061,1,2,0:0:0:0:
136,274,71274,2,0,P|193:279|236:242,1,115.50000352478,2|0,3:2|1:2,0:0:0:0:
256,202,71699,1,8,3:2:0:0:
318,85,71912,6,0,P|392:71|462:113,1,154.000004699707,6|0,3:2|1:2,0:0:0:0:
495,193,72550,1,10,3:3:0:0:
476,283,72763,1,0,1:2:0:0:
345,224,72976,1,10,3:3:0:0:
387,304,73189,1,0,1:2:0:0:
240,330,73401,1,10,3:3:0:0:
323,364,73614,1,0,1:2:0:0:
345,224,73827,70,0,L|350:185,3,38.5000011749268,2|2|2|2,3:1|0:0|0:0|0:0,0:0:0:0:
376,148,74252,2,0,L|371:109,3,38.5000011749268,2|2|2|2,3:1|0:0|0:0|0:0,0:0:0:0:
343,72,74678,2,0,P|276:39|201:61,1,154.000004699707,2|8,3:1|3:2,0:0:0:0:
112,157,75316,1,8,0:2:0:0:
112,157,75423,1,8,0:2:0:0:
112,157,75529,6,0,L|126:233,1,77.0000023498536,4|0,3:2|0:0,0:0:0:0:
197,292,75955,2,0,L|211:216,1,77.0000023498536,10|0,3:2|0:0,0:0:0:0:
279,154,76380,1,2,3:2:0:0:
279,154,76593,1,2,0:0:0:0:
371,170,76806,1,8,3:2:0:0:
371,170,77018,1,2,0:2:0:0:
387,75,77231,6,0,P|335:48|280:61,1,115.50000352478,4|0,3:2|0:0,0:0:0:0:
241,82,77657,1,10,3:3:0:0:
152,57,77869,1,2,1:2:0:0:
74,107,78082,2,0,P|51:178|74:252,1,154.000004699707,6|10,3:2|3:2,0:0:0:0:
333,282,78933,22,0,P|406:268|477:305,2,154.000004699707,4|0|2,3:1|3:2|3:2,0:0:0:0:
259,338,79997,1,0,1:2:0:0:
167,325,80210,1,8,3:2:0:0:
112,249,80423,1,8,0:2:0:0:
175,132,80635,102,0,L|286:140,1,112,6|2,3:2|0:2,0:0:0:0:
420,149,81486,1,2,0:2:0:0:
493,261,81912,1,10,0:2:0:0:
399,352,82337,21,4,3:2:0:0:
317,332,82550,1,2,0:0:0:0:
317,332,82657,1,2,0:0:0:0:
317,332,82763,2,0,P|282:325|247:328,1,70,8|2,3:2|0:0,0:0:0:0:
164,339,83189,2,0,L|171:303,3,35,2|2|0|0,3:2|1:2|1:2|1:0,0:0:0:0:
148,268,83614,2,0,P|143:232|134:194,1,70,8|2,3:2|0:0,0:0:0:0:
78,137,84040,5,2,3:2:0:0:
124,67,84252,1,2,0:0:0:0:
124,67,84359,1,2,0:0:0:0:
124,67,84465,2,0,P|156:54|191:51,1,70,8|2,3:2|0:0,0:0:0:0:
271,25,84891,2,0,L|277:62,3,35,2|0|0|0,3:2|1:0|1:2|1:0,0:0:0:0:
305,103,85316,1,8,3:2:0:0:
239,185,85529,1,2,0:0:0:0:
327,241,85742,54,0,B|419:257|419:257|309:340|309:340|413:359,1,335.999989746094,2|0,0:2|0:0,0:0:0:0:
