osu file format v14

[General]
AudioFilename: suya!.mp3
AudioLeadIn: 0
PreviewTime: 54862
Countdown: 0
SampleSet: Soft
StackLeniency: 0.4
Mode: 0
LetterboxInBreaks: 0
WidescreenStoryboard: 1

[Editor]
Bookmarks: 38082,44891,73827,73898,74040,74111,74252,74323,74465,74536,82976,87444
DistanceSpacing: 1.5
BeatDivisor: 4
GridSize: 8
TimelineZoom: 2.500003

[Metadata]
Title:Kaimin! Anmin! Syalist Seikatsu (TV Size)
TitleUnicode:快眠!安眠!スヤリスト生活 (TV Size)
Artist:Syalis Hime (CV: Minase Inori)
ArtistUnicode:スヤリス姫 (CV: 水瀬いのり)
Creator:imaginative
Version:Suya...
Source:魔王城でおやすみ
Tags:-_ascended_- - ascended - -ascended- qiyana dyl-byl anime japanese jpop j-pop minori inase Maoujou de Oyasumi Sleepy sleeping Princess in the Demon's demons devil's devils Castle オーロラ・栖夜・リース・カイミーン Aurora suyaris suyarhyst Suya Rhyst Kaymin 新田目駿 shun sho aratame nittame HANO good night's nights sleep life as a suyarhyst
BeatmapID:2654033
BeatmapSetID:1265580

[Difficulty]
HPDrainRate:5.5
CircleSize:4.5
OverallDifficulty:8.8
ApproachRate:9.1
SliderMultiplier:2.3
SliderTickRate:1

[Events]
//Background and Video events
0,0,"suya!.jpg",0,0
Video,-937,"suya!.mp4"
//Break Periods
//Storyboard Layer 0 (Background)
//Storyboard Layer 1 (Fail)
//Storyboard Layer 2 (Pass)
//Storyboard Layer 3 (Foreground)
//Storyboard Layer 4 (Overlay)
//Storyboard Sound Samples

[TimingPoints]
2338,425.531914893617,4,2,1,30,1,0
3827,-142.857142857143,4,2,1,50,0,0
4146,-142.857142857143,4,2,1,5,0,0
4252,-142.857142857143,4,2,1,50,0,0
5848,-142.857142857143,4,2,1,5,0,0
5954,-142.857142857143,4,2,1,50,0,0
9146,-117.647058823529,4,2,1,50,0,0
9465,-117.647058823529,4,2,1,5,0,0
9571,-111.111111111111,4,2,1,50,0,0
9890,-111.111111111111,4,2,1,5,0,0
9997,-111.111111111111,4,2,1,50,0,0
10210,-117.647058823529,4,2,1,50,0,0
10422,-117.647058823529,4,2,1,55,0,0
10529,-117.647058823529,4,2,2,55,0,0
10848,-117.647058823529,4,2,2,60,0,0
12869,-117.647058823529,4,2,2,5,0,0
12976,-117.647058823529,4,2,2,60,0,0
14252,-142.857142857143,4,2,2,50,0,0
17231,-142.857142857143,4,2,1,50,0,0
17657,-105.263157894737,4,2,1,70,0,1
18720,-105.263157894737,4,2,2,70,0,1
20422,-105.263157894737,4,2,1,70,0,1
22125,-105.263157894737,4,2,2,70,0,1
23826,-105.263157894737,4,2,1,70,0,1
24465,-105.263157894737,4,2,1,50,0,0
25316,-142.857142857143,4,2,1,50,0,0
30422,-125,4,2,1,50,0,0
30741,-125,4,2,1,5,0,0
30848,-125,4,2,1,50,0,0
31167,-125,4,2,1,5,0,0
31274,-117.647058823529,4,2,1,60,0,0
37657,-117.647058823529,4,2,3,60,0,0
38082,-125,4,2,1,40,0,0
38295,-125,4,2,1,40,0,0
38401,-125,4,2,1,40,0,0
38614,-125,4,2,1,40,0,0
38720,-125,4,2,1,40,0,0
39146,-125,4,2,2,40,0,0
39997,-125,4,2,2,40,0,0
40103,-125,4,2,2,40,0,0
40316,-125,4,2,2,40,0,0
40423,-125,4,2,2,40,0,0
41699,-125,4,2,2,40,0,0
41806,-125,4,2,2,40,0,0
42018,-125,4,2,2,40,0,0
42125,-125,4,2,2,40,0,0
44891,-111.111111111111,4,2,2,60,0,0
45103,-111.111111111111,4,2,2,5,0,0
45210,-111.111111111111,4,2,2,60,0,0
45423,-111.111111111111,4,2,2,5,0,0
45529,-111.111111111111,4,2,2,60,0,0
46806,-111.111111111111,4,2,2,5,0,0
46912,-111.111111111111,4,2,2,60,0,0
47125,-111.111111111111,4,2,2,5,0,0
47231,-111.111111111111,4,2,2,60,0,0
51699,-111.111111111111,4,2,2,55,0,0
52976,-111.111111111111,4,2,1,55,0,0
54678,-117.647058823529,4,2,1,55,0,0
54891,-90.9090909090909,4,2,1,75,0,1
55210,-90.9090909090909,4,2,1,5,0,1
55316,-90.9090909090909,4,2,1,75,0,1
56912,-90.9090909090909,4,2,1,5,0,1
57018,-90.9090909090909,4,2,1,75,0,1
58614,-90.9090909090909,4,2,1,5,0,1
58720,-90.9090909090909,4,2,1,75,0,1
60529,-90.9090909090909,4,2,1,5,0,1
60635,-90.9090909090909,4,2,1,75,0,1
60954,-90.9090909090909,4,2,1,5,0,1
61061,-90.9090909090909,4,2,1,75,0,1
61380,-90.9090909090909,4,2,1,5,0,1
61486,-90.9090909090909,4,2,1,75,0,1
62231,-90.9090909090909,4,2,1,5,0,1
62337,-90.9090909090909,4,2,1,75,0,1
63933,-90.9090909090909,4,2,1,5,0,1
64040,-90.9090909090909,4,2,1,75,0,1
64359,-90.9090909090909,4,2,1,5,0,1
64465,-90.9090909090909,4,2,1,75,0,1
65528,-90.9090909090909,4,2,1,5,0,1
65635,-90.9090909090909,4,2,1,75,0,1
66379,-90.9090909090909,4,2,1,5,0,1
66486,-90.9090909090909,4,2,1,75,0,1
67337,-90.9090909090909,4,2,1,5,0,1
67444,-90.9090909090909,4,2,1,75,0,1
67763,-90.9090909090909,4,2,1,5,0,1
67869,-90.9090909090909,4,2,1,75,0,1
68189,-90.9090909090909,4,2,1,5,0,1
68295,-90.9090909090909,4,2,2,75,0,1
68827,-90.9090909090909,4,2,2,5,0,1
68933,-90.9090909090909,4,2,2,75,0,1
69891,-90.9090909090909,4,2,1,75,0,1
70529,-90.9090909090909,4,2,1,5,0,1
70635,-90.9090909090909,4,2,1,75,0,1
72231,-90.9090909090909,4,2,1,5,0,1
72337,-90.9090909090909,4,2,1,75,0,1
75848,-90.9090909090909,4,2,1,5,0,1
75954,-90.9090909090909,4,2,1,75,0,1
77550,-90.9090909090909,4,2,1,5,0,1
77657,-90.9090909090909,4,2,1,75,0,1
80210,-90.9090909090909,4,2,2,75,0,1
80635,-86.9565217391304,4,2,2,60,0,0
81912,-86.9565217391304,4,2,1,60,0,0
82337,-105.263157894737,4,2,1,70,0,1
83402,-105.263157894737,4,2,2,70,0,1
85104,-105.263157894737,4,2,1,70,0,1
85742,-222.222222222222,4,2,1,40,0,0
86167,-222.222222222222,4,2,1,30,0,0
86593,-222.222222222222,4,2,1,20,0,0
87018,-222.222222222222,4,2,1,10,0,0
87444,-222.222222222222,4,2,1,5,0,0

[Colours]
Combo1 : 220,204,233
Combo2 : 252,239,152
Combo3 : 140,99,200
Combo4 : 240,133,153

[HitObjects]
0,148,3827,6,0,P|60:125|115:161,1,120.749996315003,6|0,3:2|0:0,0:0:0:0:
141,176,4252,1,2,2:0:0:0:
74,303,4465,1,2,2:0:0:0:
160,175,4678,1,2,2:0:0:0:
79,325,4891,2,0,B|123:306|123:306|198:322,1,120.749996315003,2|2,2:0|2:0,0:0:0:0:
194,321,5529,6,0,B|205:287|183:265|183:265|205:243|194:210,1,120.749996315003,6|0,3:2|0:0,0:0:0:0:
181,167,5955,1,2,2:0:0:0:
266,146,6167,1,2,2:0:0:0:
197,89,6380,1,2,2:0:0:0:
278,61,6593,2,0,L|398:67,1,120.749996315003,2|2,2:0|2:0,0:0:0:0:
398,67,7231,6,0,B|430:118|430:118|406:226,1,160.99999508667,6|2,3:2|2:0,0:0:0:0:
388,320,7869,2,0,P|344:334|310:314,1,80.499997543335,2|2,2:0|2:0,0:0:0:0:
272,220,8295,1,2,2:0:0:0:
315,319,8508,1,2,2:0:0:0:
216,362,8721,1,2,2:0:0:0:
173,263,8934,1,2,2:0:0:0:
285,199,9146,6,0,B|373:185|322:251|425:240,1,146.62500279665,6|0,3:2|0:0,0:0:0:0:
469,109,9571,2,0,B|377:118|446:170|340:187,1,155.249995262146,0|0,3:2|0:0,0:0:0:0:
288,87,9997,1,0,3:2:0:0:
276,53,10103,1,0,0:0:0:0:
291,23,10210,2,0,L|348:28,1,48.8750009322167
469,109,10422,1,0,3:2:0:0:
479,141,10529,1,8,2:0:0:0:
456,171,10635,5,10,2:0:0:0:
446,203,10742,1,10,2:0:0:0:
510,252,10848,2,0,P|527:299|501:349,1,97.7500018644333,6|0,3:2|0:0,0:0:0:0:
328,350,11274,2,0,P|310:305|327:260,1,97.7500018644333,2|0,3:2|0:0,0:0:0:0:
481,278,11699,6,0,L|427:274,1,48.8750009322167,6|0,3:2|0:0,0:0:0:0:
353,246,11912,2,0,L|304:249,1,48.8750009322167,2|0,2:0|0:0,0:0:0:0:
480,352,12125,2,0,L|426:348,1,48.8750009322167,2|0,3:2|0:0,0:0:0:0:
352,320,12338,2,0,L|303:323,1,48.8750009322167,2|0,2:0|0:0,0:0:0:0:
501,271,12550,6,0,P|530:203|482:138,1,146.62500279665,6|0,3:2|0:0,0:0:0:0:
456,115,12976,2,0,P|437:125|413:115,1,48.8750009322167,2|0,3:2|0:0,0:0:0:0:
305,193,13188,2,0,P|326:203|347:192,1,48.8750009322167,2|0,2:0|0:0,0:0:0:0:
274,66,13401,2,0,B|217:66|248:107|175:99,1,97.7500018644333,6|0,3:2|0:0,0:0:0:0:
42,174,13827,2,0,B|28:153|28:153|39:130,1,48.8750009322167,0|0,3:2|0:0,0:0:0:0:
117,168,14040,2,0,B|127:147|127:147|114:126,1,48.8750009322167
185,29,14252,6,0,B|390:10|259:145|485:121,1,321.99999017334,6|0,3:2|0:0,0:0:0:0:
474,122,15316,1,2,2:0:0:0:
417,206,15529,1,2,2:0:0:0:
453,277,15742,1,2,2:0:0:0:
298,349,15954,5,6,3:2:0:0:
289,329,16380,1,2,2:0:0:0:
394,328,16805,1,2,2:0:0:0:
385,348,17231,1,10,3:2:0:0:
304,224,17657,6,0,B|252:206|252:206|201:224,1,109.24999708271,6|2,3:2|2:0,0:0:0:0:
133,249,17976,1,2,2:0:0:0:
133,249,18082,2,0,B|135:263|124:273|124:273|141:280|148:302,1,54.6249985413552,2|0,3:2|0:0,0:0:0:0:
304,224,18295,2,0,B|306:212|323:205|323:205|312:195|314:181,1,54.6249985413552,2|0,2:0|0:0,0:0:0:0:
189,346,18508,5,2,3:2:0:0:
238,365,18614,1,2,2:0:0:0:
286,343,18720,2,0,P|300:320|282:290,1,54.6249985413552,10|0,2:0|2:0,3:0:0:0:
246,93,18933,2,0,P|221:139|244:187,1,109.24999708271,0|0,3:2|0:0,0:0:0:0:
426,139,19359,6,0,P|448:91|424:44,1,109.24999708271,2|2,3:2|2:0,0:0:0:0:
367,0,19678,1,2,2:0:0:0:
367,0,19784,2,0,B|352:1|346:14|346:14|334:0|311:0,1,54.6249985413552,2|0,3:2|0:0,0:0:0:0:
426,139,19997,2,0,B|440:137|446:124|446:124|458:138|481:139,1,54.6249985413552,2|0,2:0|0:0,0:0:0:0:
309,74,20210,5,2,3:2:0:0:
283,120,20316,1,2,2:0:0:0:
303,168,20422,2,0,P|315:177|329:171,3,27.3124992706776,10|0|0|0,3:2|0:0|2:0|0:0,3:0:0:0:
226,155,20635,2,0,L|108:140,1,109.24999708271,2|0,3:2|0:0,0:0:0:0:
327,255,21061,6,0,B|379:273|379:273|430:255,1,109.24999708271,6|2,3:2|2:0,0:0:0:0:
485,209,21380,1,2,2:0:0:0:
485,209,21486,2,0,L|490:151,1,54.6249985413552,2|0,3:2|0:0,0:0:0:0:
327,255,21699,2,0,L|322:309,1,54.6249985413552,2|0,2:0|0:0,0:0:0:0:
480,370,21912,5,2,3:2:0:0:
505,324,22018,1,2,2:0:0:0:
482,277,22125,2,0,P|457:269|431:276,1,54.6249985413552,10|0,2:0|2:0,3:0:0:0:
271,326,22337,2,0,P|317:350|365:327,1,109.24999708271,2|0,3:2|0:0,0:0:0:0:
218,205,22763,6,0,B|153:203|186:244|111:241,1,109.24999708271,2|2,3:2|2:0,0:0:0:0:
47,237,23082,1,2,2:0:0:0:
47,237,23188,2,0,B|57:178,1,54.6249985413552,2|0,3:2|0:0,0:0:0:0:
218,205,23401,2,0,B|223:269,1,54.6249985413552,2|0,2:0|0:0,0:0:0:0:
53,331,23614,5,2,3:2:0:0:
27,285,23720,1,2,2:0:0:0:
47,237,23826,2,0,P|60:229|73:233,3,27.3124992706776,10|0|0|0,3:2|0:0|2:0|0:0,3:0:0:0:
148,222,24039,2,0,L|265:207,1,109.24999708271,0|0,3:2|0:0,0:0:0:0:
400,189,24465,5,4,2:0:0:0:
400,189,24891,5,2,2:0:0:0:
427,260,25103,1,2,2:0:0:0:
373,118,25316,2,0,B|329:97|329:97|194:121,1,160.99999508667,2|2,2:0|2:0,0:0:0:0:
115,133,25954,5,2,2:0:0:0:
93,165,26060,1,2,2:0:0:0:
108,200,26166,1,2,2:0:0:0:
231,181,26380,1,2,2:0:0:0:
249,304,26593,1,2,2:0:0:0:
126,323,26805,1,2,2:0:0:0:
279,297,27018,2,0,L|363:283,1,80.499997543335,2|0,2:0|0:0,0:0:0:0:
224,199,27444,2,0,L|140:185,1,80.499997543335
321,97,27869,6,0,P|368:137|315:202,1,160.99999508667,2|2,2:0|2:0,0:0:0:0:
208,135,28508,1,2,2:0:0:0:
321,97,28720,2,0,B|411:83|367:166|471:147,1,160.99999508667,2|2,2:0|2:0,0:0:0:0:
455,37,29359,1,2,2:0:0:0:
462,148,29571,6,0,L|472:319,1,160.99999508667,2|2,2:0|2:0,0:0:0:0:
365,232,30210,1,2,2:0:0:0:
474,330,30422,2,0,P|426:357|445:305,1,138,2|0,2:0|0:0,0:0:0:0:
461,211,30848,2,0,P|473:158|427:186,1,138,8|0,3:2|0:0,0:0:0:0:
361,259,31274,6,0,B|314:274|314:274|269:259,1,97.7500018644333,4|0,3:2|0:0,0:0:0:0:
113,305,31699,1,2,3:2:0:0:
176,191,31912,1,2,2:0:0:0:
235,322,32125,2,0,L|133:331,1,97.7500018644333,2|0,3:2|0:0,0:0:0:0:
178,169,32550,1,2,3:2:0:0:
268,51,32763,5,2,2:0:0:0:
312,33,32869,1,2,2:0:0:0:
355,53,32975,1,2,3:2:0:0:
369,193,33189,1,2,2:0:0:0:
229,207,33402,1,2,3:2:0:0:
215,67,33614,1,2,2:0:0:0:
379,212,33827,2,0,B|394:258|394:258|379:305,1,97.7500018644333,2|0,3:2|0:0,0:0:0:0:
224,307,34252,2,0,B|208:260|208:260|224:213,1,97.7500018644333,0|2,3:2|2:0,0:0:0:0:
239,165,34571,5,2,2:0:0:0:
239,165,34678,2,0,B|232:67,1,97.7500018644333,2|0,3:2|0:0,0:0:0:0:
151,172,35103,1,2,3:2:0:0:
83,53,35316,1,2,2:0:0:0:
22,187,35529,2,0,P|0:243|29:283,1,97.7500018644333,2|2,3:2|2:0,0:0:0:0:
155,335,35954,2,0,P|99:357|59:328,1,97.7500018644333,2|2,3:2|2:0,0:0:0:0:
165,237,36380,5,2,3:2:0:0:
226,289,36593,1,2,2:0:0:0:
324,258,36805,1,2,3:2:0:0:
497,354,37018,1,2,3:2:0:0:
512,146,37231,5,2,3:2:0:0:
512,133,37657,1,2,0:0:0:0:
440,40,38082,6,0,B|401:11|401:11|372:51,1,92,6|0,3:2|0:0,3:2:0:0:
361,84,38401,2,0,B|322:55|322:55|293:95,1,92,2|0,0:2|2:0,3:2:0:0:
276,132,38720,1,2,3:2:0:0:
415,191,38933,1,2,2:0:0:0:
444,49,39146,1,8,2:0:0:0:
401,35,39252,1,8,2:0:0:0:
360,54,39358,1,8,2:0:0:0:
442,178,39571,5,2,3:2:0:0:
399,191,39677,1,2,2:0:0:0:
357,171,39785,2,0,B|333:174|316:154|316:154|305:176|277:171,1,92,2|0,3:2|0:0,3:2:0:0:
276,247,40103,2,0,B|299:243|316:263|316:263|327:241|355:246,1,92,2|0,3:2|2:0,3:2:0:0:
421,206,40422,1,2,3:2:0:0:
512,126,40635,1,2,2:0:0:0:
409,227,40848,5,8,2:0:0:0:
388,266,40954,1,8,2:0:0:0:
403,308,41060,1,8,2:0:0:0:
512,222,41274,1,0,3:2:0:0:
379,222,41486,6,0,L|285:218,1,92,2|0,3:2|0:0,3:2:0:0:
245,238,41805,2,0,L|151:242,1,92,2|0,0:2|2:0,3:2:0:0:
112,218,42125,1,2,3:2:0:0:
71,346,42337,1,2,2:0:0:0:
169,367,42550,1,10,2:0:0:0:
178,185,42763,1,10,2:0:0:0:
80,206,42976,1,2,3:2:0:0:
274,284,43188,5,2,3:2:0:0:
267,266,43614,1,2,3:2:0:0:
241,139,44040,1,2,3:2:0:0:
248,157,44466,1,2,3:2:0:0:
185,31,44891,6,0,B|127:30|150:75|76:62,1,103.499996841431,6|0,3:2|0:0,0:0:0:0:
43,62,45210,2,0,P|22:113|47:164,1,103.499996841431,2|0,2:0|0:0,0:0:0:0:
63,195,45529,1,2,2:0:0:0:
154,124,45742,1,2,3:2:0:0:
269,29,45954,2,0,L|267:94,1,51.7499984207154,8|0,0:1|0:0,0:0:0:0:
202,0,46167,2,0,L|198:130,1,103.499996841431,8|0,3:1|0:0,0:0:0:0:
188,252,46593,6,0,B|236:270|236:270|292:247,1,103.499996841431,6|0,3:2|0:0,0:0:0:0:
324,225,46912,2,0,B|372:207|372:207|427:229,1,103.499996841431,2|0,2:0|0:0,0:0:0:0:
455,257,47231,1,2,2:0:0:0:
324,225,47444,1,2,3:2:0:0:
163,164,47657,2,0,P|187:171|217:160,1,51.7499984207154,8|0,0:1|0:0,0:0:0:0:
140,227,47869,2,0,P|188:241|248:219,1,103.499996841431,8|0,3:1|0:0,0:0:0:0:
347,102,48295,5,6,3:2:0:0:
377,228,48508,1,2,2:0:0:0:
259,125,48720,1,2,2:0:0:0:
283,24,48933,1,2,2:0:0:0:
174,148,49146,5,2,2:0:0:0:
204,274,49359,1,2,2:0:0:0:
86,171,49571,1,2,2:0:0:0:
110,70,49784,1,2,2:0:0:0:
4,194,49997,5,2,3:2:0:0:
9,213,50422,1,0,3:2:0:0:
144,175,50848,1,0,3:2:0:0:
139,194,51273,1,0,3:2:0:0:
3,80,51699,5,6,3:2:0:0:
35,91,51840,1,2,2:0:0:0:
85,68,51982,1,2,2:0:0:0:
136,46,52125,1,2,2:0:0:0:
187,63,52266,1,2,2:0:0:0:
253,99,52408,1,2,2:0:0:0:
264,23,52550,5,2,2:0:0:0:
291,93,52691,1,2,2:0:0:0:
255,160,52833,1,2,2:0:0:0:
223,210,52976,1,10,3:2:0:0:
230,264,53117,1,2,2:0:0:0:
248,293,53259,1,2,2:0:0:0:
198,350,53401,5,6,3:2:0:0:
230,359,53542,1,2,2:0:0:0:
282,340,53684,1,2,2:0:0:0:
331,315,53827,1,2,2:0:0:0:
385,311,53968,1,2,2:0:0:0:
448,352,54110,1,2,2:0:0:0:
405,288,54252,5,2,2:0:0:0:
427,237,54393,1,2,2:0:0:0:
412,205,54535,1,2,2:0:0:0:
413,132,54678,2,0,L|377:132,2,24.4375004661083,8|0|0,3:2|0:0|0:0,0:0:0:0:
418,57,54891,6,0,B|297:46|360:124|239:114,1,189.750005790711,6|0,3:2|0:0,0:0:0:0:
100,166,55316,2,0,P|86:200|97:225,1,63.2500019302369,2|0,2:0|0:0,0:0:0:0:
246,171,55529,2,0,P|258:143|246:114,1,63.2500019302369,2|0,3:2|0:0,0:0:0:0:
95,222,55742,2,0,P|82:250|95:283,1,63.2500019302369,2|0,2:0|0:0,0:0:0:0:
286,329,55954,2,0,B|225:313|225:313|159:339,1,126.500003860474,2|0,3:2|0:0,0:0:0:0:
98,358,56274,2,0,P|66:367|39:356,1,63.2500019302369,10|0,3:2|3:2,0:0:0:0:
100,166,56593,6,0,B|188:131|188:131|280:155,1,189.750005790711,14|0,3:2|0:0,0:0:0:0:
426,198,57018,2,0,L|431:267,1,63.2500019302369,2|0,2:0|0:0,0:0:0:0:
298,161,57231,2,0,L|293:230,1,63.2500019302369,2|0,3:2|0:0,0:0:0:0:
411,56,57444,2,0,L|416:125,1,63.2500019302369,2|0,2:0|0:0,0:0:0:0:
290,1,57657,2,0,B|216:-6|241:47|163:37,1,126.500003860474,2|0,3:2|0:0,0:0:0:0:
102,34,57976,2,0,L|38:32,1,63.2500019302369,10|0,3:2|3:2,0:0:0:0:
92,325,58295,6,0,B|107:270|68:237|68:237|108:210|94:153,1,189.750005790711,14|0,3:2|0:0,0:0:0:0:
94,82,58720,2,0,L|29:93,1,63.2500019302369,2|0,2:0|0:0,0:0:0:0:
186,107,58933,2,0,L|251:118,1,63.2500019302369,2|0,3:2|0:0,0:0:0:0:
94,155,59146,2,0,L|29:166,1,63.2500019302369,2|0,2:0|0:0,0:0:0:0:
248,117,59359,6,0,B|258:150|258:150|241:181,1,63.2500019302369,2|0,3:2|0:0,0:0:0:0:
327,123,59571,2,0,B|337:156|337:156|320:187,1,63.2500019302369,2|0,2:0|0:0,0:0:0:0:
146,242,59784,2,0,P|137:277|154:303,1,63.2500019302369,2|0,3:2|0:0,0:0:0:0:
71,253,59997,2,0,P|62:288|79:314,1,63.2500019302369,2|0,2:0|0:0,0:0:0:0:
323,181,60210,6,0,B|354:174|390:160|390:160|502:208,1,189.750005790711,6|0,3:2|0:0,0:0:0:0:
324,107,60635,2,0,B|216:98|252:171|145:162,1,189.750005790711,0|0,3:2|0:0,0:0:0:0:
134,28,61061,2,0,P|188:31|126:46,1,189.750005790711,0|0,3:2|0:0,0:0:0:0:
281,109,61486,2,0,L|277:174,1,63.2500019302369,0|0,3:2|0:0,0:0:0:0:
267,359,61699,5,2,2:0:0:0:
242,303,61805,1,2,2:0:0:0:
274,252,61912,2,0,P|332:236|281:291,1,189.750005790711,6|0,3:2|0:0,0:0:0:0:
155,306,62337,2,0,P|97:322|39:290,1,126.500003860474,2|0,3:2|0:0,0:0:0:0:
110,71,62763,2,0,B|105:84|90:95|90:95|103:102|99:125,1,63.2500019302369,2|0,3:2|0:0,0:0:0:0:
105,250,62976,2,0,B|129:230|129:230|162:241,1,63.2500019302369,2|0,2:0|0:0,0:0:0:0:
287,243,63189,2,0,B|291:229|306:218|306:218|293:211|297:188,1,63.2500019302369,2|0,3:2|0:0,0:0:0:0:
303,53,63402,5,2,3:2:0:0:
332,65,63508,1,0,3:2:0:0:
362,76,63614,2,0,B|407:130|407:130|371:264,1,189.750005790711,6|0,3:2|0:0,0:0:0:0:
191,132,64040,2,0,P|261:113|309:215,1,189.750005790711,2|0,3:2|0:0,0:0:0:0:
303,311,64465,2,0,L|240:301,1,63.2500019302369,2|0,3:2|0:0,0:0:0:0:
128,143,64678,2,0,L|190:131,1,63.2500019302369,2|0,2:0|0:0,0:0:0:0:
149,362,64891,2,0,P|126:305|150:248,1,126.500003860474,2|0,3:2|0:0,0:0:0:0:
330,80,65316,6,0,B|228:92|228:92|202:77,1,126.500003860474,6|0,3:2|0:0,0:0:0:0:
140,42,65635,1,2,3:2:0:0:
140,42,65742,2,0,B|195:74|195:74,1,63.2500019302369,0|0,3:2|0:0,0:0:0:0:
98,126,65954,2,0,B|153:158|153:158,1,63.2500019302369,10|0,3:2|0:0,0:0:0:0:
362,62,66167,6,0,P|391:119|354:179,1,126.500003860474,6|0,3:2|0:0,0:0:0:0:
303,229,66486,1,2,3:2:0:0:
303,229,66593,2,0,P|290:264|309:298,1,63.2500019302369,0|0,3:2|0:0,0:0:0:0:
411,285,66805,2,0,P|419:255|406:227,1,63.2500019302369,10|0,3:2|0:0,0:0:0:0:
240,364,67018,6,0,L|444:367,1,189.750005790711,6|0,3:2|0:0,0:0:0:0:
238,237,67444,2,0,B|349:226|311:306|428:291,1,189.750005790711,6|0,3:2|0:0,0:0:0:0:
239,144,67869,2,0,P|319:104|399:165,1,189.750005790711,6|0,3:2|0:0,0:0:0:0:
168,206,68295,1,8,3:2:0:0:
394,155,68508,6,0,P|348:203|369:127,1,189.750005790711,6|0,3:2|0:0,0:0:0:0:
471,192,68933,2,0,L|478:258,1,63.2500019302369,2|0,2:0|0:0,0:0:0:0:
332,267,69146,2,0,L|339:330,1,63.2500019302369,2|0,3:2|0:0,0:0:0:0:
490,187,69359,2,0,L|497:253,1,63.2500019302369,2|0,2:0|0:0,0:0:0:0:
337,357,69571,2,0,P|283:378|218:348,1,126.500003860474,2|0,3:2|0:0,0:0:0:0:
163,304,69891,2,0,L|150:371,1,63.2500019302369,10|0,3:2|3:2,0:0:0:0:
276,96,70210,6,0,B|331:81|364:120|364:120|391:80|448:94,1,189.750005790711,14|0,3:2|0:0,0:0:0:0:
301,163,70635,2,0,B|288:197|288:197|299:227,1,63.2500019302369,2|0,2:0|0:0,0:0:0:0:
422,164,70848,2,0,B|435:198|435:198|424:228,1,63.2500019302369,2|0,3:2|0:0,0:0:0:0:
274,163,71061,2,0,B|261:197|261:197|272:227,1,63.2500019302369,2|0,2:0|0:0,0:0:0:0:
155,41,71274,2,0,B|130:100|130:100|151:169,1,126.500003860474,2|0,3:2|0:0,0:0:0:0:
171,231,71593,2,0,B|184:265|184:265|173:295,1,63.2500019302369,10|0,3:2|3:2,0:0:0:0:
432,336,71912,6,0,B|352:336|352:336|328:352|328:352|240:352,1,189.750005790711,14|0,3:2|0:0,0:0:0:0:
287,220,72337,2,0,P|297:249|285:277,1,63.2500019302369,2|0,2:0|0:0,0:0:0:0:
176,354,72550,2,0,P|164:325|174:296,1,63.2500019302369,2|0,3:2|0:0,0:0:0:0:
315,219,72763,2,0,P|325:248|313:276,1,63.2500019302369,2|0,2:0|0:0,0:0:0:0:
154,163,72976,6,0,L|83:157,1,63.2500019302369,2|0,3:2|0:0,0:0:0:0:
309,124,73188,2,0,L|380:118,1,63.2500019302369,2|0,2:0|0:0,0:0:0:0:
159,74,73401,2,0,L|88:68,1,63.2500019302369,2|0,3:2|0:0,0:0:0:0:
300,42,73614,2,0,L|371:36,1,63.2500019302369,2|0,2:0|0:0,0:0:0:0:
69,66,73827,5,6,3:2:0:0:
65,99,73934,1,2,0:2:0:0:
82,130,74040,1,2,0:2:0:0:
78,163,74147,1,2,0:2:0:0:
26,216,74252,5,2,3:2:0:0:
30,249,74359,1,2,0:2:0:0:
13,280,74465,1,2,0:2:0:0:
17,313,74572,1,2,0:2:0:0:
71,371,74678,6,0,P|136:387|194:347,1,126.500003860474,2|0,3:2|0:0,0:0:0:0:
227,223,75103,1,0,3:2:0:0:
293,359,75316,5,2,2:0:0:0:
351,378,75422,1,2,2:0:0:0:
408,356,75529,2,0,P|449:290|396:197,1,189.750005790711,6|0,3:2|0:0,0:0:0:0:
321,135,75954,2,0,P|291:188|319:242,1,126.500003860474,2|0,3:2|0:0,0:0:0:0:
469,83,76380,2,0,P|479:54|467:26,1,63.2500019302369,6|0,3:2|0:0,0:0:0:0:
347,46,76593,2,0,P|337:75|349:103,1,63.2500019302369,2|0,2:0|0:0,0:0:0:0:
473,192,76805,2,0,P|463:221|475:249,1,63.2500019302369,2|0,3:2|0:0,0:0:0:0:
316,299,77018,2,0,P|328:270|318:241,1,63.2500019302369,10|0,3:2|3:2,0:0:0:0:
297,52,77231,6,0,B|173:40|250:112|116:98,1,189.750005790711,6|0,3:2|0:0,0:0:0:0:
51,38,77657,2,0,P|37:73|49:104,1,63.2500019302369,2|0,3:2|0:0,0:0:0:0:
149,182,77869,2,0,P|163:217|151:248,1,63.2500019302369,2|0,2:0|0:0,0:0:0:0:
46,361,78082,2,0,P|107:382|166:342,1,126.500003860474,6|0,3:2|0:0,0:0:0:0:
276,199,78507,2,0,P|310:211|339:202,1,63.2500019302369,0|0,3:2|0:0,0:0:0:0:
464,176,78720,2,0,P|430:164|401:173,1,63.2500019302369
423,370,78933,6,0,L|411:233,1,126.500003860474,6|0,3:2|0:0,0:0:0:0:
276,84,79359,2,0,L|265:210,1,126.500003860474,0|0,3:2|0:0,0:0:0:0:
95,344,79784,2,0,L|29:350,1,63.2500019302369,0|0,3:2|0:0,0:0:0:0:
140,243,79997,2,0,L|77:237,1,63.2500019302369,2|0,2:0|0:0,0:0:0:0:
80,130,80210,5,10,2:0:0:0:
128,126,80316,1,8,2:0:0:0:
187,169,80423,1,10,2:0:0:0:
236,176,80529,1,8,2:0:0:0:
311,188,80635,5,6,3:2:0:0:
304,208,81061,1,2,2:0:0:0:
184,135,81486,1,2,2:0:0:0:
177,153,81912,1,10,3:2:0:0:
408,18,82337,6,0,L|417:130,1,109.24999708271,6|2,3:2|2:0,0:0:0:0:
424,198,82657,1,2,2:0:0:0:
424,198,82763,2,0,B|394:209|394:209|360:198,1,54.6249985413552,2|0,3:2|0:0,0:0:0:0:
237,159,82976,2,0,B|259:152|259:152|289:163,1,54.6249985413552,2|0,2:0|0:0,0:0:0:0:
395,279,83188,5,2,3:2:0:0:
420,325,83294,1,2,2:0:0:0:
396,372,83402,2,2,L|325:368,1,54.6249985413552,10|0,3:2|2:2,3:2:0:0:
152,356,83614,2,0,L|261:362,1,109.24999708271,2|0,3:2|0:0,0:0:0:0:
223,187,84040,6,0,B|161:180|185:227|115:215,1,109.24999708271,2|2,3:2|2:0,0:0:0:0:
45,237,84359,1,2,2:0:0:0:
45,237,84465,2,0,B|34:207|34:207|45:173,1,54.6249985413552,2|0,3:2|0:0,0:0:0:0:
178,74,84678,2,0,B|189:104|189:104|178:138,1,54.6249985413552,2|0,2:0|0:0,0:0:0:0:
30,97,84891,5,2,3:2:0:0:
5,51,84997,1,2,2:0:0:0:
35,9,85104,2,0,L|61:12,3,27.3124992706776,10|0|0|0,3:2|0:0|2:0|0:0,3:0:0:0:
134,23,85316,2,0,L|248:36,1,109.24999708271,2|0,3:2|0:0,0:0:0:0:
95,165,85742,6,0,B|160:144|160:144|288:164|189:318|309:346|309:346|378:326,1,413.999987365723,2|0,2:0|0:0,0:0:0:0:
