osu file format v14

[General]
AudioFilename: suya!.mp3
AudioLeadIn: 0
PreviewTime: 54862
Countdown: 0
SampleSet: Soft
StackLeniency: 0.4
Mode: 0
LetterboxInBreaks: 0
WidescreenStoryboard: 0

[Editor]
Bookmarks: 38082,44891,73827,73898,74040,74111,74252,74323,74465,74536,82976,87444
DistanceSpacing: 1.2
BeatDivisor: 4
GridSize: 16
TimelineZoom: 0.9000033

[Metadata]
Title:Kaimin! Anmin! Syalist Seikatsu (TV Size)
TitleUnicode:快眠!安眠!スヤリスト生活 (TV Size)
Artist:Syalis Hime (CV: Minase Inori)
ArtistUnicode:スヤリス姫 (CV: 水瀬いのり)
Creator:imaginative
Version:Qiyana's Normal!
Source:魔王城でおやすみ
Tags:-_ascended_- - ascended - -ascended- qiyana dyl-byl anime japanese jpop j-pop minori inase Maoujou de Oyasumi Sleepy sleeping Princess in the Demon's demons devil's devils Castle オーロラ・栖夜・リース・カイミーン Aurora suyaris suyarhyst Suya Rhyst Kaymin 新田目駿 shun sho aratame nittame HANO good night's nights sleep life as a suyarhyst
BeatmapID:2645665
BeatmapSetID:1265580

[Difficulty]
HPDrainRate:3
CircleSize:3
OverallDifficulty:4
ApproachRate:5
SliderMultiplier:1.4
SliderTickRate:1

[Events]
//Background and Video events
Video,-937,"suya!.mp4"
0,0,"normal.jpg",0,0
//Break Periods
2,51899,53691
//Storyboard Layer 0 (Background)
//Storyboard Layer 1 (Fail)
//Storyboard Layer 2 (Pass)
//Storyboard Layer 3 (Foreground)
//Storyboard Layer 4 (Overlay)
//Storyboard Sound Samples

[TimingPoints]
2338,425.531914893617,4,2,1,30,1,0
3827,-100,4,2,1,50,0,0
10422,-100,4,2,1,55,0,0
10529,-100,4,2,2,55,0,0
10848,-100,4,2,2,60,0,0
14252,-100,4,2,2,50,0,0
17230,-100,4,2,1,50,0,0
17657,-100,4,2,1,70,0,1
18720,-100,4,2,2,70,0,1
20422,-100,4,2,1,70,0,1
22124,-100,4,2,2,70,0,1
23827,-100,4,2,1,70,0,1
24465,-125,4,2,1,50,0,0
31274,-100,4,2,1,60,0,0
37657,-100,4,2,3,60,0,0
38082,-100,4,2,1,40,0,0
39145,-100,4,2,2,40,0,0
44891,-100,4,2,2,60,0,0
51699,-100,4,2,2,55,0,0
52976,-100,4,2,1,55,0,0
54891,-100,4,2,1,75,0,1
68295,-100,4,2,2,75,0,1
69890,-100,4,2,1,75,0,1
80210,-100,4,2,2,75,0,1
80635,-100,4,2,2,60,0,0
81912,-100,4,2,1,60,0,0
82337,-100,4,2,1,70,0,1
83400,-100,4,2,2,70,0,1
85103,-100,4,2,1,70,0,1
85742,-100,4,2,1,40,0,0
86167,-100,4,2,1,30,0,0
86593,-100,4,2,1,20,0,0
87018,-100,4,2,1,10,0,0
87444,-100,4,2,1,5,0,0

[Colours]
Combo1 : 220,204,233
Combo2 : 252,239,152
Combo3 : 140,99,200
Combo4 : 240,133,153

[HitObjects]
33,340,3827,6,0,B|109:324|99:365|172:352,1,140,6|2,3:2|2:0,0:0:0:0:
240,306,4465,2,0,L|236:227,1,70,2|2,2:0|2:0,0:0:0:0:
192,163,4891,2,0,P|239:150|294:177,1,105,2|2,2:0|2:0,0:0:0:0:
369,268,5529,6,0,P|431:285|492:247,1,140,6|2,3:2|2:0,0:0:0:0:
421,201,6167,2,0,L|424:124,1,70,2|2,2:0|2:0,0:0:0:0:
428,46,6593,2,0,B|394:35|394:35|316:45,1,105,2|2,2:0|2:0,0:0:0:0:
209,94,7231,6,0,P|150:110|76:65,1,140,6|2,3:2|2:0,0:0:0:0:
30,9,7869,2,0,P|-1:52|-2:86,1,70,2|2,2:0|2:0,0:0:0:0:
33,143,8295,2,0,L|30:221,1,70,2|2,2:0|2:0,0:0:0:0:
26,296,8720,1,2,2:0:0:0:
102,330,8933,1,2,2:0:0:0:
152,262,9146,6,0,B|225:254|214:293|294:281,1,140,6|0,3:2|3:2,0:0:0:0:
412,168,9997,2,0,B|337:179|348:140|275:148,1,140,0|0,3:2|3:2,0:0:0:0:
201,110,10635,1,10,2:0:0:0:
125,72,10848,6,0,P|82:73|39:102,1,70,6|0,3:2|0:0,0:0:0:0:
48,168,11274,2,0,L|54:251,1,70,2|0,3:2|0:0,0:0:0:0:
6,307,11699,2,0,P|71:320|129:273,1,140,6|2,3:2|3:2,0:0:0:0:
204,309,12337,1,2,2:0:0:0:
283,281,12550,6,0,P|318:277|353:294,1,70,6|0,3:2|0:0,0:0:0:0:
424,253,12976,2,0,L|427:183,1,70,2|2,3:2|2:0,0:0:0:0:
474,112,13401,2,0,P|409:99|351:146,1,140,6|0,3:2|3:2,0:0:0:0:
219,39,14252,6,0,B|148:34|155:75|79:55|79:55|123:72|144:129|121:169|121:169|72:251,1,350,6|2,3:2|2:0,0:0:0:0:
17,280,15529,2,0,P|45:307|95:310,1,70,2|2,2:0|2:0,0:0:0:0:
151,280,15954,2,0,B|227:270|211:314|288:298,1,140,6|2,3:2|2:0,0:0:0:0:
443,358,16805,2,0,B|433:282|477:298|461:221,1,140,2|10,2:0|3:2,0:0:0:0:
444,54,17657,6,0,P|406:58|364:93,1,70,6|2,3:2|2:0,0:0:0:0:
296,59,18082,2,0,L|223:56,1,70,2|2,3:2|2:0,0:0:0:0:
152,98,18508,2,0,B|132:68|144:30|144:30|121:61|79:60,1,140,2|0,3:2|3:2,0:0:0:0:
3,73,19146,1,0,0:0:0:0:
0,157,19359,2,0,L|5:249,1,70,2|2,3:2|2:0,0:0:0:0:
9,311,19784,2,0,P|37:340|77:344,1,70,2|2,3:2|2:0,0:0:0:0:
147,365,20210,2,0,P|138:297|82:260,1,140,2|2,3:2|3:2,0:0:0:0:
85,91,21061,6,0,L|249:103,1,140,6|2,3:2|3:2,0:0:0:0:
304,128,21699,1,2,2:0:0:0:
378,89,21912,2,0,P|388:126|377:167,1,70,2|10,3:2|2:0,0:0:0:0:
319,212,22337,2,0,P|309:249|320:290,1,70,2|0,3:2|0:0,0:0:0:0:
387,323,22763,2,0,P|330:363|252:338,2,140,2|2|2,3:2|3:2|3:2,0:0:0:0:
382,156,24040,1,0,3:2:0:0:
265,35,24465,6,0,L|150:38,1,112,4|2,2:0|2:0,0:0:0:0:
89,39,25103,1,2,2:0:0:0:
89,39,25316,2,0,P|121:91|109:151,1,112,2|2,2:0|2:0,0:0:0:0:
77,268,26167,2,0,L|80:348,2,56,2|2|2,2:0|2:0|2:0,0:0:0:0:
139,238,26806,1,2,2:0:0:0:
139,238,27018,2,0,B|197:226|188:261|247:250,1,112,2|0,2:0|0:0,0:0:0:0:
365,315,27869,6,0,P|384:258|362:186,1,112,2|2,2:0|2:0,0:0:0:0:
348,151,28508,1,2,2:0:0:0:
348,151,28720,2,0,B|296:143|296:143|227:164,1,112,2|2,2:0|2:0,0:0:0:0:
154,55,29572,2,0,B|206:63|206:63|275:42,1,112,2|2,2:0|2:0,0:0:0:0:
327,20,30210,1,2,2:0:0:0:
327,20,30423,2,0,B|384:7|381:41|450:26,1,112,2|8,2:0|3:2,0:0:0:0:
480,155,31274,6,0,B|484:205|484:205|508:242|508:242|512:309,1,140,4|2,3:2|3:2,0:0:0:0:
445,340,31912,1,2,2:0:0:0:
363,361,32125,2,0,P|329:368|290:356,1,70,2|0,3:2|0:0,0:0:0:0:
230,305,32550,2,0,P|196:298|157:310,1,70,2|2,3:2|2:0,0:0:0:0:
97,360,32976,2,0,P|77:307|120:236,1,140,2|2,3:2|3:2,0:0:0:0:
164,169,33614,1,2,2:0:0:0:
224,110,33827,2,0,L|367:120,1,140,2|0,3:2|3:2,0:0:0:0:
430,274,34678,6,0,L|287:284,1,140,2|2,3:2|3:2,0:0:0:0:
213,249,35316,1,2,2:0:0:0:
138,288,35529,2,0,P|106:310|62:312,1,70,2|2,3:2|2:0,0:0:0:0:
19,251,35954,2,0,L|23:172,1,70,2|2,3:2|2:0,0:0:0:0:
48,100,36380,2,0,L|44:30,2,70,2|2|2,3:2|2:0|3:2,0:0:0:0:
105,161,37018,1,2,3:2:0:0:
183,132,37231,2,0,B|256:120|242:157|321:146,1,140,2|2,3:2|0:0,0:0:0:0:
451,41,38082,6,0,B|411:86|418:141|443:172|443:172|482:162|514:183,1,210,6|2,3:2|3:2,3:2:0:0:
469,254,38933,2,0,L|473:330,1,70,2|8,2:0|2:0,0:0:0:0:
388,324,39359,2,0,P|354:295|314:293,1,70,8|2,2:0|3:2,0:0:0:0:
323,374,39784,2,0,B|276:372|237:328|248:273|248:273|219:310|173:303,1,210,2|2,3:2|3:2,3:2:0:0:
118,343,40635,2,0,P|107:310|114:275,1,70,2|8,2:0|2:0,0:0:0:0:
179,221,41060,1,8,2:0:0:0:
83,83,41486,6,0,B|195:67|170:131|290:108,1,210,2|2,3:2|3:2,3:2:0:0:
365,77,42337,2,0,L|356:2,2,70,2|10|10,2:0|2:0|2:0,0:0:0:0:
354,160,42976,1,2,3:2:0:0:
394,233,43188,2,0,P|334:242|275:190,2,140,2|2|2,3:2|3:2|3:2,0:0:0:0:
286,108,44465,1,2,3:2:0:0:
118,123,44891,6,0,L|109:283,1,140,6|0,3:2|3:2,0:0:0:0:
132,344,45529,1,2,2:0:0:0:
215,331,45742,2,0,P|244:349|278:351,1,70,2|8,3:2|0:1,0:0:0:0:
272,267,46167,1,8,3:1:0:0:
431,320,46593,6,0,P|461:290|448:182,1,140,6|0,3:2|3:2,0:0:0:0:
391,245,47231,1,2,2:0:0:0:
355,168,47444,2,0,L|362:94,2,70,2|8|8,3:2|0:1|3:1,0:0:0:0:
214,75,48295,6,0,P|181:60|143:64,1,70,6|2,3:2|2:0,0:0:0:0:
91,124,48720,2,0,L|97:202,1,70,2|2,2:0|2:0,0:0:0:0:
143,264,49146,2,0,P|110:278|72:274,1,70,2|2,2:0|2:0,0:0:0:0:
14,222,49571,2,0,L|8:152,1,70,2|2,2:0|2:0,0:0:0:0:
25,69,49997,2,0,P|85:37|148:62,2,140,2|0|0,3:2|3:2|3:2,0:0:0:0:
173,147,51274,1,0,3:2:0:0:
75,283,51699,5,6,3:2:0:0:
103,297,54891,6,0,B|135:315|139:354|139:354|154:316|187:306,1,140,6|2,3:2|2:0,0:0:0:0:
259,264,55529,2,0,L|340:273,1,70,2|2,3:2|2:0,0:0:0:0:
393,325,55954,2,0,P|413:277|396:221,1,105,2|10,3:2|3:2,0:0:0:0:
439,107,56593,6,0,L|295:131,1,140,14|2,3:2|2:0,0:0:0:0:
237,184,57231,2,0,P|220:157|221:109,1,70,2|2,3:2|2:0,0:0:0:0:
171,49,57657,2,0,P|220:35|269:53,1,105,2|10,3:2|3:2,0:0:0:0:
389,91,58295,6,0,B|423:106|455:79|455:79|436:117|460:159,1,140,14|2,3:2|2:0,0:0:0:0:
439,228,58933,2,0,L|450:299,1,70,2|2,3:2|2:0,0:0:0:0:
510,355,59359,2,0,P|481:377|439:379,1,70,2|2,3:2|2:0,0:0:0:0:
374,340,59784,1,2,3:2:0:0:
307,287,59997,1,2,2:0:0:0:
241,234,60210,6,0,B|165:229|183:268|104:257,1,140,6|0,3:2|3:2,0:0:0:0:
76,91,61061,2,0,B|152:96|134:57|213:68,1,140,0|0,3:2|3:2,0:0:0:0:
293,88,61699,1,2,2:0:0:0:
358,35,61912,6,0,P|373:114|318:168,1,140,6|2,3:2|3:2,0:0:0:0:
403,313,62763,2,0,L|400:383,2,70,2|2|2,3:2|2:0|3:2,0:0:0:0:
326,278,63401,1,2,3:2:0:0:
250,315,63614,6,0,P|171:329|117:274,1,140,6|2,3:2|3:2,0:0:0:0:
49,145,64465,2,0,P|43:107|57:74,1,70,2|2,3:2|2:0,0:0:0:0:
126,35,64891,2,0,L|208:42,1,70,2|0,3:2|0:0,0:0:0:0:
279,48,65316,6,0,B|333:41|328:69|388:63,2,105,6|2|10,3:2|3:2|3:2,0:0:0:0:
229,116,66167,2,0,B|214:225,2,105,6|2|10,3:2|3:2|3:2,0:0:0:0:
195,40,67018,1,6,3:2:0:0:
29,68,67444,1,6,3:2:0:0:
34,236,67870,2,0,P|24:303|71:356,1,140,6|8,3:2|3:2,0:0:0:0:
108,280,68508,6,0,L|252:274,1,140,6|2,3:2|2:0,0:0:0:0:
296,341,69146,2,0,P|329:351|368:340,1,70,2|2,3:2|2:0,0:0:0:0:
444,323,69571,2,0,P|411:270|361:256,1,105,2|10,3:2|3:2,0:0:0:0:
248,273,70210,6,0,P|179:281|121:245,1,140,14|2,3:2|2:0,0:0:0:0:
65,182,70848,2,0,L|69:106,1,70,2|2,3:2|2:0,0:0:0:0:
6,55,71274,2,0,P|49:27|100:34,1,105,2|10,3:2|3:2,0:0:0:0:
225,24,71912,6,0,L|369:31,1,140,14|2,3:2|2:0,0:0:0:0:
387,112,72550,2,0,P|355:133|339:172,1,70,2|2,3:2|2:0,0:0:0:0:
420,189,72976,1,2,3:2:0:0:
436,271,73188,2,0,L|434:340,2,70,2|2|2,2:0|3:2|2:0,0:0:0:0:
354,248,73827,2,0,B|281:237|296:282|217:262,2,140,6|2|2,3:2|3:2|3:2,0:0:0:0:
452,111,75103,1,0,3:2:0:0:
380,154,75316,1,2,2:0:0:0:
301,123,75529,6,0,P|242:105|216:25,2,140,6|2|6,3:2|3:2|3:2,0:0:0:0:
298,39,76592,1,2,2:0:0:0:
377,10,76805,2,0,B|411:10|411:10|444:22,1,70,2|2,3:2|3:2,0:0:0:0:
508,78,77231,2,0,P|526:144|482:207,1,140,6|2,3:2|3:2,0:0:0:0:
486,285,77869,1,2,2:0:0:0:
414,329,78082,2,0,B|342:316|357:361|274:341,1,140,6|0,3:2|3:2,0:0:0:0:
121,282,78933,6,0,B|89:347|89:347|74:203|31:268|29:148,1,280,6|0,3:2|3:2,0:0:0:0:
61,75,79997,1,2,2:0:0:0:
134,117,80210,2,0,P|172:127|207:118,1,70,10|10,2:0|2:0,0:0:0:0:
276,82,80635,1,6,3:2:0:0:
276,82,82337,6,0,P|324:42|403:60,1,140,6|2,3:2|3:2,0:0:0:0:
349,124,82976,1,2,2:0:0:0:
402,188,83188,2,0,P|428:224|432:255,1,70,2|10,3:2|3:2,0:0:0:0:
440,332,83614,1,2,3:2:0:0:
274,311,84040,6,0,B|201:301|216:347|136:331,1,140,2|2,3:2|3:2,0:0:0:0:
67,376,84678,1,2,2:0:0:0:
11,313,84891,2,0,P|12:279|33:240,1,70,2|10,3:2|3:2,0:0:0:0:
67,173,85316,1,2,3:2:0:0:
231,117,85742,6,0,B|279:128|299:166|291:239|291:239|310:166|338:134|392:140|392:140|346:100|335:74|330:4|330:4|309:73|276:79,1,560,2|0,2:0|0:0,0:0:0:0:
