osu file format v14

[General]
AudioFilename: suya!.mp3
AudioLeadIn: 0
PreviewTime: 54862
Countdown: 0
SampleSet: Soft
StackLeniency: 0.4
Mode: 0
LetterboxInBreaks: 0
WidescreenStoryboard: 1

[Editor]
Bookmarks: 38082,44891,73827,73898,74040,74111,74252,74323,74465,74536,82976,87444
DistanceSpacing: 1.2
BeatDivisor: 4
GridSize: 16
TimelineZoom: 2.500003

[Metadata]
Title:Kaimin! Anmin! Syalist Seikatsu (TV Size)
TitleUnicode:快眠!安眠!スヤリスト生活 (TV Size)
Artist:Syalis Hime (CV: Minase Inori)
ArtistUnicode:スヤリス姫 (CV: 水瀬いのり)
Creator:imaginative
Version:Hard!
Source:魔王城でおやすみ
Tags:-_ascended_- - ascended - -ascended- qiyana dyl-byl anime japanese jpop j-pop minori inase Maoujou de Oyasumi Sleepy sleeping Princess in the Demon's demons devil's devils Castle オーロラ・栖夜・リース・カイミーン Aurora suyaris suyarhyst Suya Rhyst Kaymin 新田目駿 shun sho aratame nittame HANO good night's nights sleep life as a suyarhyst
BeatmapID:2645075
BeatmapSetID:1265580

[Difficulty]
HPDrainRate:4.5
CircleSize:4
OverallDifficulty:6
ApproachRate:7
SliderMultiplier:1.6
SliderTickRate:1

[Events]
//Background and Video events
Video,-937,"suya!.mp4"
0,0,"hard.jpg",0,0
//Break Periods
//Storyboard Layer 0 (Background)
//Storyboard Layer 1 (Fail)
//Storyboard Layer 2 (Pass)
//Storyboard Layer 3 (Foreground)
//Storyboard Layer 4 (Overlay)
//Storyboard Sound Samples

[TimingPoints]
2338,425.531914893617,4,2,1,30,1,0
3827,-125,4,2,1,50,0,0
9146,-117.647058823529,4,2,1,50,0,0
10422,-117.647058823529,4,2,1,55,0,0
10528,-117.647058823529,4,2,2,55,0,0
10848,-111.111111111111,4,2,2,60,0,0
14252,-153.846153846154,4,2,2,50,0,0
17231,-153.846153846154,4,2,1,50,0,0
17657,-100,4,2,1,70,0,1
18720,-100,4,2,2,70,0,1
20422,-100,4,2,1,70,0,1
22125,-100,4,2,2,70,0,1
23827,-100,4,2,1,70,0,1
24465,-100,4,2,1,50,0,0
25316,-125,4,2,1,50,0,0
31274,-111.111111111111,4,2,1,60,0,0
37657,-111.111111111111,4,2,3,60,0,0
38082,-125,4,2,1,40,0,0
39146,-125,4,2,2,40,0,0
44891,-111.111111111111,4,2,2,60,0,0
51699,-133.333333333333,4,2,2,55,0,0
52976,-133.333333333333,4,2,1,55,0,0
54891,-100,4,2,1,75,0,1
68294,-100,4,2,2,75,0,1
69891,-100,4,2,1,75,0,1
80210,-100,4,2,2,75,0,1
80635,-100,4,2,2,60,0,0
81911,-100,4,2,1,60,0,0
82337,-100,4,2,1,70,0,1
83401,-100,4,2,2,70,0,1
85103,-100,4,2,1,70,0,1
85742,-195.3125,4,2,1,40,0,0
86167,-195.3125,4,2,1,30,0,0
86593,-195.3125,4,2,1,20,0,0
87018,-195.3125,4,2,1,10,0,0
87444,-195.3125,4,2,1,5,0,0

[Colours]
Combo1 : 220,204,233
Combo2 : 252,239,152
Combo3 : 140,99,200
Combo4 : 240,133,153

[HitObjects]
73,68,3827,6,0,B|60:105|60:105|72:140,1,64,6|0,3:2|0:0,0:0:0:0:
103,202,4252,1,2,2:0:0:0:
103,202,4465,2,0,L|174:200,1,64,2|2,2:0|2:0,0:0:0:0:
243,194,4891,1,2,2:0:0:0:
297,294,5209,1,2,2:0:0:0:
340,176,5529,6,0,P|377:166|404:181,1,64,6|0,3:2|0:0,0:0:0:0:
462,227,5954,1,2,2:0:0:0:
462,227,6167,2,0,L|457:290,1,64,2|2,2:0|2:0,0:0:0:0:
426,361,6593,1,2,2:0:0:0:
322,310,6912,1,2,2:0:0:0:
456,290,7231,6,0,P|484:243|454:178,1,128,6|2,3:2|2:0,0:0:0:0:
395,134,7869,2,0,L|319:128,1,64,2|2,2:0|2:0,0:0:0:0:
256,152,8295,1,2,2:0:0:0:
256,152,8508,1,2,2:0:0:0:
208,92,8720,1,2,2:0:0:0:
208,92,8933,1,2,2:0:0:0:
154,153,9146,6,0,P|141:194|150:222,1,68.0000012969971,6|0,3:2|0:0,0:0:0:0:
180,291,9571,2,0,P|193:332|184:360,1,68.0000012969971,0|0,3:2|0:0,0:0:0:0:
107,370,9997,2,0,L|67:365,3,34.0000006484985,0|0|0|0,3:2|0:0|0:0|0:0,0:0:0:0:
8,340,10422,2,0,L|48:335,3,34.0000006484985,0|8|10|10,3:2|2:0|2:0|2:0,0:0:0:0:
67,297,10848,6,0,B|80:260|80:260|68:221,1,71.9999978027344,6|0,3:2|0:0,0:0:0:0:
41,146,11274,2,0,P|31:112|45:77,1,71.9999978027344,2|0,3:2|0:0,0:0:0:0:
110,23,11699,1,6,3:2:0:0:
110,23,11912,1,2,2:0:0:0:
162,93,12125,1,2,3:2:0:0:
162,93,12337,1,2,2:0:0:0:
208,11,12550,6,0,B|290:5|252:72|346:60,1,143.999995605469,6|2,3:2|3:2,0:0:0:0:
424,49,13188,1,2,2:0:0:0:
424,49,13401,2,0,P|459:113|418:177,1,143.999995605469,6|0,3:2|3:2,0:0:0:0:
363,228,14040,1,0,0:0:0:0:
406,292,14252,6,0,B|336:271|336:271|194:309,1,207.999990478516,6|0,3:2|0:0,0:0:0:0:
145,355,15316,1,2,2:0:0:0:
100,291,15529,1,2,2:0:0:0:
140,224,15742,1,2,2:0:0:0:
91,156,15954,5,6,3:2:0:0:
2,269,16380,1,2,2:0:0:0:
107,367,16806,1,2,2:0:0:0:
214,272,17231,1,10,3:2:0:0:
121,149,17657,6,0,P|84:135|42:149,1,80,6|2,3:2|2:0,0:0:0:0:
15,183,17976,1,2,2:0:0:0:
15,183,18082,2,0,L|21:267,1,80,2|2,3:2|2:0,0:0:0:0:
91,328,18508,2,0,L|136:323,1,40,2|2,3:2|2:0,0:0:0:0:
170,296,18720,1,10,2:0:0:0:
237,363,18933,2,0,B|273:377|273:377|310:363,1,80,0|0,3:2|0:0,0:0:0:0:
402,328,19359,6,0,P|416:290|397:244,1,80,2|2,3:2|2:0,0:0:0:0:
384,215,19678,1,2,2:0:0:0:
384,215,19784,2,0,P|370:177|389:131,1,80,2|2,3:2|2:0,0:0:0:0:
428,56,20210,2,0,L|379:45,1,40,2|2,3:2|2:0,0:0:0:0:
342,60,20422,1,10,3:2:0:0:
259,11,20635,2,0,P|221:-3|175:16,1,80,2|0,3:2|0:0,0:0:0:0:
110,70,21061,6,0,B|96:106|96:106|110:144,1,80,6|2,3:2|2:0,0:0:0:0:
130,189,21380,1,2,2:0:0:0:
130,189,21486,2,0,P|144:227|125:273,1,80,2|2,3:2|2:0,0:0:0:0:
87,348,21912,2,0,L|33:342,1,40,2|2,3:2|2:0,0:0:0:0:
0,353,22125,1,10,2:0:0:0:
27,261,22337,2,0,P|63:249|106:266,1,80,2|0,3:2|0:0,0:0:0:0:
177,321,22763,6,0,B|213:335|213:335|250:321,1,80,2|2,3:2|2:0,0:0:0:0:
296,303,23082,1,2,2:0:0:0:
296,303,23188,2,0,P|310:265|291:219,1,80,2|2,3:2|2:0,0:0:0:0:
264,138,23614,2,0,L|319:138,1,40,2|2,3:2|2:0,0:0:0:0:
352,148,23827,1,10,3:2:0:0:
324,56,24040,2,0,L|244:56,1,80,0|0,3:2|0:0,0:0:0:0:
179,96,24465,5,4,2:0:0:0:
155,247,24891,5,2,2:0:0:0:
86,213,25103,1,2,2:0:0:0:
22,257,25316,2,0,P|-7:203|17:136,1,128,2|2,2:0|2:0,0:0:0:0:
95,155,25954,5,2,2:0:0:0:
95,155,26061,1,2,2:0:0:0:
95,155,26167,2,0,L|163:162,1,64,2|2,2:0|2:0,0:0:0:0:
229,131,26593,2,0,L|297:124,1,64,2|2,2:0|2:0,0:0:0:0:
353,171,27018,2,0,P|377:229|350:297,1,128,2|0,2:0|0:0,0:0:0:0:
337,136,27869,6,0,B|388:123|388:123|473:144,1,128,2|2,2:0|2:0,0:0:0:0:
502,212,28508,1,2,2:0:0:0:
502,212,28720,2,0,P|511:249|492:279,1,64,2|0,2:0|0:0,0:0:0:0:
458,337,29146,1,2,2:0:0:0:
458,337,29358,1,2,2:0:0:0:
425,267,29571,6,0,B|355:261|387:318|307:308,1,128,2|2,2:0|2:0,0:0:0:0:
238,324,30210,1,2,2:0:0:0:
238,324,30422,2,0,L|247:254,1,64,2|0,2:0|0:0,0:0:0:0:
200,198,30848,2,0,L|196:131,1,64,8|0,3:2|0:0,0:0:0:0:
216,49,31274,6,0,B|254:39|254:39|294:56,1,71.9999978027344,4|0,3:2|0:0,0:0:0:0:
352,112,31699,1,2,3:2:0:0:
352,112,31912,1,2,2:0:0:0:
408,177,32125,2,0,P|417:214|399:255,1,71.9999978027344,2|0,3:2|0:0,0:0:0:0:
358,317,32550,1,2,3:2:0:0:
318,251,32763,5,2,2:0:0:0:
318,251,32869,1,2,2:0:0:0:
318,251,32976,2,0,L|246:258,1,71.9999978027344,2|2,3:2|2:0,0:0:0:0:
161,240,33402,2,0,L|89:233,1,71.9999978027344,2|2,3:2|2:0,0:0:0:0:
17,280,33827,2,0,P|1:323|16:362,1,71.9999978027344,2|0,3:2|0:0,0:0:0:0:
89,379,34252,1,0,3:2:0:0:
152,310,34465,5,2,2:0:0:0:
152,310,34571,1,2,2:0:0:0:
152,310,34678,2,0,L|158:233,1,71.9999978027344,2|0,3:2|0:0,0:0:0:0:
168,152,35103,1,2,3:2:0:0:
168,152,35316,1,2,2:0:0:0:
204,73,35529,2,0,P|243:62|284:79,1,71.9999978027344,2|2,3:2|2:0,0:0:0:0:
353,99,35954,2,0,P|392:110|433:93,1,71.9999978027344,2|2,3:2|2:0,0:0:0:0:
461,24,36380,5,2,3:2:0:0:
421,101,36593,1,2,2:0:0:0:
477,165,36805,1,2,3:2:0:0:
428,236,37018,1,2,3:2:0:0:
470,319,37231,1,2,3:2:0:0:
470,319,38082,6,0,B|424:337|424:337|369:320,2,96,6|2|2,3:2|0:2|3:2,3:2:0:0:
422,258,38933,1,2,2:0:0:0:
422,181,39146,2,0,L|422:125,2,32,8|8|8,2:0|2:0|2:0,0:0:0:0:
345,178,39571,2,0,L|292:175,1,32,2|2,3:2|2:0,0:0:0:0:
280,197,39784,6,0,L|174:203,2,96,2|2|2,3:2|3:2|3:2,3:2:0:0:
347,234,40635,1,2,2:0:0:0:
348,310,40848,2,0,L|348:366,2,32,8|8|8,2:0|2:0|2:0,0:0:0:0:
270,313,41274,1,0,3:2:0:0:
192,312,41486,6,0,B|170:312|148:328|148:328|126:312|104:312,2,96,2|2|2,3:2|0:2|3:2,3:2:0:0:
148,248,42337,1,2,2:0:0:0:
152,171,42550,2,0,L|152:115,2,32,10|8|10,2:0|2:0|2:0,0:0:0:0:
229,173,42976,1,2,3:2:0:0:
273,110,43189,5,2,3:2:0:0:
393,192,43614,1,2,3:2:0:0:
311,311,44040,1,2,3:2:0:0:
192,229,44465,1,2,3:2:0:0:
273,110,44891,6,0,B|336:102|315:152|389:131,2,107.999996704102,6|2|2,3:2|2:0|2:0,0:0:0:0:
190,136,45742,1,2,3:2:0:0:
110,102,45954,2,0,L|105:146,1,35.9999989013672,8|0,0:1|0:0,0:0:0:0:
123,176,46167,2,0,L|130:247,1,71.9999978027344,8|0,3:1|0:0,0:0:0:0:
85,322,46593,6,0,P|141:337|194:304,2,107.999996704102,6|2|2,3:2|2:0|2:0,0:0:0:0:
15,269,47444,1,2,3:2:0:0:
95,236,47657,2,0,L|135:228,1,35.9999989013672,8|0,0:1|0:0,0:0:0:0:
170,243,47869,2,0,L|249:252,1,71.9999978027344,8|0,3:1|0:0,0:0:0:0:
331,263,48295,5,6,3:2:0:0:
331,263,48508,1,2,2:0:0:0:
341,177,48720,2,0,L|348:97,1,71.9999978027344,2|2,2:0|2:0,0:0:0:0:
264,98,49146,5,2,2:0:0:0:
264,98,49359,1,2,2:0:0:0:
254,184,49571,2,0,L|247:255,1,71.9999978027344,2|2,2:0|2:0,0:0:0:0:
172,212,49997,2,0,B|128:189|128:189|27:213,2,143.999995605469,2|0|0,3:2|3:2|3:2,0:0:0:0:
311,314,51274,1,0,3:2:0:0:
331,171,51699,6,0,L|379:171,2,40.000001525879,6|2|2,3:2|2:0|2:0,0:0:0:0:
261,204,52125,2,0,L|261:254,2,40.000001525879,2|2|2,2:0|2:0|2:0,0:0:0:0:
261,128,52550,2,0,L|261:78,2,40.000001525879,2|2|2,2:0|2:0|2:0,0:0:0:0:
331,171,52976,1,10,3:2:0:0:
405,47,53401,6,0,L|445:37,2,40.000001525879,6|2|2,3:2|2:0|2:0,0:0:0:0:
330,34,53827,2,0,L|290:24,2,40.000001525879,2|2|2,2:0|2:0|2:0,0:0:0:0:
356,105,54252,2,0,L|362:160,2,40.000001525879,2|2|2,2:0|2:0|2:0,0:0:0:0:
405,47,54678,1,8,3:2:0:0:
466,120,54891,6,0,B|488:157|488:157|468:249,1,120,6|0,3:2|0:0,0:0:0:0:
454,276,55316,1,2,2:0:0:0:
362,245,55529,1,2,3:2:0:0:
276,287,55742,1,2,2:0:0:0:
195,235,55954,2,0,P|176:278|191:319,1,80,2|0,3:2|0:0,0:0:0:0:
198,354,56274,2,0,L|246:351,1,40,10|0,3:2|3:2,0:0:0:0:
283,266,56593,6,0,L|427:275,1,120,14|0,3:2|0:0,0:0:0:0:
450,280,57018,1,2,2:0:0:0:
419,188,57231,1,2,3:2:0:0:
456,99,57444,1,2,2:0:0:0:
405,17,57657,2,0,P|366:3|323:21,1,80,2|0,3:2|0:0,0:0:0:0:
296,48,57976,2,0,L|291:94,1,40,10|0,3:2|3:2,0:0:0:0:
224,20,58295,6,0,L|206:204,1,160,14|2,3:2|2:0,0:0:0:0:
218,274,58933,2,0,P|259:285|305:266,1,80,2|2,3:2|2:0,0:0:0:0:
375,222,59359,1,2,3:2:0:0:
353,128,59572,1,2,2:0:0:0:
259,150,59785,1,2,3:2:0:0:
281,244,59997,1,2,2:0:0:0:
390,215,60210,6,0,P|430:202|474:225,1,80,6|0,3:2|0:0,0:0:0:0:
460,311,60635,2,0,P|422:323|385:310,1,80,0|0,3:2|0:0,0:0:0:0:
309,252,61061,2,0,B|272:239|272:239|234:252,1,80,0|0,3:2|0:0,0:0:0:0:
144,289,61486,1,0,3:2:0:0:
89,209,61699,5,2,2:0:0:0:
89,209,61805,1,2,2:0:0:0:
89,209,61912,2,0,P|80:163|99:128,1,80,6|0,3:2|0:0,0:0:0:0:
147,54,62337,2,0,L|237:49,1,80,2|0,3:2|0:0,0:0:0:0:
320,72,62763,1,2,3:2:0:0:
306,167,62976,1,2,2:0:0:0:
401,181,63189,1,2,3:2:0:0:
415,86,63401,1,2,3:2:0:0:
308,57,63614,6,0,P|266:44|219:67,1,80,6|0,3:2|0:0,0:0:0:0:
157,115,64040,2,0,L|163:209,1,80,2|0,3:2|0:0,0:0:0:0:
174,290,64465,1,2,3:2:0:0:
249,231,64678,1,2,2:0:0:0:
302,311,64891,2,0,P|347:325|387:305,1,80,2|0,3:2|0:0,0:0:0:0:
460,267,65316,6,0,P|454:228|453:177,1,80,6|0,3:2|0:0,0:0:0:0:
476,145,65635,2,0,P|482:106|483:55,1,80,2|0,3:2|0:0,0:0:0:0:
466,20,65954,1,10,3:2:0:0:
379,61,66167,2,0,P|305:57|297:56,1,80,6|0,3:2|0:0,0:0:0:0:
254,74,66486,2,0,P|180:78|172:79,1,80,2|0,3:2|0:0,0:0:0:0:
134,51,66805,1,10,3:2:0:0:
49,97,67018,6,0,B|38:138|38:138|50:189,1,80,6|0,3:2|0:0,0:0:0:0:
100,254,67444,2,0,B|111:295|111:295|99:346,1,80,6|0,3:2|0:0,0:0:0:0:
17,375,67869,2,0,B|69:343|69:343|171:361,1,160,6|8,3:2|3:2,0:0:0:0:
262,370,68508,6,0,P|283:307|255:259,1,120,6|0,3:2|0:0,0:0:0:0:
223,231,68933,1,2,2:0:0:0:
132,261,69146,1,2,3:2:0:0:
57,200,69359,1,2,2:0:0:0:
77,106,69571,2,0,L|165:100,1,80,2|0,3:2|0:0,0:0:0:0:
197,127,69891,2,0,L|238:134,1,40,10|0,3:2|3:2,0:0:0:0:
327,102,70210,6,0,B|327:130|341:159|341:159|327:188|327:217,1,120,14|0,3:2|0:0,0:0:0:0:
323,265,70635,1,2,2:0:0:0:
261,338,70848,1,2,3:2:0:0:
166,318,71061,1,2,2:0:0:0:
124,231,71274,2,0,P|164:218|203:235,1,80,2|0,3:2|0:0,0:0:0:0:
231,265,71593,2,0,P|254:268|276:264,1,40,10|0,3:2|3:2,0:0:0:0:
355,220,71912,6,0,B|368:231|377:244|377:244|373:104,1,160,14|2,3:2|2:0,0:0:0:0:
333,29,72550,2,0,P|294:18|257:34,1,80,2|2,3:2|2:0,0:0:0:0:
203,110,72976,1,2,3:2:0:0:
298,100,73188,1,2,2:0:0:0:
308,195,73402,1,2,3:2:0:0:
213,205,73614,1,2,2:0:0:0:
201,92,73827,6,0,L|144:97,3,40,6|2|2|2,3:2|0:2|0:2|0:2,0:0:0:0:
86,117,74252,2,0,L|143:122,3,40,2|2|2|2,3:2|0:2|0:2|0:2,0:0:0:0:
164,163,74678,2,0,P|176:203|155:247,1,80,2|0,3:2|0:0,0:0:0:0:
122,323,75103,1,0,3:2:0:0:
221,301,75316,5,2,2:0:0:0:
221,301,75422,1,2,2:0:0:0:
221,301,75529,2,0,B|260:290|260:290|309:306,1,80,6|0,3:2|0:0,0:0:0:0:
378,354,75954,2,0,P|417:365|463:347,1,80,2|0,3:2|0:0,0:0:0:0:
509,274,76380,1,6,3:2:0:0:
414,284,76592,1,2,2:0:0:0:
404,189,76806,1,2,3:2:0:0:
499,179,77018,1,2,3:2:0:0:
389,177,77231,6,0,B|343:165|343:165|228:188,1,160,6|2,3:2|3:2,0:0:0:0:
138,203,77869,1,2,2:0:0:0:
44,223,78082,2,0,P|31:272|44:303,1,80,6|0,3:2|0:0,0:0:0:0:
113,361,78508,2,0,L|197:353,1,80,0|0,3:2|0:0,0:0:0:0:
271,298,78933,6,0,B|359:285|315:366|421:349,2,160,6|0|0,3:2|3:2|3:2,0:0:0:0:
176,314,79997,1,2,2:0:0:0:
213,225,80210,1,10,2:0:0:0:
151,151,80422,1,10,2:0:0:0:
214,63,80635,5,6,3:2:0:0:
384,93,81061,1,2,2:0:0:0:
354,263,81487,1,2,2:0:0:0:
184,233,81911,1,10,3:2:0:0:
214,63,82337,6,0,P|256:51|298:73,1,80,6|2,3:2|2:0,0:0:0:0:
323,97,82657,1,2,2:0:0:0:
323,97,82763,2,0,P|365:109|407:87,1,80,2|2,3:2|2:0,0:0:0:0:
480,47,83188,2,0,L|487:101,1,40,2|2,3:2|2:0,0:0:0:0:
475,133,83401,1,10,3:2:0:0:
510,222,83614,2,0,L|499:301,1,80,2|0,3:2|0:0,0:0:0:0:
424,362,84040,6,0,P|382:377|339:357,1,80,2|2,3:2|2:0,0:0:0:0:
315,340,84359,1,2,2:0:0:0:
315,340,84465,2,0,L|316:247,1,80,2|2,3:2|2:0,0:0:0:0:
287,167,84891,2,0,L|241:159,1,40,2|2,3:2|2:0,0:0:0:0:
201,171,85103,1,10,3:2:0:0:
127,232,85316,2,0,P|112:272|133:317,1,80,2|0,3:2|0:0,0:0:0:0:
185,363,85742,6,0,B|214:391|252:360|252:360|311:193|311:193|348:158|395:198,1,327.68,2|0,2:0|0:0,0:0:0:0:
