osu file format v14

[General]
AudioFilename: audio.mp3
AudioLeadIn: 0
PreviewTime: 54662
Countdown: 0
SampleSet: Soft
StackLeniency: 0.7
Mode: 2
LetterboxInBreaks: 0
WidescreenStoryboard: 1

[Editor]
Bookmarks: 9130,17641,24449,31258,38066,41790,51683,61896,67853,68492,78917,87428
DistanceSpacing: 0.5
BeatDivisor: 4
GridSize: 32
TimelineZoom: 1.3

[Metadata]
Title:Kaimin! Anmin! Syalist Seikatsu (TV Size)
TitleUnicode:快眠!安眠!スヤリスト生活 (TV Size)
Artist:Syalis Hime (CV: Minase Inori)
ArtistUnicode:スヤリス姫 (CV: 水瀬いのり)
Creator:My Angel RangE
Version:amulet's Rain
Source:魔王城でおやすみ
Tags:sleepy princess in the demon castle maoujou de oyasumi opening op anime japanese pop jpop j-pop オーロラ・栖夜・リース・カイミーン Aurora Sya Lis Goodereste amulet-pp
BeatmapID:2693404
BeatmapSetID:1297355

[Difficulty]
HPDrainRate:5
CircleSize:4
OverallDifficulty:8.8
ApproachRate:8.8
SliderMultiplier:2
SliderTickRate:2

[Events]
//Background and Video events
0,0,"7887.jpg",0,0
Video,-685,"video.mp4"
//Break Periods
//Storyboard Layer 0 (Background)
//Storyboard Layer 1 (Fail)
//Storyboard Layer 2 (Pass)
//Storyboard Layer 3 (Foreground)
//Storyboard Layer 4 (Overlay)
//Storyboard Sound Samples

[TimingPoints]
2330,425.531914893617,4,2,0,60,1,0
10840,-100,4,2,0,70,0,0
20627,-100,4,2,0,70,0,0
21053,-100,4,2,0,70,0,0
24032,-100,4,2,0,70,0,0
24457,-100,4,2,0,50,0,0
31266,-100,4,2,0,70,0,0
38074,-100,4,2,0,60,0,0
44883,-100,4,2,0,70,0,0
45947,-100,4,2,0,70,0,0
46585,-100,4,2,0,70,0,0
47649,-100,4,2,0,70,0,0
48287,-100,4,2,0,70,0,0
51691,-100,4,2,0,50,0,0
54883,-100,4,2,0,80,0,1
78925,-100,4,2,0,70,0,0
85734,-100,4,2,0,50,0,0

[Colours]
Combo1 : 221,0,0
Combo2 : 128,128,255
Combo3 : 255,128,128
Combo4 : 43,43,255

[HitObjects]
256,192,2330,12,0,3606,0:0:0:0:
62,174,3819,5,4,1:0:0:0:
261,172,4244,1,2,0:0:0:0:
101,189,4457,1,2,0:0:0:0:
251,221,4670,1,2,0:0:0:0:
91,241,4883,2,0,P|89:187|101:133,1,100,2|0,0:0|0:0,0:0:0:0:
156,133,5202,2,0,L|278:77,1,100,2|0,0:0|0:0,0:0:0:0:
423,87,5521,5,4,1:0:0:0:
223,87,5946,1,2,0:0:0:0:
383,105,6159,1,2,0:0:0:0:
233,125,6372,1,2,0:0:0:0:
384,157,6585,2,0,L|275:157,1,100,2|0,0:0|0:0,0:0:0:0:
228,154,6904,2,0,L|162:66,1,100,2|0,0:0|0:0,0:0:0:0:
344,128,7223,5,4,1:0:0:0:
143,118,7648,1,0,0:0:0:0:
303,156,7861,2,0,L|303:33,1,100,2|0,0:0|0:0,0:0:0:0:
202,52,8287,1,2,0:0:0:0:
372,53,8500,2,0,L|497:53,2,100,0|2|0,0:0|0:0|0:0,0:0:0:0:
91,57,9138,5,4,3:0:0:0:
391,178,9563,1,0,1:0:0:0:
110,343,9989,1,4,3:0:0:0:
61,313,10095,1,0,0:0:0:0:
58,257,10201,1,0,0:0:0:0:
101,221,10308,1,0,0:0:0:0:
277,227,10415,2,0,L|216:226,1,50,8|8,3:0|3:0,0:0:0:0:
162,219,10627,2,0,L|162:167,1,50,4|4,3:0|3:0,0:0:0:0:
343,157,10840,6,0,P|386:105|333:42,1,150,4|0,3:0|0:0,0:0:0:0:
220,42,11266,2,0,L|161:143,1,100,0|0,1:0|0:0,0:0:0:0:
450,140,11691,2,0,L|450:250,1,100,4|0,3:0|0:0,0:0:0:0:
289,193,12117,2,0,L|181:193,1,100,0|0,1:0|0:0,0:0:0:0:
469,187,12542,6,0,L|318:146,1,150,4|0,3:0|0:0,0:0:0:0:
450,174,12968,2,0,L|485:79,1,100,0|0,1:0|0:0,0:0:0:0:
305,63,13393,1,4,3:0:0:0:
194,105,13606,1,0,0:0:0:0:
83,205,13819,1,0,1:0:0:0:
194,105,14032,1,0,0:0:0:0:
473,326,14244,6,0,B|426:255|314:208|314:208|377:195|418:155|432:109|411:57,1,400,4|0,0:1|0:0,0:0:0:0:
253,149,15308,2,0,L|116:116,1,100,2|2,0:0|0:0,0:0:0:0:
55,114,15734,1,2,0:0:0:0:
345,120,15947,5,4,0:1:0:0:
146,71,16372,2,0,L|365:72,2,200,2|2|4,0:0|0:0|3:0,0:0:0:0:
458,89,17649,6,0,P|431:147|392:207,1,100,4|0,3:0|0:0,0:0:0:0:
359,167,17968,1,0,0:0:0:0:
234,201,18074,2,0,P|166:149|164:106,1,100,0|0,1:0|0:0,0:0:0:0:
314,85,18500,1,4,3:0:0:0:
363,105,18606,1,0,0:0:0:0:
398,149,18712,2,0,P|401:214|348:261,1,100,0|0,0:0|1:0,0:0:0:0:
55,132,19351,6,0,L|160:166,1,100,4|0,3:0|0:0,0:0:0:0:
200,162,19670,1,0,0:0:0:0:
317,313,19776,2,0,P|322:262|308:207,1,100,0|0,1:0|0:0,0:0:0:0:
157,126,20202,2,0,L|86:123,1,50,4|0,3:0|0:0,0:0:0:0:
283,185,20415,2,0,L|211:187,1,50,2|2,0:0|0:0,0:0:0:0:
53,291,20627,2,0,L|55:156,1,100,2|2,1:2|0:0,0:0:0:0:
336,172,21053,6,0,L|348:282,1,100,4|0,3:0|0:0,0:0:0:0:
296,272,21372,1,0,0:0:0:0:
421,184,21478,2,0,P|439:125|387:69,1,100,0|0,1:0|0:0,0:0:0:0:
270,66,21904,1,4,3:0:0:0:
221,78,22010,1,0,0:0:0:0:
172,89,22117,2,0,B|122:105|122:105|165:150,1,100,0|0,0:0|1:0,0:0:0:0:
475,81,22755,6,0,L|475:196,1,100,4|0,3:0|0:0,0:0:0:0:
424,114,23074,1,0,0:0:0:0:
299,158,23180,2,0,L|178:101,1,100,0|0,1:0|0:0,0:0:0:0:
47,66,23606,2,0,L|121:68,1,50,4|0,3:0|0:0,0:0:0:0:
223,99,23819,2,0,L|223:152,1,50,2|2,0:0|0:0,0:0:0:0:
50,176,24031,1,2,1:2:0:0:
200,208,24244,1,2,0:0:0:0:
480,277,24457,5,4,3:0:0:0:
280,264,24883,1,2,0:0:0:0:
180,260,25095,1,0,0:0:0:0:
361,261,25308,2,0,P|432:199|376:95,1,200,4|0,3:0|0:0,0:0:0:0:
302,90,25947,1,2,0:0:0:0:
252,87,26053,1,2,0:0:0:0:
202,85,26159,6,0,L|75:82,2,100,4|0|0,3:0|0:0|0:0,0:0:0:0:
302,90,26798,1,0,0:0:0:0:
113,234,27010,2,0,B|56:221|56:221|59:158|59:158|152:157,1,200,4|2,3:0|0:0,0:0:0:0:
438,51,27861,5,4,3:0:0:0:
238,60,28287,1,0,0:0:0:0:
138,60,28499,1,0,0:0:0:0:
318,62,28712,2,0,L|460:62,1,100,4|0,3:0|0:0,0:0:0:0:
317,138,29138,1,0,0:0:0:0:
409,137,29351,1,0,0:0:0:0:
230,139,29563,6,0,L|106:138,1,100,4|0,3:0|0:0,0:0:0:0:
231,53,29989,1,0,0:0:0:0:
130,53,30202,1,0,0:0:0:0:
310,149,30415,2,0,L|445:149,1,100,4|0,3:0|0:0,0:0:0:0:
129,168,30840,2,0,L|131:43,1,100,0|0,1:0|0:0,0:0:0:0:
412,101,31266,6,0,L|408:215,1,100,4|0,3:0|0:0,0:0:0:0:
238,244,31691,2,0,L|240:119,1,100,0|0,1:0|0:0,0:0:0:0:
404,99,32117,2,0,L|227:99,1,150,4|0,3:0|0:0,0:0:0:0:
199,133,32542,2,0,L|199:14,1,100,0|2,1:0|0:0,0:0:0:0:
255,38,32861,1,2,0:0:0:0:
431,55,32968,6,0,L|430:168,1,100,4|0,3:0|0:0,0:0:0:0:
269,179,33393,2,0,L|131:178,1,100,0|0,1:0|0:0,0:0:0:0:
330,207,33819,2,0,P|392:144|306:67,1,200,4|0,3:0|1:0,0:0:0:0:
166,71,34457,1,2,0:0:0:0:
221,78,34563,1,2,0:0:0:0:
403,99,34670,6,0,P|456:164|454:258,1,150,4|0,3:0|0:0,0:0:0:0:
338,256,35095,2,0,L|230:254,1,100,0|0,1:0|0:0,0:0:0:0:
77,208,35521,2,0,L|77:102,1,100,4|0,3:0|0:0,0:0:0:0:
238,102,35947,2,0,L|344:60,1,100,0|0,1:0|0:0,0:0:0:0:
51,38,36372,5,12,3:0:0:0:
191,41,36585,1,8,3:0:0:0:
51,38,36798,1,4,3:0:0:0:
191,43,37011,1,4,3:0:0:0:
460,124,37223,1,4,1:0:0:0:
180,170,37649,1,2,0:0:0:0:
478,176,38074,6,0,L|291:176,1,150,4|0,3:0|0:0,0:0:0:0:
178,180,38712,1,4,3:0:0:0:
358,186,38925,2,0,P|367:90|278:59,1,200,0|0,1:0|0:0,0:0:0:0:
121,83,39564,1,4,3:0:0:0:
71,114,39670,1,0,0:0:0:0:
201,172,39776,6,0,L|388:172,1,150,8|4,3:0|3:0,0:0:0:0:
201,172,40414,1,4,3:0:0:0:
381,177,40627,2,0,P|441:114|344:46,1,200,0|8,1:0|3:0,0:0:0:0:
79,155,41478,6,0,P|42:95|103:63,1,150,4|0,3:0|0:0,0:0:0:0:
248,103,42117,2,0,P|284:53|244:17,1,100,4|0,3:0|1:0,0:0:0:0:
118,37,42542,1,0,0:0:0:0:
218,40,42755,2,0,L|106:40,1,100,8|4,3:0|3:0,0:0:0:0:
400,70,43181,5,0,1:0:0:0:
141,131,43606,1,0,1:0:0:0:
142,187,44032,1,0,1:0:0:0:
442,211,44457,1,0,1:0:0:0:
141,214,44883,6,0,L|309:213,2,150,4|0|0,3:1|0:0|0:0,0:0:0:0:
40,215,45734,1,4,3:0:0:0:
322,173,45947,1,8,0:0:0:0:
173,173,46159,1,8,0:0:0:0:
475,105,46585,6,0,L|307:104,2,150,4|0|0,3:0|0:0|0:0,0:0:0:0:
375,115,47436,1,4,3:0:0:0:
91,75,47649,1,8,0:0:0:0:
91,75,47861,1,8,0:0:0:0:
388,166,48287,6,0,L|279:168,2,100,0|0|0,3:0|3:0|3:0,0:0:0:0:
488,164,48925,1,0,3:0:0:0:
207,246,49138,2,0,L|100:248,2,100,0|0|0,3:0|3:0|3:0,0:0:0:0:
308,246,49776,1,0,3:0:0:0:
34,284,49989,5,4,3:0:0:0:
334,225,50415,1,4,3:0:0:0:
38,188,50840,1,4,3:0:0:0:
178,187,51053,1,0,0:0:0:0:
38,188,51266,2,0,L|39:78,1,100,4|0,3:0|0:0,0:0:0:0:
319,95,51691,5,4,1:0:0:0:
379,124,51833,1,0,3:0:0:0:
423,176,51975,1,0,3:0:0:0:
431,242,52117,1,0,3:0:0:0:
389,301,52259,1,0,3:0:0:0:
328,329,52400,1,0,3:0:0:0:
194,330,52542,1,0,3:0:0:0:
259,322,52683,1,0,3:0:0:0:
318,288,52826,1,0,3:0:0:0:
362,239,52968,1,4,3:0:0:0:
388,178,53110,1,0,3:0:0:0:
391,111,53251,1,0,3:0:0:0:
162,88,53393,6,0,L|81:88,1,66.6666666666667,4|0,1:0|3:0,0:0:0:0:
162,90,53677,1,0,3:0:0:0:
228,90,53819,1,0,3:0:0:0:
294,91,53961,1,0,3:0:0:0:
360,92,54102,1,0,3:0:0:0:
226,188,54244,2,0,L|135:188,2,66.6666666666667,0|0|0,3:0|3:0|3:0,0:0:0:0:
367,205,54670,1,0,3:0:0:0:
77,241,54883,5,4,1:0:0:0:
378,193,55308,1,0,0:0:0:0:
228,207,55521,1,0,1:0:0:0:
378,239,55734,1,0,0:0:0:0:
108,251,55947,2,0,L|107:145,1,100,4|0,3:0|0:0,0:0:0:0:
233,103,56266,2,0,L|345:103,1,100,0|0,1:0|0:0,0:0:0:0:
157,95,56585,6,0,L|161:204,1,100,4|0,3:0|0:0,0:0:0:0:
321,167,57010,1,0,0:0:0:0:
186,178,57223,1,0,1:0:0:0:
51,189,57436,1,0,0:0:0:0:
331,196,57649,2,0,L|332:90,1,100,4|0,3:0|0:0,0:0:0:0:
206,85,57968,2,0,L|110:25,1,100,0|0,1:0|0:0,0:0:0:0:
297,88,58287,6,0,L|296:199,1,100,4|4,3:0|3:0,0:0:0:0:
141,189,58712,1,0,0:0:0:0:
291,187,58925,1,0,1:0:0:0:
140,193,59138,1,0,0:0:0:0:
422,235,59351,2,0,L|422:108,1,100,4|0,3:0|0:0,0:0:0:0:
262,95,59776,2,0,L|366:97,1,100,0|0,1:0|0:0,0:0:0:0:
69,211,60202,6,0,L|58:92,1,100,4|0,3:0|0:0,0:0:0:0:
220,123,60627,2,0,L|155:40,1,100,0|0,1:0|0:0,0:0:0:0:
440,206,61053,2,0,L|479:88,1,100,4|0,3:0|0:0,0:0:0:0:
311,157,61478,2,8,L|188:158,1,100,0|8,1:0|3:0,3:3:0:0:
262,147,61798,1,8,3:0:0:0:
441,153,61904,6,0,P|484:101|431:38,1,150,4|0,3:0|0:0,0:0:0:0:
318,43,62330,2,0,L|273:152,1,100,0|0,1:0|0:0,0:0:0:0:
450,140,62755,2,0,L|450:250,1,100,4|0,3:0|0:0,0:0:0:0:
289,193,63181,2,0,L|398:193,1,100,0|0,1:0|0:0,0:0:0:0:
109,200,63606,6,0,L|260:200,1,150,4|0,3:0|0:0,0:0:0:0:
133,220,64032,2,0,L|145:115,1,100,0|0,1:0|0:0,0:0:0:0:
422,128,64457,1,4,3:0:0:0:
271,125,64670,1,4,3:0:0:0:
422,128,64883,2,0,P|448:82|461:31,1,100,0|0,1:0|0:0,0:0:0:0:
180,41,65308,5,4,3:0:0:0:
14,108,65627,1,0,0:0:0:0:
164,140,65947,1,0,0:0:0:0:
446,211,66159,1,4,3:0:0:0:
281,212,66478,1,0,0:0:0:0:
116,217,66798,1,0,0:0:0:0:
415,273,67010,5,4,1:0:0:0:
94,274,67436,1,4,1:0:0:0:
415,273,67861,2,0,B|460:245|460:245|355:172,1,150,4|0,1:0|0:0,0:0:0:0:
325,149,68287,1,8,3:0:0:0:
25,141,68500,5,4,3:0:0:0:
326,199,68925,1,0,0:0:0:0:
176,213,69138,1,0,1:0:0:0:
326,245,69351,1,0,0:0:0:0:
45,258,69564,2,0,L|152:256,1,100,4|0,3:0|0:0,0:0:0:0:
266,189,69883,2,0,L|172:134,1,100,0|0,1:0|0:0,0:0:0:0:
351,91,70202,6,0,L|350:202,1,100,4|0,3:0|0:0,0:0:0:0:
190,188,70627,1,0,0:0:0:0:
325,199,70840,1,0,1:0:0:0:
460,210,71053,1,0,0:0:0:0:
180,248,71266,2,0,L|181:142,1,100,4|0,3:0|0:0,0:0:0:0:
307,136,71585,2,0,L|419:134,1,100,0|0,1:0|0:0,0:0:0:0:
231,82,71904,6,0,L|231:200,1,100,4|4,3:0|3:0,0:0:0:0:
381,179,72329,1,0,0:0:0:0:
221,236,72542,2,0,L|120:164,1,100,0|0,1:0|0:0,0:0:0:0:
421,327,72968,2,0,L|290:328,1,100,4|0,3:0|0:0,0:0:0:0:
481,204,73393,2,0,L|376:203,1,100,0|0,1:0|0:0,0:0:0:0:
92,191,73819,5,4,3:0:0:0:
61,150,73925,1,0,0:0:0:0:
62,95,74032,1,0,0:0:0:0:
96,59,74138,1,0,0:0:0:0:
265,56,74244,1,0,1:0:0:0:
310,76,74350,1,0,0:0:0:0:
234,101,74457,1,0,0:0:0:0:
189,121,74564,1,0,0:0:0:0:
364,204,74670,2,0,L|467:203,1,100,4|0,3:0|0:0,0:0:0:0:
324,200,75095,2,0,L|215:199,1,100,0|0,1:0|0:0,0:0:0:0:
275,150,75415,1,0,0:0:0:0:
454,163,75521,6,0,B|499:75|499:75|444:26,1,150,4|0,3:0|0:0,0:0:0:0:
335,132,75947,2,0,L|335:32,1,100,0|0,1:0|0:0,0:0:0:0:
165,219,76372,2,0,L|107:100,1,100,4|0,3:0|0:0,0:0:0:0:
282,168,76798,2,0,L|393:166,1,100,0|0,1:0|0:0,0:0:0:0:
101,255,77223,6,0,L|216:256,1,100,4|0,3:0|0:0,0:0:0:0:
363,148,77649,2,0,L|362:259,1,100,0|0,1:0|0:0,0:0:0:0:
212,267,78074,2,0,L|144:266,1,50,4|0,3:0|0:0,0:0:0:0:
218,216,78287,2,0,L|286:215,1,50,0|0,0:0|0:0,0:0:0:0:
459,176,78500,2,0,L|460:232,1,50,0|0,1:0|0:0,0:0:0:0:
394,231,78713,2,0,L|344:230,1,50,0|0,0:0|0:0,0:0:0:0:
164,214,78925,6,0,L|372:148,2,200,4|0|4,3:0|1:0|3:0,0:0:0:0:
334,220,79989,2,0,L|390:220,1,50,0|0,0:0|0:0,0:0:0:0:
202,156,80202,2,0,L|202:102,1,50,0|0,1:0|3:0,0:0:0:0:
263,109,80415,2,0,L|209:108,1,50,4|0,3:0|3:0,0:0:0:0:
23,72,80627,5,4,3:0:0:0:
222,75,81052,2,0,L|384:205,1,200,2|2,0:0|0:0,0:0:0:0:
177,196,81904,1,4,3:0:0:0:
477,105,82329,6,0,L|407:188,1,100,4|0,3:0|0:0,0:0:0:0:
368,183,82649,1,0,0:0:0:0:
243,177,82755,2,0,L|138:132,1,100,0|0,1:0|0:0,0:0:0:0:
307,43,83180,1,4,3:0:0:0:
355,53,83286,1,0,0:0:0:0:
402,68,83393,2,0,P|413:132|377:179,1,100,0|0,0:0|1:0,0:0:0:0:
77,307,84032,6,0,B|41:266|41:266|86:198,1,100,4|0,3:0|0:0,0:0:0:0:
117,241,84351,1,0,0:0:0:0:
242,262,84457,2,0,P|189:226|175:182,1,100,0|0,1:0|0:0,0:0:0:0:
337,102,84882,2,0,L|280:107,1,50,4|0,3:0|0:0,0:0:0:0:
110,150,85095,2,0,L|169:152,1,50,2|2,0:0|0:0,0:0:0:0:
285,214,85307,1,2,1:2:0:0:
125,248,85520,1,2,0:0:0:0:
302,279,85734,5,2,0:0:0:0:
256,192,85947,12,0,87436,0:0:0:0:
