osu file format v14

[General]
AudioFilename: audio.mp3
AudioLeadIn: 0
PreviewTime: -1
Countdown: 1
SampleSet: None
StackLeniency: 0.7
Mode: 0
LetterboxInBreaks: 0
WidescreenStoryboard: 0

[Editor]
DistanceSpacing: 0.8
BeatDivisor: 1
GridSize: 32
TimelineZoom: 0.5

[Metadata]
Title:Innocence Sword Art Online
TitleUnicode:Innocence Sword Art Online
Artist:Sword art Online, 2 season
ArtistUnicode:Sword art Online, 2 season
Creator:TennoKotarou
Version:Normal
Source:Anime
Tags:Anime, SAO
BeatmapID:1551870
BeatmapSetID:735112

[Difficulty]
HPDrainRate:7
CircleSize:5
OverallDifficulty:4
ApproachRate:6
SliderMultiplier:1.4
SliderTickRate:1

[Events]
//Background and Video events
0,0,"kirito.jpg",0,0
//Break Periods
//Storyboard Layer 0 (Background)
//Storyboard Layer 1 (Fail)
//Storyboard Layer 2 (Pass)
//Storyboard Layer 3 (Foreground)
//Storyboard Sound Samples

[TimingPoints]
553.026548672566,530.973451327434,4,2,0,100,1,0

[Colours]
Combo1 : 255,255,255
Combo2 : 80,0,106
Combo3 : 18,124,255
Combo4 : 63,63,63

[HitObjects]
352,64,5000,5,0,0:0:0:0:
128,96,7000,1,0,0:0:0:0:
224,128,8500,1,0,0:0:0:0:
352,96,10000,1,0,0:0:0:0:
128,160,10500,1,0,0:0:0:0:
416,96,11500,1,0,0:0:0:0:
323,184,12000,1,0,0:0:0:0:
256,288,14000,1,0,0:0:0:0:
96,192,14500,1,0,0:0:0:0:
288,96,15000,1,0,0:0:0:0:
416,128,15500,1,0,0:0:0:0:
128,320,16000,1,0,0:0:0:0:
160,224,18000,1,0,0:0:0:0:
288,256,19000,1,0,0:0:0:0:
352,320,19500,1,0,0:0:0:0:
160,288,20000,1,0,0:0:0:0:
320,96,20500,1,0,0:0:0:0:
416,224,21500,1,0,0:0:0:0:
192,224,22000,1,0,0:0:0:0:
128,160,23000,1,0,0:0:0:0:
352,224,24500,1,0,0:0:0:0:
128,288,26000,1,0,0:0:0:0:
160,128,27000,1,0,0:0:0:0:
64,128,28000,1,0,0:0:0:0:
416,256,28500,1,0,0:0:0:0:
224,256,29000,1,0,0:0:0:0:
352,128,30000,1,0,0:0:0:0:
416,192,31000,1,0,0:0:0:0:
96,96,32500,5,0,0:0:0:0:
86,138,33500,1,0,0:0:0:0:
177,170,34000,1,0,0:0:0:0:
341,287,35000,1,0,0:0:0:0:
160,128,35500,1,0,0:0:0:0:
389,173,36000,1,0,0:0:0:0:
320,96,36500,1,0,0:0:0:0:
148,91,37721,1,0,0:0:0:0:
327,240,38517,1,0,0:0:0:0:
190,75,39048,1,0,0:0:0:0:
336,201,40000,2,0,L|126:179,3,140
145,154,42500,1,0,0:0:0:0:
311,154,43000,1,0,0:0:0:0:
96,96,44000,5,0,0:0:0:0:
153,177,45500,1,0,0:0:0:0:
268,75,46000,1,0,0:0:0:0:
435,162,46500,1,0,0:0:0:0:
148,284,47500,1,0,0:0:0:0:
197,69,48500,2,0,L|331:149,4,140
123,149,51500,1,0,0:0:0:0:
368,82,52000,1,0,0:0:0:0:
169,269,53000,1,0,0:0:0:0:
249,77,55000,1,0,0:0:0:0:
409,192,55500,1,0,0:0:0:0:
129,252,56000,1,0,0:0:0:0:
184,104,56500,1,0,0:0:0:0:
367,141,57000,1,0,0:0:0:0:
271,311,58000,1,0,0:0:0:0:
392,144,58500,1,0,0:0:0:0:
146,201,59000,1,0,0:0:0:0:
205,91,60000,1,0,0:0:0:0:
382,103,60500,1,0,0:0:0:0:
379,184,61500,1,0,0:0:0:0:
148,253,62000,1,0,0:0:0:0:
258,330,62500,2,0,L|391:231,1,140
256,96,64500,5,0,0:0:0:0:
384,192,65500,1,0,0:0:0:0:
288,128,66500,1,0,0:0:0:0:
384,192,67000,1,0,0:0:0:0:
224,320,68500,1,0,0:0:0:0:
192,96,69000,1,0,0:0:0:0:
352,128,69500,1,0,0:0:0:0:
192,256,70000,1,0,0:0:0:0:
192,64,70500,1,0,0:0:0:0:
384,128,71000,1,0,0:0:0:0:
352,256,71500,1,0,0:0:0:0:
192,224,72000,1,0,0:0:0:0:
115,131,72234,2,0,P|323:97|376:148,1,280
96,128,73500,1,0,0:0:0:0:
384,192,74000,1,0,0:0:0:0:
226,296,74500,1,0,0:0:0:0:
245,168,75000,1,0,0:0:0:0:
145,115,75500,1,0,0:0:0:0:
192,238,76000,1,0,0:0:0:0:
399,197,76500,1,0,0:0:0:0:
306,120,77000,1,0,0:0:0:0:
256,192,78000,12,0,82000,0:0:0:0:
315,84,83000,5,0,0:0:0:0:
126,172,84000,1,0,0:0:0:0:
237,92,84500,1,0,0:0:0:0:
376,158,85000,1,0,0:0:0:0:
206,240,85500,1,0,0:0:0:0:
145,101,86000,1,0,0:0:0:0:
319,85,87000,1,0,0:0:0:0:
96,96,88000,5,0,0:0:0:0:
259,167,89500,1,0,0:0:0:0:
192,288,90500,1,0,0:0:0:0:
317,191,91000,1,0,0:0:0:0:
137,137,92500,1,0,0:0:0:0:
96,288,94000,1,0,0:0:0:0:
416,288,95500,1,0,0:0:0:0:
192,192,97000,1,0,0:0:0:0:
429,120,97500,1,0,0:0:0:0:
233,241,98000,1,0,0:0:0:0:
149,128,98500,1,0,0:0:0:0:
128,96,99500,1,0,0:0:0:0:
252,124,100000,1,0,0:0:0:0:
361,150,100500,1,0,0:0:0:0:
128,288,101000,1,0,0:0:0:0:
331,192,101500,1,0,0:0:0:0:
320,96,102000,5,0,0:0:0:0:
272,248,102500,1,0,0:0:0:0:
203,208,103000,1,0,0:0:0:0:
320,288,103500,1,0,0:0:0:0:
414,177,104000,1,0,0:0:0:0:
141,209,104500,1,0,0:0:0:0:
143,80,106000,2,0,L|356:175,3,140
256,32,107000,1,0,0:0:0:0:
128,96,107500,1,0,0:0:0:0:
384,320,108500,1,0,0:0:0:0:
128,256,109000,1,0,0:0:0:0:
64,128,110500,2,0,L|320:192,2,140
384,352,112500,2,0,L|160:256,2,140
156,240,114500,1,0,0:0:0:0:
288,128,115000,1,0,0:0:0:0:
215,229,115500,5,0,0:0:0:0:
448,320,116000,1,0,0:0:0:0:
128,256,117000,2,0,L|352:128,2,140
366,102,117500,1,0,0:0:0:0:
384,320,118500,2,0,L|96:64,1,280
288,128,120000,2,0,L|128:256,2,140
320,320,121500,2,0,L|352:160,2,140
224,192,122500,2,0,L|128:320,2,140
64,64,125500,1,0,0:0:0:0:
448,128,126000,1,0,0:0:0:0:
128,288,127000,1,0,0:0:0:0:
384,256,128000,1,0,0:0:0:0:
160,64,129000,5,0,0:0:0:0:
384,128,129500,1,0,0:0:0:0:
160,224,130500,1,0,0:0:0:0:
352,96,131500,5,0,0:0:0:0:
128,160,132500,1,0,0:0:0:0:
384,288,133500,1,0,0:0:0:0:
160,64,134500,2,0,L|352:128,2,140
160,160,136500,1,0,0:0:0:0:
352,256,137500,1,0,0:0:0:0:
320,96,138500,1,0,0:0:0:0:
128,256,140000,1,0,0:0:0:0:
96,64,141000,2,0,L|448:288,1,280
352,64,143000,2,0,L|96:256,2,280
237,260,145500,1,0,0:0:0:0:
174,168,146000,1,0,0:0:0:0:
367,164,147000,1,0,0:0:0:0:
198,237,147500,1,0,0:0:0:0:
256,192,149500,12,0,155500,0:0:0:0:
96,64,157000,5,0,0:0:0:0:
224,256,158000,1,0,0:0:0:0:
416,128,159000,1,0,0:0:0:0:
96,288,160000,2,0,L|416:352,1,280
224,64,161500,2,0,L|96:224,3,140
448,64,164000,1,0,0:0:0:0:
224,224,164500,1,0,0:0:0:0:
352,320,165500,1,0,0:0:0:0:
192,128,166000,1,0,0:0:0:0:
256,64,167000,1,0,0:0:0:0:
320,288,168000,5,0,0:0:0:0:
128,224,168500,1,0,0:0:0:0:
416,96,169500,1,0,0:0:0:0:
160,192,170000,1,0,0:0:0:0:
96,64,170500,1,0,0:0:0:0:
288,224,171500,1,0,0:0:0:0:
384,96,172000,1,0,0:0:0:0:
160,128,172500,1,0,0:0:0:0:
96,96,174500,2,0,L|288:224,2,140
320,64,176500,1,0,0:0:0:0:
416,288,177000,1,0,0:0:0:0:
160,256,178000,1,0,0:0:0:0:
256,64,179000,5,0,0:0:0:0:
448,192,179500,1,0,0:0:0:0:
320,256,180000,1,0,0:0:0:0:
96,288,181000,1,0,0:0:0:0:
416,96,182000,1,0,0:0:0:0:
352,256,182500,1,0,0:0:0:0:
96,320,183500,2,0,L|416:64,1,280
128,96,185500,2,0,L|320:288,2,140
160,96,188000,1,0,0:0:0:0:
416,128,189500,1,0,0:0:0:0:
288,256,190500,5,0,0:0:0:0:
96,192,192000,1,0,0:0:0:0:
352,96,192500,1,0,0:0:0:0:
384,160,193500,1,0,0:0:0:0:
384,288,195000,1,0,0:0:0:0:
96,96,196000,1,0,0:0:0:0:
384,96,197000,1,0,0:0:0:0:
96,192,198000,2,0,L|384:352,1,280
416,96,199500,2,0,L|160:256,1,280
128,64,202000,1,0,0:0:0:0:
416,160,203000,1,0,0:0:0:0:
160,256,204000,1,0,0:0:0:0:
320,256,204500,1,0,0:0:0:0:
352,96,205500,1,0,0:0:0:0:
160,128,206000,5,0,0:0:0:0:
320,160,207000,1,0,0:0:0:0:
192,224,207500,1,0,0:0:0:0:
352,256,208000,1,0,0:0:0:0:
352,128,208500,1,0,0:0:0:0:
288,256,209500,1,0,0:0:0:0:
192,128,211000,2,0,L|416:256,1,140
384,64,212500,2,0,L|160:352,1,280
128,128,215000,1,0,0:0:0:0:
416,288,216000,1,0,0:0:0:0:
64,160,217500,2,0,P|192:288|256:160,3,280
96,96,221500,1,0,0:0:0:0:
320,192,222500,1,0,0:0:0:0:
352,96,223000,1,0,0:0:0:0:
160,192,223500,1,0,0:0:0:0:
352,288,224000,1,0,0:0:0:0:
384,96,225500,1,0,0:0:0:0:
192,256,226500,1,0,0:0:0:0:
320,128,227500,5,0,0:0:0:0:
96,64,229000,1,0,0:0:0:0:
96,224,230000,2,0,L|416:320,1,280
192,128,232000,1,0,0:0:0:0:
416,96,233000,1,0,0:0:0:0:
224,256,233500,1,0,0:0:0:0:
320,96,234500,1,0,0:0:0:0:
64,128,235000,1,0,0:0:0:0:
224,96,237500,1,0,0:0:0:0:
448,128,238000,1,0,0:0:0:0:
256,288,239000,5,0,0:0:0:0:
416,256,240000,1,0,0:0:0:0:
352,96,240500,1,0,0:0:0:0:
192,128,241000,1,0,0:0:0:0:
256,256,241500,1,0,0:0:0:0:
160,128,242000,1,0,0:0:0:0:
58,132,244000,1,0,0:0:0:0:
332,129,244500,1,0,0:0:0:0:
133,252,245500,1,0,0:0:0:0:
344,112,246500,5,0,0:0:0:0:
388,229,247000,1,0,0:0:0:0:
167,264,247500,1,0,0:0:0:0:
194,79,248500,1,0,0:0:0:0:
334,120,249000,1,0,0:0:0:0:
303,311,250000,1,0,0:0:0:0:
361,78,251000,1,0,0:0:0:0:
249,202,251500,1,0,0:0:0:0:
115,238,252000,5,0,0:0:0:0:
399,217,253000,1,0,0:0:0:0:
384,192,254000,1,0,0:0:0:0:
320,256,254500,1,0,0:0:0:0:
192,256,255000,1,0,0:0:0:0:
128,128,255500,1,0,0:0:0:0:
320,160,256500,1,0,0:0:0:0:
256,192,259000,12,0,263000,0:0:0:0:
64,128,264500,5,0,0:0:0:0:
288,96,265000,1,0,0:0:0:0:
352,192,266000,1,0,0:0:0:0:
128,256,266500,1,0,0:0:0:0:
96,128,267000,1,0,0:0:0:0:
320,256,268000,1,0,0:0:0:0:
384,64,268500,1,0,0:0:0:0:
128,256,270000,1,0,0:0:0:0:
