osu file format v14

[General]
AudioFilename: audio.mp3
AudioLeadIn: 0
PreviewTime: 129149
Countdown: 0
SampleSet: Soft
StackLeniency: 0.3
Mode: 0
LetterboxInBreaks: 0
EpilepsyWarning: 1
WidescreenStoryboard: 0

[Editor]
Bookmarks: 3695,10967,18240,25513,32785,40058,47331,50967,64604,65513,80058,87331,94604,101876,109149,116422,123695,129149,136422,143695,157331,158240,171876,172785,187331,194604,201876,203695
DistanceSpacing: 1
BeatDivisor: 4
GridSize: 32
TimelineZoom: 1

[Metadata]
Title:Shinitai-chan
TitleUnicode:シニタイちゃん
Artist:Switch
ArtistUnicode:すいっち
Creator:eiri-
Version:Normal
Source:
Tags:Ayyri Miss Wanna-Die Wanna Die IA Aria On The Planetes Planets Shinitaichan Shinitai chan Vocaloid Japanese Electronic
BeatmapID:3429729
BeatmapSetID:1669009

[Difficulty]
HPDrainRate:4
CircleSize:3.5
OverallDifficulty:4
ApproachRate:5
SliderMultiplier:1.2
SliderTickRate:1

[Events]
//Background and Video events
0,0,"Shinitai.jpg",0,0
Video,0,"Shinitai.avi"
//Break Periods
//Storyboard Layer 0 (Background)
//Storyboard Layer 1 (Fail)
//Storyboard Layer 2 (Pass)
//Storyboard Layer 3 (Foreground)
//Storyboard Layer 4 (Overlay)
//Storyboard Sound Samples

[TimingPoints]
3695,454.545454545455,4,2,1,60,1,0
3695,-100,4,2,1,60,0,0
18240,-100,4,2,1,70,0,0
32785,-100,4,2,1,80,0,0
47331,-100,4,2,1,60,0,0
49149,-100,4,2,1,70,0,0
50058,-100,4,2,1,80,0,0
50967,-100,4,2,1,90,0,1
64604,-100,4,2,1,90,0,0
65513,-100,4,2,1,90,0,1
80058,-100,4,2,1,70,0,0
94604,-100,4,2,1,75,0,0
109149,-100,4,2,1,80,0,0
123695,-100,4,2,1,60,0,0
125513,-100,4,2,1,70,0,0
127331,-100,4,2,1,80,0,0
128240,-100,4,2,1,85,0,0
129149,-100,4,2,1,60,0,0
143695,-100,4,2,1,90,0,1
157331,-100,4,2,1,90,0,0
158240,-100,4,2,1,90,0,1
171876,-100,4,2,1,90,0,0
172785,-100,4,2,1,90,0,1
187331,-100,4,2,1,60,0,0
201876,-133.333333333333,4,2,1,60,0,0
202331,-133.333333333333,4,2,1,40,0,0
202785,-133.333333333333,4,2,1,20,0,0
203240,-133.333333333333,4,2,1,10,0,0
203695,-133.333333333333,4,2,1,5,0,0

[Colours]
Combo1 : 205,20,20
Combo2 : 225,183,183
Combo3 : 185,87,87
Combo4 : 247,170,170

[HitObjects]
62,349,3695,6,0,P|127:345|203:336,1,120,2|2,0:0|0:0,0:0:0:0:
243,359,4376,1,2,0:0:0:0:
243,359,4604,2,0,P|268:306|249:229,1,120,2|2,0:0|0:0,0:0:0:0:
193,146,5513,2,0,P|155:135|86:87,1,120,2|2,0:0|0:0,0:0:0:0:
72,37,6195,1,0,0:0:0:0:
72,37,6422,2,0,P|111:11|141:15,1,60,2|2,0:0|0:0,0:0:0:0:
176,37,6876,2,0,P|215:63|245:59,1,60,2|2,0:0|0:0,0:0:0:0:
280,37,7331,6,0,P|296:77|266:173,2,120,2|2|2,0:0|0:0|0:0,0:0:0:0:
162,10,8695,1,2,0:1:0:0:
90,106,9149,2,0,P|46:144|-12:174,1,120,2|0,0:1|0:0,0:0:0:0:
5,231,9831,1,2,0:0:0:0:
111,285,10285,1,2,0:0:0:0:
191,196,10740,1,2,0:3:0:0:
191,196,10967,6,0,B|272:175|272:175|307:223,1,120,2|2,0:0|0:0,0:0:0:0:
335,255,11649,1,2,0:0:0:0:
335,255,11876,2,0,B|380:244|380:244|399:211|399:211|374:157,1,120,2|0,0:0|0:0,0:0:0:0:
354,62,12785,2,0,P|311:54|226:29,1,120,2|2,0:0|0:0,0:0:0:0:
186,61,13467,1,0,0:0:0:0:
186,61,13695,2,0,P|172:105|151:133,1,60,2|2,0:0|0:0,0:0:0:0:
202,162,14149,2,0,P|216:206|237:234,1,60,2|2,0:0|0:0,0:0:0:0:
186,263,14604,6,0,B|145:271|145:271|129:308|129:308|64:320,2,120,2|2|2,0:0|0:0|0:0,0:0:0:0:
302,290,15967,1,2,0:1:0:0:
396,215,16422,2,0,P|402:168|422:91,1,120,2|0,0:1|0:0,0:0:0:0:
444,42,17104,1,2,0:0:0:0:
334,6,17558,1,2,0:0:0:0:
334,6,17785,2,0,P|312:46|291:34,1,60,0|2,0:0|0:3,0:0:0:0:
248,34,18240,5,2,1:2:0:0:
176,130,18695,2,0,P|124:116|49:109,1,120,10|2,0:0|0:0,0:0:0:0:
21,223,19604,2,0,P|32:269|30:299,1,60,2|2,0:0|0:0,0:0:0:0:
73,324,20058,2,0,P|120:319|119:242,1,120,2|8,0:3|0:0,0:0:0:0:
237,198,20967,2,0,B|271:214|271:214|285:265|315:307,1,120,2|0,0:0|1:0,0:0:0:0:
407,348,21876,6,0,B|454:338|454:338|467:247,1,120,2|8,1:2|0:0,0:0:0:0:
435,220,22558,1,2,1:2:0:0:
435,220,22785,2,0,B|388:210|388:210|375:119,1,120,2|2,0:0|0:1,0:0:0:0:
436,33,23695,2,0,P|360:17|301:-3,1,120,2|8,1:2|0:0,0:0:0:0:
205,40,24604,1,2,0:0:0:0:
216,159,25058,2,0,P|190:203|183:223,1,60,10|2,0:0|0:0,0:0:0:0:
139,248,25513,6,0,P|76:238|85:174,2,120,2|8|2,1:2|0:0|0:0,0:0:0:0:
248,297,26876,2,0,P|277:300|306:307,1,60,2|2,0:0|0:0,0:0:0:0:
360,334,27331,2,0,B|420:309|420:309|423:275|437:235,1,120,2|10,1:2|0:0,0:0:0:0:
483,147,28240,2,0,P|427:139|359:116,1,120,2|0,0:0|1:0,0:0:0:0:
270,48,29149,6,0,P|326:29|386:20,1,120,0|8,1:0|0:0,0:0:0:0:
446,46,29831,1,2,1:2:0:0:
446,46,30058,2,0,P|454:105|473:162,1,120,2|2,0:0|0:1,0:0:0:0:
418,269,30967,2,0,B|403:252|403:252|378:354,1,120,2|10,1:2|0:0,0:0:0:0:
277,283,31876,2,0,B|262:300|262:300|237:198,1,120,2|10,0:0|0:0,0:0:0:0:
254,150,32558,1,8,0:0:0:0:
254,150,32785,6,0,P|237:107|169:121,2,120,6|8|0,1:2|0:0|1:0,0:0:0:0:
382,149,34149,1,10,0:0:0:0:
382,149,34376,1,2,0:3:0:0:
382,149,34604,2,0,P|399:192|467:178,1,120,2|8,1:2|0:0,0:0:0:0:
509,145,35285,1,2,0:0:0:0:
509,145,35513,2,0,P|498:83|476:10,1,120,2|10,1:2|0:0,0:0:0:0:
365,54,36422,6,0,P|313:41|235:9,1,120,6|10,1:2|0:0,0:0:0:0:
209,60,37104,1,2,0:0:0:0:
209,60,37331,2,0,P|157:73|79:105,1,120,2|8,1:2|0:0,0:0:0:0:
22,192,38240,2,0,P|74:205|152:237,1,120,2|8,1:2|0:0,0:0:0:0:
193,261,38922,1,2,0:0:0:0:
193,261,39149,2,0,P|245:248|323:216,1,120,2|10,1:2|0:0,0:0:0:0:
374,124,40058,6,0,P|357:81|289:95,2,120,6|8|0,1:2|0:0|1:0,0:0:0:0:
353,248,41422,1,10,0:0:0:0:
353,248,41649,1,2,0:0:0:0:
353,248,41876,2,0,P|370:291|438:277,1,120,2|10,1:2|0:0,0:0:0:0:
491,177,42785,2,0,P|483:118|464:44,1,120,2|10,1:2|0:0,0:0:0:0:
352,26,43695,6,0,P|299:17|218:-7,1,120,6|8,1:2|0:0,0:0:0:0:
185,29,44376,1,2,0:0:0:0:
185,29,44604,2,0,P|176:81|151:162,1,120,2|8,1:2|0:0,0:0:0:0:
214,251,45513,2,0,P|267:260|348:284,1,120,2|8,1:2|0:0,0:0:0:0:
391,301,46195,1,2,0:0:0:0:
391,301,46422,2,0,P|400:249|425:168,1,120,2|8,1:2|1:2,0:0:0:0:
438,66,47331,6,0,B|392:60|392:60|385:67|385:67|297:79,3,120,6|2|2|2,1:2|0:3|0:3|0:3,0:0:0:0:
216,132,49149,2,0,B|174:120|174:120|146:20,1,120,2|2,0:0|0:0,0:0:0:0:
107,17,49831,1,2,0:0:0:0:
107,17,50058,2,0,P|66:38|57:72,1,60,2|0,3:2|3:0,0:0:0:0:
24,97,50513,2,0,P|65:118|74:152,1,60,2|0,3:2|3:0,0:0:0:0:
107,177,50967,6,0,B|140:167|140:167|160:197|160:197|146:259,1,120,6|10,1:2|0:0,0:0:0:0:
131,364,51876,1,2,1:2:0:0:
250,350,52331,2,0,B|283:360|283:360|303:330|303:330|292:281,1,120,10|2,0:0|1:2,0:0:0:0:
274,163,53240,2,0,P|323:185|346:178,1,60,10|2,0:0|0:3,0:0:0:0:
380,157,53695,2,0,L|371:92,2,60,2|2|10,1:2|0:3|0:0,0:0:0:0:
438,185,54376,1,2,0:0:0:0:
438,185,54604,6,0,B|412:194|417:267|451:298,1,120,2|10,1:2|0:0,0:0:0:0:
349,364,55513,2,0,B|354:348|354:348|230:372,1,120,2|10,1:2|0:0,0:0:0:0:
198,354,56195,1,2,0:3:0:0:
198,354,56422,2,0,B|169:282|169:282|189:221,1,120,2|10,1:2|0:0,0:0:0:0:
224,129,57331,2,0,P|188:114|179:88,1,60,2|2,1:2|0:1,0:0:0:0:
235,74,57785,2,0,P|261:123|236:191,1,120,10|6,0:2|1:2,0:0:0:0:
139,241,58695,6,0,P|95:238|73:230,2,60,10|2|2,0:0|0:3|1:2,0:0:0:0:
239,307,59604,2,0,P|283:310|305:318,2,60,10|2|2,0:0|0:3|1:2,0:0:0:0:
139,241,60513,2,0,P|95:238|73:230,1,60,10|2,0:0|0:3,0:0:0:0:
38,190,60967,2,0,P|45:161|45:131,1,60,2|2,1:2|0:3,0:0:0:0:
87,87,61422,2,0,P|131:90|153:98,1,60,10|2,0:0|0:3,0:0:0:0:
188,138,61876,5,2,1:2:0:0:
305,112,62331,2,0,P|309:61|317:28,1,60,10|2,0:0|0:3,0:0:0:0:
352,9,62785,1,2,1:2:0:0:
429,100,63240,2,0,P|425:151|417:184,1,60,10|2,0:0|0:3,0:0:0:0:
382,203,63695,1,2,1:2:0:0:
382,203,63922,2,0,P|400:244|469:304,1,120,2|2,0:3|0:3,0:0:0:0:
505,325,64604,2,0,B|487:354|487:354|383:376,1,120,2|10,1:2|0:0,0:0:0:0:
303,304,65513,6,0,B|270:294|270:294|250:324|250:324|264:386,1,120,6|10,1:2|0:0,0:0:0:0:
140,366,66422,1,2,1:2:0:0:
167,249,66876,2,0,B|200:239|200:239|220:269|220:269|206:331,1,120,10|2,0:0|1:2,0:0:0:0:
330,311,67785,2,0,P|379:333|402:326,1,60,10|2,0:0|0:3,0:0:0:0:
442,324,68240,2,0,L|451:389,2,60,2|2|10,1:2|0:3|0:0,0:0:0:0:
488,285,68922,1,2,0:3:0:0:
488,285,69149,6,0,B|514:276|509:203|475:172,1,120,2|10,1:2|0:0,0:0:0:0:
497,58,70058,2,0,P|446:42|381:-6,1,120,2|10,1:2|0:0,0:0:0:0:
336,28,70740,1,2,0:3:0:0:
336,28,70967,2,0,B|352:48|352:48|322:160,1,120,2|10,1:2|0:0,0:0:0:0:
220,194,71876,2,0,P|184:179|175:153,1,60,2|2,1:2|0:1,0:0:0:0:
195,104,72331,2,0,P|231:89|240:63,1,60,10|2,0:0|0:3,0:0:0:0:
220,14,72785,5,6,1:2:0:0:
102,36,73240,2,0,P|95:79|83:112,2,60,10|2|2,0:0|0:3|1:2,0:0:0:0:
187,119,74149,2,0,P|194:162|206:195,2,60,10|2|2,0:0|0:3|1:2,0:0:0:0:
102,202,75058,2,0,P|95:245|83:278,1,60,10|2,0:0|0:3,0:0:0:0:
137,297,75513,2,0,P|180:290|213:278,1,60,2|2,1:2|0:3,0:0:0:0:
246,252,75967,2,0,P|289:259|322:271,1,60,10|2,0:0|0:3,0:0:0:0:
355,297,76422,5,2,1:2:0:0:
465,251,76876,2,0,P|473:222|476:192,1,60,10|2,0:0|0:3,0:0:0:0:
471,132,77331,1,2,1:2:0:0:
376,57,77785,2,0,P|367:85|364:115,1,60,10|2,0:0|0:3,0:0:0:0:
370,176,78240,1,2,1:2:0:0:
370,176,78467,2,0,B|380:159|380:159|270:184,1,120,2|2,0:3|0:3,0:0:0:0:
231,213,79149,2,0,P|187:186|209:111,1,120,2|10,1:2|0:0,0:0:0:0:
277,39,80058,5,0,1:0:0:0:
277,39,80285,2,0,B|302:60|302:60|400:72,1,120,2|2,0:3|0:0,0:0:0:0:
458,168,81195,1,2,0:3:0:0:
458,168,81422,2,0,P|433:213|418:222,1,60,8|2,0:0|0:3,0:0:0:0:
376,244,81876,5,0,1:0:0:0:
376,244,82104,2,0,B|364:272|364:272|409:358,1,120,2|2,0:3|0:0,0:0:0:0:
490,266,83013,2,0,L|497:186,1,60,0|0,1:0|1:0,0:0:0:0:
480,148,83467,1,8,0:0:0:0:
373,202,83922,2,0,P|325:190|249:144,1,120,2|2,0:3|0:0,0:0:0:0:
164,98,84831,1,2,0:3:0:0:
164,98,85058,2,0,P|199:80|213:48,1,60,8|2,0:0|0:3,0:0:0:0:
240,13,85513,5,0,1:0:0:0:
240,13,85740,2,0,P|288:25|364:71,1,120,2|2,0:3|0:0,0:0:0:0:
466,32,86649,2,0,P|455:80|458:114,1,60,0|0,1:0|1:0,0:0:0:0:
472,148,87104,1,8,0:0:0:0:
387,232,87558,2,0,P|347:221|313:204,1,60,2|0,0:3|0:0,0:0:0:0:
274,235,88013,2,0,P|234:224|200:207,1,60,2|0,0:0|0:0,0:0:0:0:
167,246,88467,1,2,0:3:0:0:
167,246,88695,2,0,P|157:199|143:172,1,60,8|2,0:0|0:3,0:0:0:0:
125,141,89149,5,0,1:0:0:0:
125,141,89376,2,0,P|169:114|169:31,1,120,2|2,0:3|0:0,0:0:0:0:
62,22,90285,2,0,P|33:48|1:60,1,60,0|0,1:0|1:0,0:0:0:0:
2,115,90740,1,8,0:0:0:0:
96,189,91195,2,0,P|136:200|170:217,1,60,2|0,0:3|0:0,0:0:0:0:
209,186,91649,2,0,P|249:197|283:214,1,60,2|0,0:0|0:0,0:0:0:0:
309,253,92104,1,2,0:3:0:0:
309,253,92331,2,0,P|295:303|297:330,1,60,8|2,0:0|0:3,0:0:0:0:
335,362,92785,5,0,1:0:0:0:
335,362,93013,2,0,P|400:353|394:300,1,120,2|2,0:3|0:0,0:0:0:0:
426,255,93695,1,2,0:0:0:0:
481,148,94149,1,2,1:2:0:0:
377,87,94604,6,0,L|305:97,1,60,6|2,1:2|0:3,0:0:0:0:
268,129,95058,2,0,L|196:119,1,60,10|2,0:0|0:3,0:0:0:0:
159,87,95513,1,2,1:2:0:0:
261,25,95967,1,10,0:0:0:0:
351,103,96422,2,0,L|361:175,1,60,2|2,1:2|0:3,0:0:0:0:
393,212,96876,2,0,L|383:284,1,60,10|2,0:0|0:3,0:0:0:0:
351,321,97331,1,2,1:2:0:0:
463,363,97785,1,10,0:0:0:0:
507,251,98240,6,0,L|489:123,1,120,6|10,1:2|0:0,0:0:0:0:
376,93,99149,2,0,L|394:221,1,120,2|10,1:2|0:0,0:0:0:0:
303,291,100058,2,0,L|175:273,1,120,2|10,1:2|0:0,0:0:0:0:
145,160,100967,2,0,L|273:178,1,120,2|10,1:2|0:0,0:0:0:0:
326,165,101649,1,2,0:3:0:0:
326,165,101876,6,0,L|337:90,1,60,6|2,1:2|0:3,0:0:0:0:
378,64,102331,2,0,L|453:75,1,60,10|2,0:0|0:3,0:0:0:0:
479,116,102785,1,2,1:2:0:0:
413,216,103240,1,10,0:0:0:0:
309,154,103695,2,0,L|298:229,1,60,2|2,1:2|0:3,0:0:0:0:
257,255,104149,2,0,L|182:244,1,60,10|2,0:0|0:3,0:0:0:0:
156,203,104604,1,2,1:2:0:0:
222,103,105058,1,10,0:0:0:0:
118,41,105513,6,0,L|127:169,1,120,6|10,1:2|0:0,0:0:0:0:
32,235,106422,2,0,L|41:363,1,120,2|10,1:2|0:0,0:0:0:0:
158,376,107331,2,0,L|149:248,1,120,2|10,1:2|0:0,0:0:0:0:
244,182,108240,2,0,L|239:101,1,60,2|2,1:2|0:3,0:0:0:0:
262,66,108695,2,0,L|343:71,1,60,2|2,1:3|1:3,0:0:0:0:
377,91,109149,6,0,P|432:73|418:10,2,120,6|10|0,1:2|0:0|1:0,0:0:0:0:
289,171,110513,1,10,0:0:0:0:
289,171,110740,1,2,0:0:0:0:
289,171,110967,2,0,P|234:153|248:90,1,120,2|10,1:2|0:0,0:0:0:0:
253,44,111649,1,2,0:3:0:0:
253,44,111876,2,0,P|202:23|128:21,1,120,2|10,1:2|0:0,0:0:0:0:
18,2,112785,6,0,P|32:66|43:148,1,120,6|10,1:2|0:0,0:0:0:0:
97,152,113467,1,2,0:0:0:0:
97,152,113695,2,0,P|83:216|72:298,1,120,2|8,1:2|0:0,0:0:0:0:
180,327,114604,2,0,P|194:263|205:181,1,120,2|8,1:2|0:0,0:0:0:0:
196,153,115285,1,2,0:0:0:0:
196,153,115513,2,0,P|182:89|171:7,1,120,2|10,1:2|0:0,0:0:0:0:
290,6,116422,6,0,P|308:54|369:21,2,120,6|8|0,1:2|0:0|1:0,0:0:0:0:
225,109,117785,1,10,0:0:0:0:
225,109,118013,1,2,0:0:0:0:
225,109,118240,2,0,P|207:157|146:124,1,120,2|10,1:2|0:0,0:0:0:0:
40,95,119149,2,0,P|60:46|110:-4,1,120,2|10,1:2|0:0,0:0:0:0:
226,6,120058,6,0,L|217:135,1,120,6|8,1:2|0:0,0:0:0:0:
266,169,120740,1,2,0:0:0:0:
266,169,120967,2,0,L|275:298,1,120,2|8,1:2|0:0,0:0:0:0:
377,349,121876,2,0,L|386:220,1,120,2|8,1:2|0:0,0:0:0:0:
405,175,122558,1,2,0:0:0:0:
405,175,122785,2,0,L|396:46,1,120,2|8,1:2|1:2,0:0:0:0:
281,21,123695,6,0,B|235:27|235:27|228:20|228:20|140:8,3,120,6|2|2|2,1:2|0:3|0:3|0:3,0:0:0:0:
61,73,125513,2,0,P|53:119|121:117,1,120,2|2,0:0|0:0,0:0:0:0:
171,141,126195,1,2,0:0:0:0:
171,141,126422,2,0,P|164:193|155:215,1,60,2|2,0:0|0:0,0:0:0:0:
137,254,126876,1,2,0:0:0:0:
232,326,127331,6,0,P|277:311|313:310,1,60,2|2,0:0|0:3,0:0:0:0:
346,327,127785,1,2,0:0:0:0:
392,216,128240,2,0,P|437:231|473:232,2,60,2|2|2,3:2|3:3|3:2,0:0:0:0:
352,178,128922,1,2,3:3:0:0:
352,178,129149,6,0,P|452:131|415:16,1,240,6|2,0:0|0:0,0:0:0:0:
308,49,130513,2,0,P|271:44|238:29,1,60,2|2,0:0|0:0,0:0:0:0:
197,7,130967,1,2,0:0:0:0:
145,115,131422,2,0,P|116:125|87:128,1,60,2|0,0:0|0:0,0:0:0:0:
27,123,131876,2,0,P|50:174|63:250,2,120,2|2|2,0:0|0:0|0:0,0:0:0:0:
45,2,133240,6,0,P|74:5|102:15,1,60,2|0,0:0|0:0,0:0:0:0:
153,48,133695,1,2,0:0:0:0:
266,85,134149,2,0,P|295:81|323:71,1,60,2|0,0:0|0:0,0:0:0:0:
374,39,134604,1,2,0:0:0:0:
462,119,135058,2,0,P|458:148|448:176,1,60,2|2,0:0|0:0,0:0:0:0:
414,226,135513,2,0,P|354:233|354:169,2,120,2|2|2,0:0|0:0|0:0,0:0:0:0:
500,309,136876,6,0,P|479:354|454:361,1,60,2|2,0:0|0:0,0:0:0:0:
422,324,137331,2,0,P|401:279|376:272,2,60,2|0|2,0:0|0:0|0:0,0:0:0:0:
384,372,138013,1,2,0:0:0:0:
384,372,138240,1,2,0:0:0:0:
269,334,138695,2,0,P|226:347|199:361,1,60,2|0,0:0|0:0,0:0:0:0:
156,375,139149,2,0,P|118:343|138:268,2,120,2|2|2,0:0|0:0|0:0,0:0:0:0:
210,267,140513,6,0,L|200:184,1,60,2|0,0:0|0:0,0:0:0:0:
220,150,140967,1,2,0:0:0:0:
337,174,141422,2,0,L|347:91,1,60,2|2,0:0|0:0,0:0:0:0:
329,61,141876,1,2,0:0:0:0:
329,61,142104,2,0,P|288:52|211:10,1,120,2|2,0:3|0:3,0:0:0:0:
160,121,143013,2,0,P|119:130|42:172,1,120,2|2,0:3|0:3,0:0:0:0:
13,213,143695,6,0,B|46:203|46:203|66:233|66:233|52:295,1,120,6|10,1:2|0:0,0:0:0:0:
155,347,144604,1,2,1:2:0:0:
216,244,145058,2,0,B|249:254|249:254|269:224|269:224|255:162,1,120,10|2,0:0|1:2,0:0:0:0:
358,110,145967,2,0,P|407:132|430:125,1,60,10|2,0:0|0:3,0:0:0:0:
464,104,146422,2,0,L|470:31,2,60,2|2|10,1:2|0:3|0:0,0:0:0:0:
492,162,147104,1,2,0:0:0:0:
492,162,147331,6,0,B|504:186|448:234|402:232,1,120,2|10,1:2|0:0,0:0:0:0:
300,182,148240,2,0,P|255:168|165:158,1,120,2|10,1:2|0:0,0:0:0:0:
127,170,148922,1,2,0:3:0:0:
127,170,149149,2,0,P|112:127|99:98,2,60,2|2|10,1:2|0:0|0:0,0:0:0:0:
72,277,150058,2,0,P|34:258|33:229,1,60,2|2,1:2|0:1,0:0:0:0:
45,185,150513,2,0,P|56:121|60:48,1,120,10|6,0:0|1:2,0:0:0:0:
166,10,151422,6,0,P|210:7|232:-1,2,60,10|2|2,0:0|0:3|1:2,0:0:0:0:
86,100,152331,2,0,P|42:103|20:111,2,60,10|2|2,0:0|0:3|1:2,0:0:0:0:
195,149,153240,2,0,P|239:146|261:138,1,60,10|2,0:0|0:3,0:0:0:0:
296,98,153695,2,0,P|289:69|289:39,1,60,2|2,1:2|0:3,0:0:0:0:
247,0,154149,2,0,P|203:3|181:11,1,60,10|2,0:0|0:3,0:0:0:0:
146,46,154604,5,2,1:2:0:0:
224,136,155058,2,0,P|220:187|212:220,1,60,10|2,0:0|0:3,0:0:0:0:
177,239,155513,1,2,1:2:0:0:
261,324,155967,2,0,P|265:273|273:240,1,60,10|2,0:0|0:3,0:0:0:0:
308,221,156422,1,2,1:2:0:0:
308,221,156649,2,0,P|383:212|441:194,1,120,2|2,0:3|0:3,0:0:0:0:
480,175,157331,1,2,1:2:0:0:
418,71,157785,2,0,P|383:64|351:50,1,60,10|8,0:0|0:0,0:0:0:0:
306,29,158240,6,0,B|273:19|273:19|253:49|253:49|267:111,1,120,6|10,1:2|0:0,0:0:0:0:
287,214,159149,1,2,1:2:0:0:
189,284,159604,2,0,B|156:294|156:294|136:264|136:264|150:202,1,120,10|2,0:0|1:2,0:0:0:0:
170,99,160513,1,10,0:0:0:0:
72,29,160967,2,0,B|39:19|39:19|19:49|19:49|33:111,1,120,2|10,1:2|0:0,0:0:0:0:
53,214,161876,6,0,P|111:204|180:183,1,120,2|10,1:2|0:0,0:0:0:0:
231,207,162558,1,2,0:3:0:0:
231,207,162785,2,0,P|268:166|244:91,1,120,2|10,1:2|0:0,0:0:0:0:
219,67,163467,1,2,0:3:0:0:
219,67,163695,1,2,1:2:0:0:
338,32,164149,1,10,0:0:0:0:
338,32,164376,1,2,0:3:0:0:
338,32,164604,2,0,B|377:42|377:42|392:89|425:136,1,120,2|10,1:2|0:0,0:0:0:0:
501,192,165513,6,0,P|495:249|430:227,1,120,6|8,1:2|0:0,0:0:0:0:
399,214,166195,1,2,0:3:0:0:
399,214,166422,2,0,B|360:228|360:228|338:278|389:306,1,120,2|8,1:2|0:0,0:0:0:0:
277,366,167331,2,0,P|271:309|206:331,1,120,6|8,1:2|0:0,0:0:0:0:
172,347,168013,1,2,0:3:0:0:
172,347,168240,2,0,B|133:333|133:333|111:283|162:255,2,120,2|8|6,1:2|0:0|1:2,0:0:0:0:
223,377,169376,5,2,0:0:0:0:
332,327,169831,1,2,0:0:0:0:
340,211,170285,1,2,0:0:0:0:
340,211,170513,2,0,P|352:175|353:136,1,60,10|2,0:0|0:0,0:0:0:0:
339,95,170967,2,0,P|281:77|222:68,1,120,6|8,1:2|0:0,0:0:0:0:
166,73,171649,1,2,0:0:0:0:
166,73,171876,1,0,1:0:0:0:
60,16,172331,2,0,P|55:55|43:86,1,60,10|10,0:0|0:0,0:0:0:0:
33,135,172785,5,6,1:2:0:0:
33,135,173013,2,0,B|14:165|14:165|55:214|64:249,1,120,2|2,0:0|0:3,0:0:0:0:
179,247,173922,2,0,B|198:277|198:277|157:326|148:361,1,120,2|2,0:0|0:3,0:0:0:0:
101,376,174604,1,2,1:2:0:0:
101,376,174831,2,0,P|50:355|76:297,1,120,2|2,0:0|0:3,0:0:0:0:
85,245,175513,1,2,1:2:0:0:
203,262,175967,1,10,0:0:0:0:
250,151,176422,5,2,1:2:0:0:
349,217,176876,2,0,P|336:272|333:298,2,60,10|2|2,0:0|0:0|1:2,0:0:0:0:
414,116,177785,2,0,P|406:87|400:57,2,60,10|2|2,0:0|0:0|1:2,0:0:0:0:
479,217,178695,2,0,P|471:245|465:275,2,60,10|2|2,0:0|0:0|1:2,0:0:0:0:
391,134,179604,2,0,P|355:141|313:157,1,60,10|2,0:0|0:0,0:0:0:0:
284,184,180058,6,0,P|223:170|241:113,1,120,6|10,1:2|0:0,0:0:0:0:
253,71,180740,1,2,0:0:0:0:
253,71,180967,2,0,P|199:62|125:42,1,120,2|10,1:2|0:0,0:0:0:0:
94,88,181649,1,2,0:0:0:0:
94,88,181876,2,0,P|148:97|222:117,1,120,6|10,1:2|0:0,0:0:0:0:
253,163,182558,1,2,0:0:0:0:
253,163,182785,1,2,1:2:0:0:
369,132,183240,2,0,P|384:96|384:48,1,60,10|2,0:0|0:0,0:0:0:0:
387,15,183695,6,0,P|454:16|457:69,1,120,6|8,1:2|0:0,0:0:0:0:
486,117,184376,1,2,0:0:0:0:
486,117,184604,2,0,P|419:118|416:171,1,120,6|8,1:2|0:0,0:0:0:0:
338,255,185513,2,0,P|271:254|268:201,1,120,6|8,1:2|0:0,0:0:0:0:
283,158,186195,1,2,0:0:0:0:
283,158,186422,2,0,P|237:154|142:138,1,120,2|10,1:2|0:0,0:0:0:0:
59,84,187331,6,0,P|45:159|31:214,1,120,6|2,1:2|1:2,0:0:0:0:
58,261,188013,1,2,0:0:0:0:
58,261,188240,2,0,B|97:270|97:270|111:329|138:356,1,120,2|2,1:2|1:2,0:0:0:0:
242,376,189149,2,0,P|282:359|269:286,1,120,2|2,1:2|1:2,0:0:0:0:
240,250,189831,1,2,0:0:0:0:
240,250,190058,2,0,P|214:211|218:181,1,60,2|0,1:2|0:0,0:0:0:0:
250,151,190513,2,0,P|276:112|272:82,1,60,2|2,1:2|0:0,0:0:0:0:
240,52,190967,6,0,P|169:34|177:-7,2,120,2|2|2,1:2|1:2|1:2,0:0:0:0:
358,33,192331,1,2,1:1:0:0:
429,128,192785,2,0,P|435:180|457:259,1,120,2|2,1:1|1:2,0:0:0:0:
477,300,193467,1,2,0:0:0:0:
363,338,193922,1,2,0:0:0:0:
294,245,194376,1,2,0:3:0:0:
294,245,194604,6,0,B|304:225|304:225|189:254,1,120,2|2,1:2|1:2,0:0:0:0:
165,288,195285,1,0,0:0:0:0:
165,288,195513,2,0,B|120:277|120:277|101:244|101:244|126:190,1,120,2|2,1:2|1:2,0:0:0:0:
180,110,196422,2,0,P|237:92|296:81,1,120,2|2,1:2|1:2,0:0:0:0:
359,94,197104,1,2,0:0:0:0:
359,94,197331,2,0,P|345:138|324:166,1,60,2|0,1:2|0:0,0:0:0:0:
375,195,197785,2,0,P|389:239|410:267,1,60,2|2,1:2|0:0,0:0:0:0:
359,296,198240,6,0,B|318:304|318:304|302:341|302:341|237:353,2,120,2|2|2,1:2|1:2|1:2,0:0:0:0:
455,367,199604,1,2,1:1:0:0:
503,255,200058,2,0,P|494:196|479:138,1,120,2|2,1:1|1:2,0:0:0:0:
455,83,200740,1,2,0:0:0:0:
346,134,201195,1,2,0:0:0:0:
272,39,201649,1,2,0:3:0:0:
272,39,201876,6,2,B|359:107|304:296|152:319,1,360.000013732911,2|0,1:2|0:0,0:0:0:0:
