osu file format v14

[General]
AudioFilename: audio.mp3
AudioLeadIn: 0
PreviewTime: 129149
Countdown: 0
SampleSet: Soft
StackLeniency: 0.3
Mode: 0
LetterboxInBreaks: 0
EpilepsyWarning: 1
WidescreenStoryboard: 0

[Editor]
Bookmarks: 3695,10967,18240,25513,32785,40058,47331,50967,64604,65513,80058,87331,94604,101876,109149,116422,123695,129149,136422,143695,157331,158240,171876,172785,187331,194604,201876,203695
DistanceSpacing: 1.3
BeatDivisor: 4
GridSize: 32
TimelineZoom: 1.9

[Metadata]
Title:Shinitai-chan
TitleUnicode:シニタイちゃん
Artist:Switch
ArtistUnicode:すいっち
Creator:eiri-
Version:Insane
Source:
Tags:Ayyri Miss Wanna-Die Wanna Die IA Aria On The Planetes Planets Shinitaichan Shinitai chan Vocaloid Japanese Electronic
BeatmapID:3408429
BeatmapSetID:1669009

[Difficulty]
HPDrainRate:5
CircleSize:4.5
OverallDifficulty:8
ApproachRate:9
SliderMultiplier:1.8
SliderTickRate:1

[Events]
//Background and Video events
0,0,"Shinitai.jpg",0,0
Video,0,"Shinitai.avi"
//Break Periods
//Storyboard Layer 0 (Background)
//Storyboard Layer 1 (Fail)
//Storyboard Layer 2 (Pass)
//Storyboard Layer 3 (Foreground)
//Storyboard Layer 4 (Overlay)
//Storyboard Sound Samples

[TimingPoints]
3695,454.545454545455,4,2,1,60,1,0
3695,-133.333333333333,4,2,1,60,0,0
18240,-100,4,2,1,70,0,0
32785,-100,4,2,1,80,0,0
47331,-100,4,2,1,60,0,0
49149,-100,4,2,1,70,0,0
50058,-100,4,2,1,80,0,0
50967,-100,4,2,1,90,0,1
64604,-100,4,2,1,90,0,0
65513,-100,4,2,1,90,0,1
80058,-133.333333333333,4,2,1,70,0,0
94604,-100,4,2,1,75,0,0
109149,-100,4,2,1,80,0,0
123695,-100,4,2,1,60,0,0
125513,-100,4,2,1,70,0,0
127331,-100,4,2,1,80,0,0
128240,-100,4,2,1,85,0,0
129149,-133.333333333333,4,2,1,60,0,0
143695,-100,4,2,1,90,0,1
157331,-100,4,2,1,90,0,0
158240,-100,4,2,1,90,0,1
171876,-100,4,2,1,90,0,0
172785,-100,4,2,1,90,0,1
187331,-133.333333333333,4,2,1,60,0,0
201876,-400,4,2,1,60,0,0
202331,-400,4,2,1,40,0,0
202785,-400,4,2,1,20,0,0
203240,-400,4,2,1,10,0,0
203695,-400,4,2,1,5,0,0

[Colours]
Combo1 : 205,20,20
Combo2 : 225,183,183
Combo3 : 185,87,87
Combo4 : 247,170,170

[HitObjects]
32,96,3695,6,0,P|99:90|166:86,1,135,2|2,0:0|0:0,0:0:0:0:
254,46,4376,1,2,0:0:0:0:
108,157,4604,2,0,P|103:114|97:15,1,135.000005149842,2|2,0:0|0:0,0:0:0:0:
128,174,5285,1,0,0:0:0:0:
123,14,5513,6,0,P|183:25|262:30,1,135.000005149842,2|2,0:0|0:0,0:0:0:0:
197,98,6195,1,0,0:0:0:0:
161,2,6422,1,2,0:0:0:0:
135,67,6649,1,2,0:0:0:0:
328,79,6876,1,2,0:0:0:0:
331,87,7104,1,2,0:0:0:0:
255,146,7331,6,0,P|245:112|239:57,3,67.5000025749208,2|0|2|2,0:0|0:0|0:0|0:0,0:0:0:0:
314,189,8240,1,2,0:0:0:0:
340,54,8467,2,0,P|367:48|389:32,1,33.7500012874604,2|0,0:1|0:0,0:0:0:0:
431,116,8695,2,0,P|458:122|480:138,1,33.7500012874604,2|0,0:1|0:0,0:0:0:0:
475,8,8922,2,0,P|502:2|524:-14,1,33.7500012874604,2|0,0:1|0:0,0:0:0:0:
512,192,9149,6,0,P|486:206|362:218,1,135.000005149842,2|0,0:1|0:0,0:0:0:0:
220,181,9831,2,0,P|227:154|226:88,1,67.5000025749208,2|0,0:0|0:0,0:0:0:0:
330,271,10285,2,0,P|337:303|339:337,1,67.5000025749208,2|0,0:0|0:0,0:0:0:0:
271,203,10740,1,2,0:3:0:0:
271,203,10854,1,2,0:3:0:0:
271,203,10967,6,0,P|248:139|229:49,1,135.000005149842,2|2,0:0|0:0,0:0:0:0:
299,30,11649,1,2,0:0:0:0:
179,133,11876,2,0,P|278:144|334:152,1,135.000005149842,2|0,0:0|0:0,0:0:0:0:
134,188,12558,1,0,0:0:0:0:
375,211,12785,6,0,P|386:165|391:64,1,135.000005149842,2|2,0:0|0:0,0:0:0:0:
358,140,13467,1,0,0:0:0:0:
327,0,13695,1,2,0:0:0:0:
301,65,13922,1,2,0:0:0:0:
487,41,14149,1,2,0:0:0:0:
490,49,14376,1,2,0:0:0:0:
392,187,14604,6,0,P|385:144|383:112,3,67.5000025749208,2|0|2|2,0:0|0:0|0:0|0:0,0:0:0:0:
457,224,15513,1,2,0:0:0:0:
485,51,15740,2,0,P|458:45|436:29,1,33.7500012874604,2|0,0:1|0:0,0:0:0:0:
408,156,15967,2,0,P|381:162|359:178,1,33.7500012874604,2|0,0:1|0:0,0:0:0:0:
326,19,16195,2,0,P|299:13|277:-3,1,33.7500012874604,2|0,0:1|0:0,0:0:0:0:
278,204,16422,6,0,P|266:129|241:47,1,135.000005149842,2|0,0:1|0:0,0:0:0:0:
246,236,17104,2,0,P|201:254|156:259,1,67.5000025749208,2|0,0:0|0:0,0:0:0:0:
316,346,17558,2,0,P|361:364|406:369,1,67.5000025749208,2|0,0:0|0:0,0:0:0:0:
512,237,18013,1,2,0:3:0:0:
512,237,18126,1,2,0:3:0:0:
512,237,18240,6,0,P|496:185|479:40,1,180,2|10,1:2|0:0,0:0:0:0:
331,4,18922,2,0,P|381:6|437:12,1,90,0|2,1:0|0:0,0:0:0:0:
320,160,19604,2,0,P|275:164|230:165,1,90,2|2,0:0|0:0,0:0:0:0:
90,95,20058,5,2,0:3:0:0:
111,158,20172,1,2,0:3:0:0:
88,137,20285,2,0,P|75:100|72:49,1,90,2|8,1:2|0:0,0:0:0:0:
88,137,20740,1,2,1:2:0:0:
208,56,20967,2,0,P|252:57|297:61,1,90,2|0,0:0|0:0,0:0:0:0:
354,106,21308,1,2,0:3:0:0:
364,116,21422,2,0,P|388:92|379:72,1,45,0|0,1:0|1:0,0:0:0:0:
352,20,21649,1,2,0:0:0:0:
352,20,21876,6,0,P|347:79|353:228,1,180,2|8,1:2|0:0,0:0:0:0:
250,275,22558,2,0,P|314:303|366:297,1,90,2|2,1:2|0:0,0:0:0:0:
495,276,23013,1,2,0:1:0:0:
495,276,23126,1,2,0:1:0:0:
495,276,23240,2,0,P|486:245|488:214,1,45,2|0,0:1|0:0,0:0:0:0:
393,200,23467,2,0,P|402:169|400:138,1,45,2|2,0:1|0:3,0:0:0:0:
495,124,23695,5,2,1:2:0:0:
495,124,23922,1,0,1:0:0:0:
306,83,24149,1,8,0:0:0:0:
464,49,24376,1,2,1:2:0:0:
464,49,24490,1,2,0:0:0:0:
464,49,24604,2,0,P|411:37|349:32,1,90,2|0,0:0|1:0,0:0:0:0:
415,131,24945,1,0,1:0:0:0:
415,131,25058,2,0,P|430:195|432:245,1,90,10|2,0:0|0:0,0:0:0:0:
306,279,25513,6,0,B|219:285|259:136|143:184,1,180,2|8,1:2|0:0,0:0:0:0:
232,354,26195,2,0,P|226:281|228:235,1,90,2|2,1:2|0:0,0:0:0:0:
323,83,26876,2,0,P|329:156|327:202,1,90,2|2,0:0|0:0,0:0:0:0:
171,224,27331,5,2,1:2:0:0:
363,261,27558,1,0,1:0:0:0:
120,315,27785,1,10,0:0:0:0:
265,241,28013,1,2,1:2:0:0:
209,362,28240,2,0,B|186:351|197:193,1,135,2|2,0:0|0:3,0:0:0:0:
220,158,28695,1,0,1:0:0:0:
233,123,28808,1,0,1:0:0:0:
184,68,28922,6,0,P|112:54|68:37,1,90,2|0,0:0|1:0,0:0:0:0:
130,136,29376,1,2,0:3:0:0:
339,48,29604,1,8,0:0:0:0:
291,122,29831,1,2,1:2:0:0:
251,2,30058,2,0,P|323:11|352:43,1,90,2|2,0:0|0:1,0:0:0:0:
216,132,30513,2,0,P|232:184|240:233,1,90,2|2,0:1|0:1,0:0:0:0:
240,319,30854,1,0,1:0:0:0:
240,319,30967,6,0,B|209:319|208:301|144:298,1,90,2|2,1:2|3:0,0:0:0:0:
354,343,31422,2,0,B|385:343|386:325|450:322,1,90,10|0,0:0|1:0,0:0:0:0:
307,251,31876,2,0,B|276:251|275:233|211:230,1,90,2|0,0:0|1:0,0:0:0:0:
322,328,32217,1,0,1:0:0:0:
322,328,32331,2,0,B|353:328|354:310|418:307,2,90,10|8|6,0:0|0:0|1:2,0:0:0:0:
164,321,33013,5,2,0:0:0:0:
314,376,33240,1,8,0:0:0:0:
237,231,33467,2,0,P|257:164|259:123,1,90,2|0,0:0|1:0,0:0:0:0:
431,237,33922,1,2,0:0:0:0:
334,60,34149,2,0,P|340:104|355:146,1,90,10|2,0:0|0:3,0:0:0:0:
496,109,34490,1,0,1:0:0:0:
496,109,34604,6,0,P|438:91|376:92,2,90,2|2|8,1:2|0:0|0:0,0:0:0:0:
330,170,35285,1,2,0:0:0:0:
411,223,35513,2,0,P|455:218|497:202,1,90,2|0,1:2|0:0,0:0:0:0:
449,195,35854,1,2,0:3:0:0:
384,236,35967,2,0,P|400:290|446:346,1,90,10|2,0:0|0:3,0:0:0:0:
293,379,36422,6,0,P|311:314|303:247,1,135,6|0,1:2|0:0,0:0:0:0:
257,186,36876,2,0,P|204:178|161:163,1,90,10|2,0:0|0:0,0:0:0:0:
45,320,37331,2,0,P|144:304|221:256,1,180,2|8,1:2|0:0,0:0:0:0:
0,225,38013,1,2,0:3:0:0:
0,225,38126,1,2,0:3:0:0:
0,225,38240,6,0,P|10:169|7:120,1,90,2|2,1:2|0:0,0:0:0:0:
81,24,38695,2,0,P|81:68|90:112,1,90,8|2,0:0|0:0,0:0:0:0:
245,148,39149,1,2,1:2:0:0:
245,148,39263,2,0,P|223:202|197:241,1,90,2|2,0:3|0:3,0:0:0:0:
175,260,39604,1,10,0:0:0:0:
357,312,39831,1,2,0:3:0:0:
357,312,39945,1,2,0:3:0:0:
357,312,40058,6,0,P|350:234|354:187,2,90,6|2|8,1:2|0:0|0:0,0:0:0:0:
250,379,40740,2,0,P|364:348|466:362,1,180,2|2,0:0|0:0,0:0:0:0:
264,332,41422,1,10,0:0:0:0:
350,382,41649,1,2,0:0:0:0:
489,232,41876,6,0,B|395:184|413:312|324:305,2,180,2|10|2,1:2|0:0|1:2,0:0:0:0:
509,365,43013,1,2,0:3:0:0:
509,365,43126,1,2,0:3:0:0:
509,365,43240,2,0,P|463:333|471:298,1,90,10|2,0:0|0:3,0:0:0:0:
496,116,43695,6,0,P|441:104|387:80,1,90,6|2,1:2|0:0,0:0:0:0:
225,159,44149,1,8,0:0:0:0:
289,233,44376,1,2,0:0:0:0:
329,66,44604,2,0,P|274:78|220:102,1,90,2|2,1:2|0:0,0:0:0:0:
39,74,45058,1,8,0:0:0:0:
103,0,45285,1,2,0:0:0:0:
143,167,45513,6,0,P|88:155|34:131,1,90,2|2,1:2|0:0,0:0:0:0:
264,132,45967,1,8,0:0:0:0:
200,206,46195,1,2,0:0:0:0:
160,39,46422,2,0,P|215:51|269:75,1,90,2|0,1:2|1:0,0:0:0:0:
298,262,46876,1,8,1:2:0:0:
298,262,46990,2,0,P|304:200|318:141,1,90,0|0,1:0|1:0,0:0:0:0:
350,111,47331,6,0,P|400:109|405:49,6,90,6|0|2|0|2|0|2,1:2|3:0|0:3|3:0|0:3|3:0|0:3,0:0:0:0:
288,68,48922,1,2,0:3:0:0:
408,0,49149,6,0,P|456:12|491:51,1,90,2|0,0:0|0:0,0:0:0:0:
377,122,49604,1,2,0:0:0:0:
482,146,49831,1,2,0:0:0:0:
408,0,50058,2,0,P|441:33|453:81,1,90,2|0,3:2|3:0,0:0:0:0:
349,136,50399,1,0,3:0:0:0:
349,136,50513,2,0,P|315:165|272:175,1,90,2|0,3:2|3:0,0:0:0:0:
23,65,50967,6,0,B|99:70|98:-19|203:-5,1,180,6|10,1:2|0:0,0:0:0:0:
273,123,51649,1,2,0:3:0:0:
273,123,51763,1,2,0:3:0:0:
273,123,51876,2,0,P|278:62|285:18,1,90,2|2,1:2|0:3,0:0:0:0:
452,12,52331,1,10,0:0:0:0:
362,181,52558,1,2,0:3:0:0:
362,181,52672,1,2,0:3:0:0:
362,181,52785,6,0,P|415:149|403:106,1,90,2|2,1:2|0:3,0:0:0:0:
194,205,53240,2,0,P|141:175|93:162,1,90,10|2,0:0|0:3,0:0:0:0:
210,350,53695,1,2,1:2:0:0:
249,266,53922,1,2,0:3:0:0:
38,344,54149,1,10,0:0:0:0:
194,322,54376,1,2,0:0:0:0:
12,253,54604,6,0,P|45:205|25:154,1,90,2|2,1:2|0:3,0:0:0:0:
2,112,54945,1,2,0:2:0:0:
2,112,55058,2,0,P|30:76|92:99,1,90,10|2,0:0|0:3,0:0:0:0:
157,208,55399,1,2,0:3:0:0:
149,219,55513,2,0,P|105:219|79:184,1,90,2|2,1:2|0:3,0:0:0:0:
305,144,55967,1,10,0:0:0:0:
227,258,56195,1,2,0:3:0:0:
227,258,56308,1,2,0:3:0:0:
227,258,56422,6,0,P|235:188|230:142,1,90,2|2,1:2|0:3,0:0:0:0:
212,73,56763,1,2,0:3:0:0:
208,63,56876,2,0,P|166:45|111:37,1,90,10|2,0:0|0:3,0:0:0:0:
16,161,57217,1,2,0:3:0:0:
24,164,57331,2,0,P|55:211|61:264,1,90,2|2,1:2|0:1,0:0:0:0:
179,307,57672,1,2,0:1:0:0:
232,259,57785,2,0,B|265:273|265:273|247:348,1,90,10|2,0:2|0:3,0:0:0:0:
165,299,58126,1,2,0:3:0:0:
165,299,58240,6,0,B|66:272|103:382|-15:369,1,180,6|10,1:2|0:0,0:0:0:0:
83,265,58922,1,2,0:3:0:0:
262,341,59149,2,0,P|215:385|171:370,1,90,2|2,1:2|0:3,0:0:0:0:
143,218,59604,1,10,0:0:0:0:
330,268,59831,1,2,0:3:0:0:
330,268,59945,1,2,0:3:0:0:
330,268,60058,6,0,P|343:195|360:153,1,90,2|2,1:2|0:3,0:0:0:0:
273,16,60513,2,0,P|285:59|291:103,1,90,10|2,0:0|0:3,0:0:0:0:
148,161,60854,1,2,0:3:0:0:
148,161,60967,2,0,P|170:103|201:107,1,90,2|2,1:2|0:3,0:0:0:0:
238,289,61422,1,10,0:0:0:0:
116,254,61649,1,2,0:3:0:0:
116,254,61763,1,2,0:3:0:0:
116,254,61876,6,0,P|181:261|225:270,1,90,2|2,1:2|0:3,0:0:0:0:
386,206,62331,2,0,P|370:267|364:317,1,90,10|2,0:0|0:3,0:0:0:0:
252,340,62672,1,2,0:3:0:0:
252,340,62785,2,0,P|244:295|232:252,1,90,2|2,1:2|0:3,0:0:0:0:
412,188,63240,2,0,P|396:249|390:299,1,90,10|2,0:0|0:3,0:0:0:0:
224,323,63581,1,2,0:3:0:0:
224,323,63695,6,0,P|217:279|205:236,1,90,2|2,1:2|0:3,0:0:0:0:
204,235,64035,1,2,0:3:0:0:
143,172,64149,2,0,P|150:128|162:85,1,90,10|2,0:0|0:3,0:0:0:0:
237,18,64490,1,2,0:3:0:0:
237,18,64604,2,0,P|285:43|336:22,1,90,2|2,1:2|0:3,0:0:0:0:
386,0,64945,1,2,0:3:0:0:
386,0,65058,2,0,P|394:30|391:75,1,45,10|2,0:0|0:3,0:0:0:0:
501,122,65285,2,0,P|509:92|506:47,1,45,8|8,0:0|0:0,0:0:0:0:
292,217,65513,6,0,B|216:222|217:133|112:147,1,180,6|10,1:2|0:0,0:0:0:0:
0,281,66195,1,2,0:3:0:0:
0,281,66308,1,2,0:3:0:0:
0,281,66422,2,0,P|26:230|2:174,1,90,2|2,1:2|0:3,0:0:0:0:
205,233,66876,1,10,0:0:0:0:
70,365,67104,1,2,0:3:0:0:
70,365,67217,1,2,0:3:0:0:
70,365,67331,6,0,P|44:314|68:258,1,90,2|2,1:2|0:3,0:0:0:0:
256,320,67785,1,10,0:0:0:0:
77,377,68013,1,2,0:3:0:0:
205,233,68240,1,2,1:2:0:0:
236,357,68467,1,2,0:3:0:0:
11,306,68695,1,10,0:0:0:0:
149,289,68922,1,2,0:3:0:0:
149,289,69035,1,2,0:3:0:0:
149,289,69149,6,0,P|157:236|152:173,1,90,2|2,1:2|0:3,0:0:0:0:
83,137,69490,1,2,0:2:0:0:
83,137,69604,2,0,P|75:84|80:21,1,90,10|2,0:0|0:3,0:0:0:0:
228,11,69945,1,2,0:3:0:0:
261,0,70058,2,0,P|242:35|180:2,1,90,2|2,1:2|0:3,0:0:0:0:
102,59,70513,1,10,0:0:0:0:
230,163,70740,1,2,0:3:0:0:
230,163,70854,1,2,0:3:0:0:
230,163,70967,6,0,P|192:178|104:193,1,90,2|2,1:2|0:3,0:0:0:0:
0,265,71308,1,2,0:3:0:0:
5,274,71422,2,0,P|43:289|131:304,1,90,10|2,0:0|0:3,0:0:0:0:
19,120,71763,1,2,0:3:0:0:
17,111,71876,2,0,P|35:46|57:11,1,90,2|2,1:2|0:1,0:0:0:0:
238,140,72217,1,2,0:3:0:0:
189,189,72331,2,0,B|161:155|161:155|187:84,1,90,10|2,0:0|0:3,0:0:0:0:
353,61,72672,1,2,0:3:0:0:
353,61,72785,6,0,B|454:29|397:199|526:124,1,180,6|10,1:2|0:0,0:0:0:0:
512,0,73467,1,2,0:3:0:0:
512,0,73581,1,2,0:3:0:0:
512,0,73695,2,0,P|468:12|416:29,1,90,2|2,1:2|0:3,0:0:0:0:
231,4,74149,1,10,0:0:0:0:
346,184,74376,1,2,0:3:0:0:
346,184,74490,1,2,0:3:0:0:
346,184,74604,6,0,P|359:111|376:69,1,90,2|2,1:2|0:3,0:0:0:0:
220,172,75058,2,0,P|232:215|238:259,1,90,10|2,0:0|0:3,0:0:0:0:
398,311,75399,1,2,0:3:0:0:
398,311,75513,2,0,P|356:360|331:342,1,90,2|2,1:2|0:3,0:0:0:0:
183,384,75967,1,10,0:0:0:0:
348,231,76195,1,2,0:3:0:0:
348,231,76308,1,2,0:3:0:0:
348,231,76422,6,0,P|412:220|456:209,1,90,2|2,1:2|0:3,0:0:0:0:
258,80,76876,2,0,P|242:141|236:191,1,90,10|2,0:0|0:3,0:0:0:0:
124,214,77217,1,2,0:3:0:0:
124,214,77331,2,0,P|116:169|104:126,1,90,2|2,1:2|0:3,0:0:0:0:
284,62,77785,2,0,P|268:123|262:173,1,90,10|2,0:0|0:3,0:0:0:0:
96,197,78126,1,2,0:3:0:0:
96,197,78240,6,0,P|89:153|77:110,1,90,2|2,1:2|0:3,0:0:0:0:
193,174,78695,2,0,P|186:130|173:87,1,90,10|2,0:0|0:3,0:0:0:0:
19,38,79035,1,2,0:3:0:0:
19,38,79149,2,0,P|79:18|115:-6,1,90,2|2,1:2|0:3,0:0:0:0:
257,12,79490,1,2,0:3:0:0:
257,12,79604,2,0,P|236:43|215:36,1,45,10|2,0:0|0:3,0:0:0:0:
99,118,79831,2,0,P|120:149|141:142,1,45,8|8,0:0|0:0,0:0:0:0:
325,188,80058,5,0,1:0:0:0:
325,188,80285,2,0,P|334:130|333:100,1,67.5000025749208,2|0,0:3|0:0,0:0:0:0:
390,226,80740,2,0,P|392:259|399:292,1,67.5000025749208,2|0,0:0|0:0,0:0:0:0:
256,352,81195,1,2,0:3:0:0:
352,384,81422,1,8,0:0:0:0:
325,188,81649,1,2,0:3:0:0:
325,188,81763,1,2,0:3:0:0:
325,188,81876,5,0,1:0:0:0:
325,188,82104,2,0,P|267:179|237:180,1,67.5000025749208,2|0,0:3|0:0,0:0:0:0:
363,123,82558,2,0,P|396:121|429:114,1,67.5000025749208,2|0,0:0|0:0,0:0:0:0:
480,256,83013,1,0,1:0:0:0:
480,256,83126,1,0,1:0:0:0:
480,256,83240,1,0,1:0:0:0:
507,130,83467,1,8,0:0:0:0:
507,130,83581,1,8,0:0:0:0:
507,130,83695,5,0,1:0:0:0:
325,188,83922,2,0,P|316:246|317:276,1,67.5000025749208,2|0,0:3|0:0,0:0:0:0:
260,150,84376,2,0,P|258:117|251:84,1,67.5000025749208,2|0,0:0|0:0,0:0:0:0:
405,45,84831,1,2,0:3:0:0:
274,16,85058,1,8,0:0:0:0:
325,188,85285,1,2,0:3:0:0:
325,188,85399,1,2,0:3:0:0:
325,188,85513,5,0,1:0:0:0:
325,188,85740,2,0,P|383:197|413:196,1,67.5000025749208,2|0,0:3|0:0,0:0:0:0:
287,253,86195,2,0,P|254:255|221:262,1,67.5000025749208,2|0,0:0|0:0,0:0:0:0:
170,120,86649,1,0,1:0:0:0:
170,120,86763,1,0,1:0:0:0:
170,120,86876,1,0,1:0:0:0:
143,246,87104,1,8,0:0:0:0:
143,246,87217,1,8,0:0:0:0:
143,246,87331,5,0,1:0:0:0:
325,188,87558,2,0,P|334:130|333:100,1,67.5000025749208,2|0,0:3|0:0,0:0:0:0:
407,236,88013,2,0,P|416:178|415:148,1,67.5000025749208,2|0,0:0|0:0,0:0:0:0:
245,241,88467,1,2,0:3:0:0:
325,188,88695,1,8,0:0:0:0:
128,160,88922,1,2,0:3:0:0:
128,160,89035,1,2,0:3:0:0:
128,160,89149,5,0,1:0:0:0:
308,100,89376,2,0,P|317:42|316:12,1,67.5000025749208,2|0,0:3|0:0,0:0:0:0:
239,148,89831,2,0,P|232:114|229:81,1,67.5000025749208,2|0,0:0|0:0,0:0:0:0:
416,128,90285,1,0,1:0:0:0:
416,128,90399,1,0,1:0:0:0:
416,128,90513,1,0,1:0:0:0:
224,224,90740,1,8,0:0:0:0:
224,224,90854,1,8,0:0:0:0:
224,224,90967,5,0,1:0:0:0:
386,273,91195,2,0,P|395:215|394:185,1,67.5000025749208,2|0,0:3|0:0,0:0:0:0:
468,321,91649,2,0,P|477:263|476:233,1,67.5000025749208,2|0,0:0|0:0,0:0:0:0:
306,326,92104,1,2,0:3:0:0:
386,273,92331,1,8,0:0:0:0:
189,245,92558,1,2,0:3:0:0:
189,245,92672,1,2,0:3:0:0:
189,245,92785,5,0,1:0:0:0:
369,185,93013,2,0,P|378:127|377:97,1,67.5000025749208,2|0,0:3|0:0,0:0:0:0:
300,233,93467,2,0,P|293:199|290:166,1,67.5000025749208,2|2,0:0|0:0,0:0:0:0:
477,213,93922,1,2,1:2:0:0:
477,213,94035,1,2,1:2:0:0:
477,213,94149,1,2,1:2:0:0:
285,309,94376,1,10,0:0:0:0:
285,309,94490,1,10,0:0:0:0:
285,309,94604,5,6,1:2:0:0:
447,358,94831,1,2,0:3:0:0:
232,358,95058,5,10,0:0:0:0:
394,309,95285,1,2,0:3:0:0:
281,196,95513,5,2,1:2:0:0:
232,358,95740,1,2,0:3:0:0:
232,143,95967,5,10,0:0:0:0:
285,309,96195,1,2,0:3:0:0:
172,196,96422,5,2,1:2:0:0:
334,245,96649,1,2,0:3:0:0:
119,245,96876,5,10,0:0:0:0:
281,196,97104,1,2,0:3:0:0:
168,83,97331,5,2,1:2:0:0:
119,245,97558,1,2,0:3:0:0:
119,30,97785,5,10,0:0:0:0:
172,196,98013,1,2,0:3:0:0:
59,83,98240,6,0,B|59:65|59:65|18:-19,1,90,6|2,1:2|0:0,0:0:0:0:
172,196,98695,2,0,B|172:214|172:214|131:298,1,90,10|2,0:0|0:3,0:0:0:0:
285,83,99149,2,0,B|285:65|285:65|244:-19,1,90,2|2,1:2|0:3,0:0:0:0:
398,196,99604,2,0,B|398:214|398:214|357:298,1,90,10|2,0:0|0:3,0:0:0:0:
511,83,100058,6,0,B|480:83|479:65|415:62,1,90,2|2,1:2|0:3,0:0:0:0:
269,223,100513,2,0,B|300:223|301:205|365:202,1,90,10|2,0:0|0:3,0:0:0:0:
112,112,100967,2,0,B|112:81|130:80|133:16,1,90,2|2,1:2|0:3,0:0:0:0:
270,149,101422,2,0,B|270:180|288:181|291:245,1,90,10|2,0:0|0:3,0:0:0:0:
227,309,101763,1,2,1:3:0:0:
227,309,101876,5,6,1:2:0:0:
65,358,102104,1,2,0:3:0:0:
280,358,102331,5,10,0:0:0:0:
118,309,102558,1,2,0:3:0:0:
231,196,102785,5,2,1:2:0:0:
280,358,103013,1,2,0:3:0:0:
280,143,103240,5,10,0:0:0:0:
227,309,103467,1,2,0:3:0:0:
340,196,103695,5,2,1:2:0:0:
178,245,103922,1,2,0:3:0:0:
393,245,104149,5,10,0:0:0:0:
231,196,104376,1,2,0:3:0:0:
344,83,104604,5,2,1:2:0:0:
393,245,104831,1,2,0:3:0:0:
393,30,105058,5,10,0:0:0:0:
340,196,105285,1,2,0:3:0:0:
453,83,105513,6,0,B|453:65|453:65|494:-19,1,90,6|2,1:2|0:0,0:0:0:0:
340,196,105967,2,0,B|340:214|340:214|381:298,1,90,10|2,0:0|0:3,0:0:0:0:
227,83,106422,2,0,B|227:65|227:65|268:-19,1,90,2|2,1:2|0:3,0:0:0:0:
114,196,106876,2,0,B|114:214|114:214|155:298,1,90,10|2,0:0|0:3,0:0:0:0:
1,83,107331,6,0,B|32:83|33:65|97:62,1,90,2|2,1:2|0:3,0:0:0:0:
243,223,107785,2,0,B|212:223|211:205|147:202,1,90,10|2,0:0|0:3,0:0:0:0:
353,99,108240,1,2,1:2:0:0:
332,11,108467,1,2,0:3:0:0:
489,163,108695,1,2,1:3:0:0:
487,176,108808,1,0,1:0:0:0:
462,207,108922,1,2,1:3:0:0:
467,219,109035,1,2,1:3:0:0:
491,262,109149,6,0,P|445:226|394:251,2,90,6|2|10,1:2|0:3|0:0,0:0:0:0:
425,368,109831,2,0,P|389:293|396:169,1,180,2|2,0:0|0:0,0:0:0:0:
512,96,110513,1,10,0:0:0:0:
321,133,110740,1,2,0:0:0:0:
306,107,110854,1,2,1:3:0:0:
321,61,110967,6,0,B|343:68|384:49|417:4,2,90,2|2|10,1:2|0:3|0:0,0:0:0:0:
192,32,111649,1,2,0:3:0:0:
192,32,111763,1,2,0:3:0:0:
192,32,111876,2,0,P|188:88|178:147,1,90,2|2,1:2|0:3,0:0:0:0:
246,197,112217,1,0,1:0:0:0:
246,197,112331,2,0,P|213:186|168:196,1,45,10|2,0:0|0:3,0:0:0:0:
123,299,112558,2,0,P|90:310|45:300,1,45,10|2,0:0|0:3,0:0:0:0:
0,198,112785,6,0,B|50:182|-22:84|70:54,1,135,6|0,1:2|0:0,0:0:0:0:
116,35,113240,2,0,P|87:92|65:80,1,90,10|2,0:0|0:0,0:0:0:0:
199,210,113695,2,0,P|306:239|372:304,1,180,2|8,1:2|0:0,0:0:0:0:
384,96,114376,1,2,0:3:0:0:
384,96,114490,1,2,0:3:0:0:
384,96,114604,6,0,P|367:156|346:193,1,90,2|2,1:2|0:0,0:0:0:0:
505,84,115058,2,0,P|488:24|467:-13,1,90,8|2,0:0|0:0,0:0:0:0:
273,104,115513,1,2,1:2:0:0:
273,104,115626,2,0,P|207:88|154:60,1,90,2|2,0:3|0:3,0:0:0:0:
148,51,115967,1,10,0:0:0:0:
95,243,116195,1,2,0:3:0:0:
95,243,116308,1,2,0:3:0:0:
95,243,116422,6,0,B|55:196|116:203|60:137,2,90,6|2|8,1:2|0:0|0:0,0:0:0:0:
60,367,117104,2,0,P|147:350|146:249,1,180,2|2,0:0|0:0,0:0:0:0:
7,244,117785,1,10,0:0:0:0:
44,335,118013,1,2,0:0:0:0:
60,169,118240,6,0,B|39:101|170:95|90:-9,2,180,2|10|2,1:2|0:0|1:2,0:0:0:0:
210,205,119377,1,2,0:3:0:0:
210,205,119490,1,2,0:3:0:0:
210,205,119604,2,0,P|186:261|156:294,1,90,10|2,0:0|0:3,0:0:0:0:
318,379,120058,6,0,P|309:334|305:290,1,90,6|2,1:2|0:0,0:0:0:0:
236,178,120513,1,8,0:0:0:0:
327,220,120740,1,2,0:0:0:0:
363,52,120967,2,0,P|330:97|296:80,1,90,2|2,1:2|0:0,0:0:0:0:
109,52,121422,1,8,0:0:0:0:
200,10,121649,1,2,0:0:0:0:
236,178,121876,6,0,P|203:133|169:150,1,90,2|2,1:2|0:0,0:0:0:0:
73,297,122331,1,8,0:0:0:0:
164,339,122558,1,2,0:0:0:0:
200,171,122785,2,0,P|167:216|133:199,1,90,2|0,1:2|1:0,0:0:0:0:
109,52,123240,1,8,1:2:0:0:
109,52,123354,2,0,P|100:113|84:173,1,90,0|0,1:0|1:0,0:0:0:0:
169,192,123695,6,0,P|198:179|220:241,6,90,6|0|2|0|2|0|2,1:2|3:0|0:3|3:0|0:3|3:0|0:3,0:0:0:0:
68,242,125285,1,2,0:3:0:0:
234,334,125513,6,0,P|263:342|276:269,1,90,2|0,0:0|0:0,0:0:0:0:
314,133,125967,1,2,0:0:0:0:
243,234,126195,1,2,0:0:0:0:
408,262,126422,2,0,P|428:299|470:295,1,90,2|2,0:0|0:0,0:0:0:0:
507,137,126876,2,0,P|486:174|444:170,1,90,2|0,0:0|0:0,0:0:0:0:
350,44,127331,6,0,P|392:40|412:77,2,90,2|2|2,0:0|0:3|0:0,0:0:0:0:
302,200,128013,1,2,0:3:0:0:
275,6,128240,2,0,P|232:2|212:39,1,90,2|2,3:2|3:3,0:0:0:0:
120,172,128695,2,0,P|77:175|57:138,1,90,2|2,3:2|3:3,0:0:0:0:
0,67,129149,6,0,P|54:84|106:157,1,135.000005149842,6|2,0:0|0:0,0:0:0:0:
62,206,129831,1,2,0:0:0:0:
219,251,130058,2,0,P|167:285|95:300,1,135.000005149842,2|2,0:0|0:0,0:0:0:0:
49,357,130740,1,2,0:0:0:0:
214,381,130967,6,0,P|261:340|240:260,1,135.000005149842,2|2,0:0|0:0,0:0:0:0:
173,141,131876,2,0,P|135:130|97:108,1,67.5000025749208,2|2,0:0|0:0,0:0:0:0:
62,196,132331,2,0,P|24:207|-14:229,1,67.5000025749208,2|0,0:0|0:0,0:0:0:0:
117,272,132785,5,2,0:0:0:0:
117,272,133240,2,0,P|143:238|118:197,2,67.5000025749208,2|0|2,0:0|0:0|0:0,0:0:0:0:
117,272,134149,2,0,P|151:298|192:273,2,67.5000025749208,2|0|2,0:0|0:0|0:0,0:0:0:0:
117,272,135058,2,0,P|91:306|116:347,1,67.5000025749208,2|2,0:0|0:0,0:0:0:0:
20,186,135513,2,0,P|52:190|71:218,1,67.5000025749208,2|0,0:0|0:0,0:0:0:0:
210,237,135967,2,0,P|237:218|241:186,1,67.5000025749208,2|0,0:0|0:0,0:0:0:0:
117,272,136422,5,2,0:0:0:0:
117,272,136876,2,0,P|115:331|117:364,1,67.5000025749208,2|2,0:0|0:0,0:0:0:0:
184,379,137331,1,2,0:0:0:0:
286,311,137558,1,0,0:0:0:0:
191,157,137785,1,2,0:0:0:0:
302,222,138013,1,2,0:0:0:0:
117,272,138240,5,2,0:0:0:0:
117,272,138695,2,0,P|75:262|20:257,1,67.5000025749208,2|0,0:0|0:0,0:0:0:0:
2,179,139149,1,2,0:0:0:0:
2,179,139376,1,2,0:0:0:0:
159,145,139604,1,2,0:0:0:0:
159,145,139831,1,2,0:0:0:0:
96,96,140058,5,2,0:0:0:0:
96,96,140513,2,0,P|55:83|76:45,2,67.5000025749208,2|0|2,0:0|0:0|0:0,0:0:0:0:
96,96,141422,2,0,P|83:136|45:115,1,67.5000025749208,2|2,0:0|0:0,0:0:0:0:
218,71,141876,5,2,0:0:0:0:
218,71,142104,2,0,P|230:26|227:-14,1,67.5000025749208,2|0,0:3|0:0,0:0:0:0:
357,99,142558,2,0,P|369:54|366:14,1,67.5000025749208,2|0,0:3|0:0,0:0:0:0:
200,157,143013,2,0,P|188:112|191:72,1,67.5000025749208,2|0,0:3|0:0,0:0:0:0:
61,185,143467,1,2,0:3:0:0:
61,185,143581,1,2,0:3:0:0:
61,185,143695,6,0,B|160:143|136:269|241:255,1,180,6|10,1:2|0:0,0:0:0:0:
325,194,144376,1,2,0:3:0:0:
325,194,144490,1,2,0:3:0:0:
325,194,144604,2,0,P|275:192|264:133,1,90,2|2,1:2|0:3,0:0:0:0:
297,10,145058,1,10,0:0:0:0:
414,62,145285,1,2,0:3:0:0:
414,62,145399,1,2,0:3:0:0:
414,62,145513,6,0,P|464:60|475:1,1,90,2|2,1:2|0:3,0:0:0:0:
297,10,145967,2,0,P|312:52|335:90,1,90,10|2,0:0|0:3,0:0:0:0:
267,226,146422,1,2,1:2:0:0:
245,131,146649,1,2,0:3:0:0:
427,170,146876,1,10,0:0:0:0:
279,213,147103,1,2,0:0:0:0:
421,72,147331,6,0,P|478:96|531:105,1,90,2|2,1:2|0:3,0:0:0:0:
461,187,147672,1,2,0:2:0:0:
461,187,147785,2,0,P|417:198|376:217,1,90,10|2,0:0|0:3,0:0:0:0:
318,284,148126,1,2,0:3:0:0:
307,292,148240,2,0,P|264:280|248:240,1,90,2|2,1:2|0:3,0:0:0:0:
303,115,148694,1,10,0:0:0:0:
130,198,148922,1,2,0:3:0:0:
130,198,149035,1,2,0:3:0:0:
130,198,149149,5,2,1:2:0:0:
231,223,149376,1,2,0:0:0:0:
152,49,149604,2,0,P|98:34|47:13,1,90,10|2,0:0|0:3,0:0:0:0:
0,163,149945,1,2,0:3:0:0:
6,169,150058,2,0,P|60:154|111:133,1,90,2|2,1:2|0:1,0:0:0:0:
266,210,150399,1,2,0:3:0:0:
318,165,150512,2,0,B|304:132|304:132|229:150,1,90,10|2,0:0|0:3,0:0:0:0:
90,279,150853,1,2,0:3:0:0:
90,279,150967,6,0,B|186:265|114:156|248:161,1,180,6|10,1:2|0:0,0:0:0:0:
107,247,151649,1,2,0:3:0:0:
288,288,151876,2,0,P|324:261|276:214,1,90,2|2,1:2|0:3,0:0:0:0:
165,300,152331,1,10,0:0:0:0:
384,352,152558,1,2,0:3:0:0:
384,352,152672,1,2,0:3:0:0:
384,352,152785,6,0,P|397:279|414:237,1,90,2|2,1:2|0:3,0:0:0:0:
257,164,153240,2,0,P|269:207|275:251,1,90,10|2,0:0|0:3,0:0:0:0:
408,310,153581,1,2,0:3:0:0:
408,310,153694,2,0,P|447:261|428:237,1,90,2|2,1:2|0:3,0:0:0:0:
261,323,154149,1,10,0:0:0:0:
370,155,154376,1,2,0:3:0:0:
370,155,154490,1,2,0:3:0:0:
370,155,154603,6,0,P|413:164|458:171,1,90,2|2,1:2|0:3,0:0:0:0:
255,246,155058,2,0,P|239:307|233:357,1,90,10|2,0:0|0:3,0:0:0:0:
121,380,155399,1,2,0:3:0:0:
121,380,155512,2,0,P|113:335|101:292,1,90,2|2,1:2|0:3,0:0:0:0:
281,228,155967,2,0,P|265:289|259:339,1,90,10|2,0:0|0:3,0:0:0:0:
93,363,156308,1,2,0:3:0:0:
93,363,156422,6,0,P|86:319|74:276,1,90,2|2,1:2|0:3,0:0:0:0:
73,275,156762,1,2,0:3:0:0:
167,233,156876,2,0,P|174:189|186:146,1,90,10|2,0:0|0:3,0:0:0:0:
79,78,157217,1,2,0:3:0:0:
79,78,157331,2,0,P|57:122|-1:89,1,90,2|2,1:2|0:3,0:0:0:0:
273,25,157785,2,0,P|281:55|278:100,1,45,10|2,0:0|0:3,0:0:0:0:
159,139,158012,2,0,P|151:109|154:64,1,45,8|8,0:0|0:0,0:0:0:0:
320,160,158240,6,0,B|419:118|395:244|500:230,1,180,6|10,1:2|0:0,0:0:0:0:
498,64,158922,1,2,0:3:0:0:
498,64,159035,1,2,0:3:0:0:
498,64,159149,2,0,P|467:114|434:101,1,90,2|2,1:2|0:3,0:0:0:0:
371,10,159604,1,10,0:0:0:0:
352,175,159831,1,2,0:3:0:0:
352,175,159944,1,2,0:3:0:0:
352,175,160058,6,0,P|302:144|315:111,1,90,2|2,1:2|0:3,0:0:0:0:
371,10,160513,1,10,0:0:0:0:
441,201,160740,1,2,0:3:0:0:
441,201,160853,1,2,0:3:0:0:
441,201,160967,2,0,P|410:251|377:238,1,90,2|2,1:2|0:3,0:0:0:0:
332,92,161422,1,10,0:0:0:0:
512,135,161649,1,2,0:3:0:0:
512,135,161763,1,2,0:3:0:0:
512,135,161876,6,0,P|473:96|493:46,1,90,2|2,1:2|0:3,0:0:0:0:
268,35,162331,2,0,P|307:-4|357:16,1,90,10|2,0:0|0:3,0:0:0:0:
278,153,162672,1,2,0:3:0:0:
278,153,162785,2,0,P|234:152|208:117,1,90,2|2,1:2|0:3,0:0:0:0:
367,85,163240,2,0,P|355:139|350:188,1,90,10|2,0:0|0:3,0:0:0:0:
419,241,163581,1,2,0:0:0:0:
419,241,163695,6,0,P|473:225|469:189,1,90,2|2,1:2|0:3,0:0:0:0:
431,146,164035,1,2,0:3:0:0:
431,146,164149,1,10,0:0:0:0:
367,370,164376,1,2,0:3:0:0:
367,370,164490,1,2,0:3:0:0:
367,370,164604,2,0,B|341:339|341:339|358:280,1,90,2|2,1:2|0:1,0:0:0:0:
422,322,164945,1,2,0:1:0:0:
489,352,165058,2,0,B|503:305|503:305|477:274,1,90,10|2,0:0|0:1,0:0:0:0:
422,322,165399,1,2,0:1:0:0:
367,370,165513,6,0,B|277:370|307:260|200:261,1,180,6|8,1:2|0:0,0:0:0:0:
379,195,166195,1,2,0:3:0:0:
379,195,166308,1,2,0:3:0:0:
379,195,166422,2,0,B|289:195|319:305|212:304,1,180,2|8,1:2|0:0,0:0:0:0:
119,159,167104,1,2,0:3:0:0:
119,159,167217,1,2,0:3:0:0:
119,159,167331,6,0,B|209:159|179:269|286:268,1,180,6|8,1:2|0:0,0:0:0:0:
288,106,168013,1,2,0:3:0:0:
288,106,168126,1,2,0:3:0:0:
288,106,168240,2,0,B|378:106|348:-4|455:-3,2,180,2|8|6,1:2|0:0|1:2,0:0:0:0:
159,29,169376,6,0,P|178:69|185:113,1,90,2|8,0:0|0:0,0:0:0:0:
239,3,169831,2,0,P|240:48|228:91,1,90,2|0,0:0|1:0,0:0:0:0:
324,12,170285,1,2,0:0:0:0:
324,12,170399,1,2,0:0:0:0:
324,12,170513,2,0,P|306:53|276:87,2,90,10|2|6,0:0|0:0|1:2,0:0:0:0:
480,160,171195,6,0,P|461:120|454:76,1,90,2|8,0:0|0:0,0:0:0:0:
400,186,171650,2,0,P|399:141|411:98,1,90,2|0,0:0|1:0,0:0:0:0:
315,177,172104,1,2,0:0:0:0:
315,177,172218,1,2,0:0:0:0:
315,177,172331,2,0,P|333:136|359:104,1,45,10|2,0:0|0:3,0:0:0:0:
246,268,172558,2,0,P|264:309|290:341,1,45,10|10,0:0|0:0,0:0:0:0:
177,177,172785,5,6,1:2:0:0:
177,177,173013,2,0,B|101:182|102:93|-3:107,1,180,2|2,0:0|0:3,0:0:0:0:
17,105,173581,1,2,0:3:0:0:
17,105,173695,1,2,1:3:0:0:
185,44,173922,2,0,P|142:75|109:116,1,90,2|8,0:0|0:0,0:0:0:0:
49,0,174376,1,2,0:3:0:0:
49,0,174490,1,2,0:3:0:0:
49,0,174604,5,2,1:2:0:0:
197,74,174831,2,0,P|259:67|386:60,1,180,2|2,0:0|0:3,0:0:0:0:
473,18,175399,1,2,0:3:0:0:
473,18,175513,2,0,P|500:65|532:83,1,90,2|0,1:2|0:0,0:0:0:0:
364,170,175967,2,0,P|405:135|441:129,1,90,10|2,0:0|0:3,0:0:0:0:
502,241,176308,1,2,0:3:0:0:
502,241,176422,6,0,P|487:305|447:386,1,135,2|0,1:2|0:0,0:0:0:0:
411,373,176876,2,0,P|388:339|395:310,1,45,10|0,0:0|0:0,0:0:0:0:
306,277,177104,2,0,P|341:255|347:226,1,45,2|0,0:0|0:0,0:0:0:0:
217,370,177331,2,0,P|257:378|272:403,1,45,2|0,1:2|0:0,0:0:0:0:
168,251,177558,1,2,0:3:0:0:
168,251,177785,2,0,B|204:269|165:347|106:311,2,90,10|2|2,0:0|0:0|1:2,0:0:0:0:
274,182,178467,5,2,0:3:0:0:
274,182,178695,2,0,P|256:152|263:126,1,45,10|0,0:0|0:0,0:0:0:0:
353,51,178922,2,0,P|323:69|297:62,1,45,2|0,0:0|0:0,0:0:0:0:
386,213,179149,2,0,P|411:188|411:161,1,45,2|0,1:2|0:0,0:0:0:0:
322,33,179376,1,2,0:3:0:0:
322,33,179604,2,0,P|392:23|448:6,1,90,10|2,0:0|0:0,0:0:0:0:
489,82,179945,1,2,0:3:0:0:
489,82,180058,6,0,B|476:126|442:74|502:7,1,90,6|2,1:2|0:3,0:0:0:0:
320,128,180513,2,0,P|250:118|194:101,1,90,10|2,0:0|0:0,0:0:0:0:
153,177,180854,1,2,0:3:0:0:
153,177,180967,2,0,B|166:221|200:169|140:102,1,90,2|2,1:2|0:3,0:0:0:0:
322,223,181422,2,0,P|392:213|448:196,1,90,10|2,0:0|0:0,0:0:0:0:
489,272,181763,1,2,0:3:0:0:
489,272,181876,6,0,B|476:316|442:264|502:197,1,90,6|2,1:2|0:3,0:0:0:0:
320,318,182331,2,0,P|250:308|194:291,1,90,10|2,0:0|0:0,0:0:0:0:
153,367,182672,1,2,0:3:0:0:
153,367,182785,2,0,B|166:411|200:359|140:292,1,90,2|2,1:2|0:3,0:0:0:0:
89,182,183240,2,0,P|36:162|-5:135,1,90,10|2,0:0|0:0,0:0:0:0:
81,156,183581,1,2,0:3:0:0:
128,129,183695,6,0,P|154:80|160:19,2,90,6|2|8,1:2|0:3|0:0,0:0:0:0:
81,156,184376,1,2,0:0:0:0:
101,171,184490,1,2,0:3:0:0:
168,185,184604,2,0,P|221:168|268:129,2,90,6|2|8,1:2|0:3|0:0,0:0:0:0:
81,156,185285,1,2,0:0:0:0:
84,187,185399,1,2,0:3:0:0:
130,256,185513,6,0,P|178:282|240:288,2,90,6|2|8,1:2|0:3|0:0,0:0:0:0:
81,156,186194,1,2,0:0:0:0:
266,207,186422,2,0,P|331:177|372:64,1,180,2|10,1:2|0:0,0:0:0:0:
355,14,186990,1,2,0:3:0:0:
355,14,187104,2,0,P|314:23|286:44,1,45,10|10,0:0|0:0,0:0:0:0:
183,4,187331,6,0,P|199:57|202:119,1,101.250003862381,6|0,1:2|0:0,0:0:0:0:
143,150,187785,2,0,P|149:116|160:85,1,67.5000025749208,2|2,1:2|0:0,0:0:0:0:
227,202,188240,2,0,P|303:207|382:221,1,135.000005149842,2|2,1:2|1:2,0:0:0:0:
456,186,188922,1,2,0:0:0:0:
373,326,189149,6,0,B|348:266|417:296|383:210,1,101.250003862381,2|0,1:2|0:0,0:0:0:0:
357,142,189604,2,0,P|331:118|313:86,1,67.5000025749208,2|2,1:2|0:0,0:0:0:0:
282,246,190058,2,0,P|257:272|226:290,1,67.5000025749208,2|0,1:2|0:0,0:0:0:0:
108,262,190513,2,0,P|118:295|140:325,1,67.5000025749208,2|2,1:2|0:0,0:0:0:0:
248,383,190967,6,0,P|260:334|254:296,2,67.5000025749208,2|2|2,1:2|0:0|1:2,0:0:0:0:
116,350,191649,2,0,P|165:336|186:318,1,67.5000025749208,2|2,0:0|1:2,0:0:0:0:
23,296,192104,2,0,P|8:262|7:242,1,33.7500012874604,2|0,0:1|0:0,0:0:0:0:
133,241,192331,2,0,P|148:207|149:187,1,33.7500012874604,2|0,1:1|0:0,0:0:0:0:
23,186,192558,2,0,P|8:152|7:132,1,33.7500012874604,2|0,0:1|0:0,0:0:0:0:
133,131,192785,6,0,P|197:121|292:100,1,135.000005149842,2|2,1:1|1:2,0:0:0:0:
350,50,193467,2,0,P|368:95|390:130,1,67.5000025749208,2|0,0:0|1:0,0:0:0:0:
248,9,193922,2,0,P|266:54|288:89,1,67.5000025749208,2|0,0:0|1:0,0:0:0:0:
417,0,194376,1,2,0:3:0:0:
417,0,194490,1,2,0:3:0:0:
417,0,194604,6,0,P|431:28|387:99,1,101.250003862381,2|0,1:2|0:0,0:0:0:0:
307,78,195058,2,0,P|293:48|308:-5,2,67.5000025749208,2|0|2,1:2|0:0|1:2,0:0:0:0:
307,78,195740,1,2,0:3:0:0:
395,186,195967,2,0,P|445:177|481:156,1,67.5000025749208,2|2,1:2|0:0,0:0:0:0:
415,322,196422,6,0,P|391:245|393:196,1,101.250003862381,2|0,1:2|0:0,0:0:0:0:
376,324,196876,2,0,P|365:371|351:401,1,67.5000025749208,2|2,1:2|0:0,0:0:0:0:
303,269,197331,2,0,P|273:231|247:209,1,67.5000025749208,2|0,1:2|0:0,0:0:0:0:
188,355,197785,2,0,P|159:372|127:384,1,67.5000025749208,2|2,1:2|0:0,0:0:0:0:
36,290,198240,6,0,P|24:241|30:203,2,67.5000025749208,2|2|2,1:2|0:0|1:2,0:0:0:0:
168,257,198922,2,0,P|119:243|98:225,1,67.5000025749208,2|2,0:0|1:2,0:0:0:0:
261,203,199376,2,0,P|276:169|277:149,1,33.7500012874604,2|0,0:1|0:0,0:0:0:0:
151,148,199604,2,0,P|136:114|135:94,1,33.7500012874604,2|0,1:1|0:0,0:0:0:0:
261,93,199831,2,0,P|276:59|277:39,1,33.7500012874604,2|0,0:1|0:0,0:0:0:0:
151,38,200058,6,0,P|87:28|-8:7,1,135.000005149842,2|2,1:1|1:2,0:0:0:0:
126,133,200740,2,0,P|108:178|86:213,1,67.5000025749208,2|0,0:0|1:0,0:0:0:0:
228,92,201195,2,0,P|210:137|188:172,1,67.5000025749208,2|0,0:0|1:0,0:0:0:0:
79,60,201649,1,2,0:3:0:0:
79,60,201763,1,2,0:3:0:0:
79,60,201876,6,2,P|169:52|268:46,1,180,2|0,1:2|0:0,0:0:0:0:
