osu file format v14

[General]
AudioFilename: audio.mp3
AudioLeadIn: 0
PreviewTime: 129149
Countdown: 0
SampleSet: Soft
StackLeniency: 0.3
Mode: 0
LetterboxInBreaks: 0
EpilepsyWarning: 1
WidescreenStoryboard: 0

[Editor]
Bookmarks: 3695,10967,18240,25513,32785,40058,47331,50967,64604,65513,80058,87331,94604,101876,109149,116422,123695,129149,136422,143695,157331,158240,171876,172785,187331,194604,201876,203695
DistanceSpacing: 1.4
BeatDivisor: 4
GridSize: 32
TimelineZoom: 1

[Metadata]
Title:Shinitai-chan
TitleUnicode:シニタイちゃん
Artist:Switch
ArtistUnicode:すいっち
Creator:eiri-
Version:Hard
Source:
Tags:Ayyri Miss Wanna-Die Wanna Die IA Aria On The Planetes Planets Shinitaichan Shinitai chan Vocaloid Japanese Electronic
BeatmapID:3431305
BeatmapSetID:1669009

[Difficulty]
HPDrainRate:4.5
CircleSize:4
OverallDifficulty:7
ApproachRate:7
SliderMultiplier:1.4
SliderTickRate:1

[Events]
//Background and Video events
0,0,"Shinitai.jpg",0,0
Video,0,"Shinitai.avi"
//Break Periods
//Storyboard Layer 0 (Background)
//Storyboard Layer 1 (Fail)
//Storyboard Layer 2 (Pass)
//Storyboard Layer 3 (Foreground)
//Storyboard Layer 4 (Overlay)
//Storyboard Sound Samples

[TimingPoints]
3695,454.545454545455,4,2,1,60,1,0
3695,-100,4,2,1,60,0,0
18240,-100,4,2,1,70,0,0
32785,-100,4,2,1,80,0,0
47331,-100,4,2,1,60,0,0
49149,-100,4,2,1,70,0,0
50058,-100,4,2,1,80,0,0
50967,-100,4,2,1,90,0,1
64604,-100,4,2,1,90,0,0
65513,-100,4,2,1,90,0,1
80058,-100,4,2,1,70,0,0
94604,-100,4,2,1,75,0,0
109149,-100,4,2,1,80,0,0
123695,-100,4,2,1,60,0,0
125513,-100,4,2,1,70,0,0
127331,-100,4,2,1,80,0,0
128240,-100,4,2,1,85,0,0
129149,-100,4,2,1,60,0,0
143695,-100,4,2,1,90,0,1
157331,-100,4,2,1,90,0,0
158240,-100,4,2,1,90,0,1
171876,-100,4,2,1,90,0,0
172785,-100,4,2,1,90,0,1
187331,-100,4,2,1,60,0,0
201876,-133.333333333333,4,2,1,60,0,0
202331,-133.333333333333,4,2,1,40,0,0
202785,-133.333333333333,4,2,1,20,0,0
203240,-133.333333333333,4,2,1,10,0,0
203695,-133.333333333333,4,2,1,5,0,0

[Colours]
Combo1 : 205,20,20
Combo2 : 225,183,183
Combo3 : 185,87,87
Combo4 : 247,170,170

[HitObjects]
41,185,3695,6,0,P|103:190|205:188,1,140,2|2,0:0|0:0,0:0:0:0:
267,235,4376,1,2,0:0:0:0:
267,235,4604,2,0,P|316:205|296:115,1,140,2|2,0:0|0:0,0:0:0:0:
240,62,5285,1,0,0:0:0:0:
360,12,5513,6,0,P|410:23|520:36,1,140,2|2,0:0|0:0,0:0:0:0:
430,106,6195,1,0,0:0:0:0:
473,193,6422,2,0,P|443:229|441:265,1,70,2|2,0:0|0:0,0:0:0:0:
351,294,6876,2,0,P|374:334|407:348,1,70,2|2,0:0|0:0,0:0:0:0:
486,378,7331,6,0,P|508:351|484:297,3,70,2|0|2|2,0:0|0:0|0:0|0:0,0:0:0:0:
456,232,8240,1,2,0:0:0:0:
365,268,8467,2,0,P|325:258|326:227,1,70,2|2,0:1|0:1,0:0:0:0:
313,136,8922,1,2,0:1:0:0:
204,206,9149,6,0,P|157:199|48:191,1,140,2|0,0:1|0:0,0:0:0:0:
5,112,9831,2,0,P|32:82|18:39,1,70,2|0,0:0|0:0,0:0:0:0:
118,14,10285,2,0,P|155:29|160:74,1,70,2|0,0:0|0:0,0:0:0:0:
120,143,10740,1,2,0:3:0:0:
120,143,10967,6,0,P|167:141|185:40,1,140,2|2,0:0|0:0,0:0:0:0:
291,23,11649,1,2,0:0:0:0:
291,23,11876,2,0,P|285:89|289:177,1,140,2|0,0:0|0:0,0:0:0:0:
246,251,12558,1,0,0:0:0:0:
365,303,12785,6,0,P|420:295|494:235,1,140,2|2,0:0|0:0,0:0:0:0:
503,148,13467,1,0,0:0:0:0:
405,134,13695,2,0,P|368:108|378:64,1,70,2|2,0:0|0:0,0:0:0:0:
272,57,14149,2,0,P|276:11|319:-1,1,70,2|2,0:0|0:0,0:0:0:0:
392,0,14604,6,0,P|424:26|470:32,3,70,2|0|2|2,0:0|0:0|0:0|0:0,0:0:0:0:
482,125,15513,1,2,0:0:0:0:
402,182,15740,2,0,P|370:174|308:166,1,70,2|2,0:1|0:1,0:0:0:0:
273,90,16195,1,2,0:1:0:0:
159,142,16422,6,0,P|128:94|122:4,1,140,2|0,0:1|0:0,0:0:0:0:
40,70,17104,2,0,P|34:111|14:163,1,70,2|0,0:0|0:0,0:0:0:0:
100,208,17558,1,2,0:0:0:0:
100,208,17785,2,0,P|106:249|126:301,1,70,0|2,0:0|0:3,0:0:0:0:
45,346,18240,6,0,P|140:360|199:374,1,140,2|10,1:2|0:0,0:0:0:0:
252,300,18922,1,0,1:0:0:0:
360,369,19149,1,2,0:0:0:0:
461,209,19604,2,0,P|448:152|448:116,1,70,2|2,0:0|0:0,0:0:0:0:
468,45,20058,6,0,P|417:24|320:9,1,140,2|8,0:3|0:0,0:0:0:0:
242,45,20740,1,2,1:2:0:0:
290,165,20967,2,0,P|284:219|275:246,1,70,2|0,0:0|0:0,0:0:0:0:
73,244,21649,1,2,0:0:0:0:
6,172,21876,6,0,P|83:158|168:134,1,140,2|8,1:2|0:0,0:0:0:0:
237,169,22558,1,2,1:2:0:0:
189,47,22785,1,2,0:0:0:0:
482,64,23467,1,2,0:1:0:0:
418,139,23695,6,0,P|379:130|330:37,1,140,2|8,1:2|0:0,0:0:0:0:
232,34,24376,1,2,1:2:0:0:
204,159,24604,1,2,0:0:0:0:
45,34,25058,2,0,P|89:20|134:20,1,70,10|2,0:0|0:0,0:0:0:0:
151,108,25513,6,0,B|169:150|104:172|28:112,1,140,2|8,1:2|0:0,0:0:0:0:
5,214,26195,1,2,1:2:0:0:
127,241,26422,1,2,0:0:0:0:
275,380,26876,1,2,0:0:0:0:
275,380,27104,1,2,0:0:0:0:
339,306,27331,6,0,P|346:254|356:220,2,70,2|0|10,1:2|1:0|0:0,0:0:0:0:
428,347,28013,1,2,1:2:0:0:
512,298,28240,2,0,P|490:248|472:138,1,140,2|0,0:0|1:0,0:0:0:0:
483,66,28922,1,2,0:0:0:0:
374,0,29149,6,0,B|299:16|313:83|251:90,1,140,0|8,1:0|0:0,0:0:0:0:
171,101,29831,1,2,1:2:0:0:
104,0,30058,1,2,0:0:0:0:
39,282,30740,1,2,0:1:0:0:
111,217,30967,6,0,B|172:242|149:289|224:327,2,140,2|10|2,1:2|0:0|0:0,0:0:0:0:
15,233,32104,1,0,1:0:0:0:
45,140,32331,2,0,P|23:104|15:64,1,70,10|8,0:0|0:0,0:0:0:0:
133,9,32785,6,0,B|187:70|227:-13|289:58,2,140,6|8|0,1:2|0:0|1:0,0:0:0:0:
34,1,33922,1,2,0:0:0:0:
72,91,34149,2,0,P|67:136|49:173,1,70,10|2,0:0|0:3,0:0:0:0:
0,279,34604,6,0,P|46:326|129:344,1,140,2|8,1:2|0:0,0:0:0:0:
198,292,35285,1,2,0:0:0:0:
260,367,35513,2,0,P|280:317|302:291,1,70,2|0,1:2|0:0,0:0:0:0:
371,250,35967,1,10,0:0:0:0:
396,155,36195,1,2,0:3:0:0:
353,31,36422,6,0,B|303:57|274:-1|210:0,1,140,6|10,1:2|0:0,0:0:0:0:
147,65,37104,1,2,0:0:0:0:
190,189,37331,2,0,B|240:163|269:221|333:220,1,140,2|8,1:2|0:0,0:0:0:0:
396,155,38013,1,2,0:3:0:0:
353,31,38240,6,0,B|303:57|274:-1|210:0,1,140,2|8,1:2|0:0,0:0:0:0:
147,65,38922,1,2,0:0:0:0:
190,189,39149,2,0,B|240:163|269:221|333:220,1,140,2|10,1:2|0:0,0:0:0:0:
396,155,39831,1,2,0:3:0:0:
353,31,40058,6,0,B|407:92|447:9|509:80,2,140,6|8|0,1:2|0:0|1:0,0:0:0:0:
260,63,41195,1,2,0:0:0:0:
321,138,41422,2,0,P|309:170|306:205,1,70,10|2,0:0|0:0,0:0:0:0:
361,323,41876,6,0,P|270:368|204:360,1,140,2|10,1:2|0:0,0:0:0:0:
143,329,42558,1,0,0:0:0:0:
200,249,42785,2,0,P|197:214|185:181,1,70,2|2,1:2|0:3,0:0:0:0:
87,169,43240,2,0,P|75:201|55:230,1,70,10|2,0:0|0:3,0:0:0:0:
143,329,43695,6,0,P|202:331|302:348,1,140,6|8,1:2|0:0,0:0:0:0:
356,279,44376,1,2,0:0:0:0:
300,166,44604,2,0,P|241:164|141:147,1,140,2|8,1:2|0:0,0:0:0:0:
87,216,45285,1,2,0:0:0:0:
143,329,45513,6,0,P|202:331|302:348,1,140,2|8,1:2|0:0,0:0:0:0:
356,279,46195,1,2,0:0:0:0:
300,166,46422,2,0,P|278:166|200:157,2,70,2|0|8,1:2|1:0|1:2,0:0:0:0:
391,131,47104,1,2,0:0:0:0:
348,5,47331,6,0,B|308:127|530:127|501:239,1,280,6|2,1:2|0:3,0:0:0:0:
477,307,48467,1,0,3:0:0:0:
396,250,48695,2,0,P|359:271|315:275,1,70,2|2,0:3|0:3,0:0:0:0:
234,362,49149,6,0,P|223:296|191:207,1,140,2|2,0:0|0:0,0:0:0:0:
152,140,49831,1,2,0:0:0:0:
280,108,50058,2,0,P|328:145|359:131,1,70,2|0,3:2|3:0,0:0:0:0:
400,214,50513,2,0,P|448:177|479:191,1,70,2|0,3:2|3:0,0:0:0:0:
489,48,50967,6,0,P|429:38|342:7,1,140,6|10,1:2|0:0,0:0:0:0:
287,84,51649,1,2,0:3:0:0:
287,84,51763,1,2,0:3:0:0:
287,84,51876,2,0,P|264:87|188:105,1,70,2|2,1:2|0:3,0:0:0:0:
130,51,52331,1,10,0:0:0:0:
86,176,52558,1,2,0:3:0:0:
86,176,52672,1,2,0:3:0:0:
86,176,52785,6,0,P|98:244|106:314,1,140,2|10,1:2|0:0,0:0:0:0:
196,352,53467,1,2,0:3:0:0:
248,268,53695,2,0,P|289:253|321:231,1,70,2|2,1:2|0:3,0:0:0:0:
384,304,54149,2,0,P|425:319|457:341,1,70,10|2,0:0|0:0,0:0:0:0:
501,205,54604,6,0,P|450:216|457:130,1,140,2|10,1:2|0:0,0:0:0:0:
487,63,55285,1,2,0:3:0:0:
487,63,55399,1,2,0:3:0:0:
487,63,55513,2,0,P|463:24|449:-13,1,70,2|2,1:2|0:3,0:0:0:0:
373,57,55967,2,0,P|358:88|339:118,1,70,10|2,0:0|0:3,0:0:0:0:
214,63,56422,6,0,P|174:56|72:16,1,140,2|10,1:2|0:0,0:0:0:0:
36,108,57104,1,2,0:3:0:0:
118,160,57331,1,2,1:2:0:0:
83,255,57558,1,2,0:1:0:0:
83,255,57672,1,2,0:1:0:0:
83,255,57785,2,0,B|131:262|131:262|154:309|188:351,1,140,10|6,0:2|1:2,0:0:0:0:
367,283,58695,6,0,P|354:229|350:195,1,70,10|2,0:0|0:3,0:0:0:0:
271,259,59149,1,2,1:2:0:0:
218,176,59376,1,2,0:3:0:0:
218,176,59604,2,0,P|231:122|235:88,1,70,10|2,0:0|0:3,0:0:0:0:
314,152,60058,5,2,1:2:0:0:
367,69,60285,1,2,0:3:0:0:
367,69,60513,2,0,P|354:15|350:-19,1,70,10|2,0:0|0:3,0:0:0:0:
306,9,60854,1,2,0:3:0:0:
306,9,60967,2,0,P|259:4|220:4,1,70,2|2,1:2|0:3,0:0:0:0:
153,57,61422,2,0,P|106:62|67:62,1,70,10|2,0:0|0:3,0:0:0:0:
9,160,61876,6,0,P|30:227|95:203,1,140,2|10,1:2|0:0,0:0:0:0:
178,173,62558,1,2,0:3:0:0:
178,173,62672,1,2,0:3:0:0:
178,173,62785,2,0,P|186:214|198:252,1,70,2|2,1:2|0:3,0:0:0:0:
231,331,63240,1,10,0:0:0:0:
302,264,63467,1,2,0:3:0:0:
302,264,63581,1,2,0:3:0:0:
302,264,63695,6,0,P|294:223|282:185,1,70,2|2,1:2|0:3,0:0:0:0:
252,103,64149,2,0,P|260:62|272:24,1,70,10|2,0:0|0:3,0:0:0:0:
364,16,64604,2,0,P|433:35|434:80,1,105,2|2,1:2|0:3,0:0:0:0:
416,102,65058,2,0,L|423:163,3,35,10|2|8|8,0:0|0:3|0:0|0:0,0:0:0:0:
443,180,65513,6,0,P|427:249|417:329,1,140,6|10,1:2|0:0,0:0:0:0:
338,373,66195,1,2,0:3:0:0:
338,373,66308,1,2,0:3:0:0:
338,373,66422,2,0,P|315:370|239:352,1,70,2|2,1:2|0:3,0:0:0:0:
173,336,66876,1,10,0:0:0:0:
228,218,67104,1,2,0:3:0:0:
228,218,67217,1,2,0:3:0:0:
228,218,67331,6,0,P|216:150|208:80,1,140,2|10,1:2|0:0,0:0:0:0:
138,10,68013,1,2,0:3:0:0:
73,84,68240,2,0,P|39:74|4:71,1,70,2|2,1:2|0:3,0:0:0:0:
21,167,68695,2,0,P|49:200|65:235,1,70,10|2,0:0|0:3,0:0:0:0:
125,343,69149,6,0,P|139:269|165:183,1,140,2|10,1:2|0:0,0:0:0:0:
200,122,69831,1,2,0:3:0:0:
200,122,69945,1,2,0:3:0:0:
200,122,70058,2,0,P|176:83|162:46,1,70,2|2,1:2|0:3,0:0:0:0:
260,31,70513,2,0,P|293:22|326:8,1,70,10|2,0:0|0:3,0:0:0:0:
393,116,70967,6,0,P|353:109|251:69,1,140,2|10,1:2|0:0,0:0:0:0:
190,143,71649,1,2,0:3:0:0:
271,197,71876,1,2,1:2:0:0:
256,299,72104,1,2,0:1:0:0:
256,299,72217,1,2,0:3:0:0:
256,299,72331,2,0,P|205:284|170:283,1,70,10|2,0:0|0:3,0:0:0:0:
86,366,72785,6,0,B|120:356|120:356|97:273,1,105,6|0,1:2|0:0,0:0:0:0:
88,240,73240,2,0,P|139:219|172:210,1,70,10|2,0:0|0:3,0:0:0:0:
98,141,73695,1,2,1:2:0:0:
172,77,73922,1,2,0:3:0:0:
172,77,74149,2,0,P|227:82|261:81,1,70,10|2,0:0|0:3,0:0:0:0:
210,169,74604,5,2,1:2:0:0:
300,210,74831,1,2,0:3:0:0:
300,210,75058,2,0,P|351:189|384:180,1,70,10|2,0:0|0:3,0:0:0:0:
417,197,75399,1,2,0:3:0:0:
417,197,75513,2,0,P|422:150|422:111,1,70,2|2,1:2|0:3,0:0:0:0:
402,31,75967,2,0,P|371:47|338:61,1,70,10|2,0:0|0:3,0:0:0:0:
212,19,76422,6,0,P|203:95|183:181,1,140,2|10,1:2|0:0,0:0:0:0:
251,245,77104,1,2,0:3:0:0:
251,245,77217,1,2,0:3:0:0:
251,245,77331,2,0,P|292:237|330:225,1,70,2|2,1:2|0:3,0:0:0:0:
408,269,77785,1,10,0:0:0:0:
453,186,78013,1,2,0:3:0:0:
453,186,78126,1,2,0:3:0:0:
453,186,78240,6,0,P|412:178|374:166,1,70,2|2,1:2|0:3,0:0:0:0:
321,94,78695,2,0,P|280:102|242:114,1,70,10|2,0:0|0:3,0:0:0:0:
189,184,79149,2,0,P|120:165|119:120,1,105,2|2,1:2|0:3,0:0:0:0:
131,95,79604,2,0,L|124:34,3,35,10|2|8|8,0:0|0:3|0:0|0:0,0:0:0:0:
96,23,80058,5,0,1:0:0:0:
192,4,80285,2,0,P|235:14|280:19,1,70,2|0,0:3|0:0,0:0:0:0:
331,85,80740,2,0,P|374:75|419:70,1,70,2|0,0:0|0:0,0:0:0:0:
473,6,81195,1,2,0:3:0:0:
495,138,81422,2,0,P|485:189|469:229,1,70,8|2,0:0|0:3,0:0:0:0:
479,205,81763,1,2,0:3:0:0:
479,205,81876,5,0,1:0:0:0:
410,275,82104,2,0,P|367:265|322:260,1,70,2|0,0:3|0:0,0:0:0:0:
271,194,82558,2,0,P|228:204|183:209,1,70,2|0,0:0|0:0,0:0:0:0:
112,206,83013,1,0,1:0:0:0:
112,206,83126,1,0,1:0:0:0:
112,206,83240,1,0,1:0:0:0:
99,347,83467,1,8,0:0:0:0:
99,347,83581,1,8,0:0:0:0:
99,347,83695,5,0,1:0:0:0:
13,299,83922,2,0,P|0:252|2:214,1,70,2|0,0:3|0:0,0:0:0:0:
56,151,84376,2,0,P|69:104|67:66,1,70,2|0,0:0|0:0,0:0:0:0:
13,3,84831,1,2,0:3:0:0:
146,28,85058,2,0,P|193:39|245:43,1,70,8|2,0:0|0:3,0:0:0:0:
214,41,85399,1,2,0:3:0:0:
214,41,85513,5,0,1:0:0:0:
308,15,85740,2,0,P|323:61|347:99,1,70,2|0,0:3|0:0,0:0:0:0:
274,158,86195,2,0,P|259:204|235:242,1,70,2|0,0:0|0:0,0:0:0:0:
301,305,86649,1,0,1:0:0:0:
301,305,86763,1,0,1:0:0:0:
301,305,86876,1,0,1:0:0:0:
434,284,87104,1,8,0:0:0:0:
434,284,87217,1,8,0:0:0:0:
434,284,87331,5,0,1:0:0:0:
387,197,87558,2,0,P|396:163|412:132,1,70,2|0,0:3|0:0,0:0:0:0:
318,161,88013,2,0,P|327:127|343:96,1,70,2|0,0:0|0:0,0:0:0:0:
421,37,88467,1,2,0:3:0:0:
293,1,88695,2,0,P|256:28|207:33,1,70,8|2,0:0|0:3,0:0:0:0:
233,33,89035,1,2,0:3:0:0:
233,33,89149,5,0,1:0:0:0:
204,127,89376,2,0,P|213:160|229:191,1,70,2|0,0:3|0:0,0:0:0:0:
135,163,89831,2,0,P|144:196|160:227,1,70,2|0,0:0|0:0,0:0:0:0:
243,297,90285,1,0,1:0:0:0:
243,297,90399,1,0,1:0:0:0:
243,297,90513,1,0,1:0:0:0:
123,347,90740,1,8,0:0:0:0:
123,347,90854,1,8,0:0:0:0:
123,347,90967,5,0,1:0:0:0:
73,257,91195,2,0,P|82:223|98:192,1,70,2|0,0:3|0:0,0:0:0:0:
4,221,91649,2,0,P|13:187|29:156,1,70,2|0,0:0|0:0,0:0:0:0:
109,100,92104,1,2,0:3:0:0:
223,157,92331,2,0,P|276:148|313:130,1,70,8|2,0:0|0:3,0:0:0:0:
290,142,92672,1,2,0:3:0:0:
290,142,92785,5,0,1:0:0:0:
373,195,93013,2,0,P|382:228|398:259,1,70,2|0,0:3|0:0,0:0:0:0:
304,231,93467,2,0,P|313:264|329:295,1,70,2|2,0:0|0:0,0:0:0:0:
412,365,93922,1,2,1:2:0:0:
412,365,94035,1,2,1:2:0:0:
412,365,94149,1,2,1:2:0:0:
447,234,94376,1,10,0:0:0:0:
447,234,94490,1,10,0:0:0:0:
447,234,94604,6,0,P|453:183|463:145,1,70,6|2,1:2|0:3,0:0:0:0:
394,89,95058,2,0,P|400:38|410:0,1,70,10|2,0:0|0:3,0:0:0:0:
306,9,95513,2,0,P|255:3|217:-7,1,70,2|2,1:2|0:3,0:0:0:0:
161,62,95967,2,0,P|110:56|72:46,1,70,10|2,0:0|0:3,0:0:0:0:
65,150,96422,6,0,P|59:201|49:239,1,70,2|2,1:2|0:3,0:0:0:0:
118,295,96876,2,0,P|112:346|102:384,1,70,10|2,0:0|0:3,0:0:0:0:
206,375,97331,2,0,P|257:381|295:391,1,70,2|2,1:2|0:3,0:0:0:0:
351,322,97785,2,0,P|402:328|440:338,1,70,10|2,0:0|0:3,0:0:0:0:
447,234,98240,5,6,1:2:0:0:
354,202,98467,1,2,0:0:0:0:
285,272,98695,1,10,0:0:0:0:
192,304,98922,1,2,0:3:0:0:
123,234,99149,5,2,1:2:0:0:
216,202,99376,1,2,0:3:0:0:
285,272,99604,1,10,0:0:0:0:
378,304,99831,1,2,0:3:0:0:
447,234,100058,6,0,P|434:173|434:141,1,70,2|2,1:2|0:3,0:0:0:0:
439,67,100513,1,10,0:0:0:0:
349,106,100740,1,2,0:3:0:0:
274,42,100967,6,0,P|261:103|261:135,1,70,2|2,1:2|0:3,0:0:0:0:
266,209,101422,1,10,0:0:0:0:
176,170,101649,1,2,0:3:0:0:
101,234,101876,6,0,P|88:173|88:141,1,70,6|2,1:2|0:3,0:0:0:0:
20,93,102331,2,0,P|7:32|7:0,1,70,10|2,0:0|0:3,0:0:0:0:
103,39,102785,2,0,P|164:26|196:26,1,70,2|2,1:2|0:3,0:0:0:0:
253,79,103240,2,0,P|314:66|346:66,1,70,10|2,0:0|0:3,0:0:0:0:
397,128,103695,6,0,P|410:189|410:221,1,70,2|2,1:2|0:3,0:0:0:0:
478,269,104149,2,0,P|491:330|491:362,1,70,10|2,0:0|0:3,0:0:0:0:
395,323,104604,2,0,P|334:336|302:336,1,70,2|2,1:2|0:3,0:0:0:0:
245,283,105058,2,0,P|184:296|152:296,1,70,10|2,0:0|0:3,0:0:0:0:
101,234,105513,5,6,1:2:0:0:
194,202,105740,1,2,0:0:0:0:
263,272,105967,1,10,0:0:0:0:
356,304,106195,1,2,0:3:0:0:
425,234,106422,5,2,1:2:0:0:
332,202,106649,1,2,0:3:0:0:
263,272,106876,1,10,0:0:0:0:
170,304,107104,1,2,0:3:0:0:
101,234,107331,6,0,P|114:173|114:141,1,70,2|2,1:2|0:3,0:0:0:0:
109,67,107785,1,10,0:0:0:0:
199,106,108013,1,2,0:3:0:0:
274,42,108240,6,0,P|287:103|287:135,1,70,2|2,1:2|0:3,0:0:0:0:
282,209,108695,1,2,1:3:0:0:
372,170,108922,1,2,1:3:0:0:
469,262,109149,6,0,P|482:201|482:169,2,70,6|2|10,1:2|0:3|0:0,0:0:0:0:
414,343,109831,2,0,P|376:307|272:288,1,140,2|2,0:0|0:0,0:0:0:0:
202,324,110513,2,0,P|170:300|174:254,1,70,10|2,0:0|0:0,0:0:0:0:
207,149,110967,6,0,P|254:139|337:83,1,140,2|10,1:2|0:0,0:0:0:0:
385,8,111649,1,2,0:3:0:0:
452,79,111876,2,0,P|438:142|437:173,1,70,2|2,1:2|0:3,0:0:0:0:
464,241,112331,1,10,0:0:0:0:
416,326,112558,1,10,0:0:0:0:
289,311,112785,6,0,B|239:337|210:279|146:280,1,140,6|10,1:2|0:0,0:0:0:0:
83,345,113467,1,2,0:0:0:0:
29,220,113695,2,0,B|79:246|108:188|172:189,1,140,2|8,1:2|0:0,0:0:0:0:
235,254,114376,1,2,0:3:0:0:
289,129,114604,6,0,B|239:155|210:97|146:98,1,140,2|8,1:2|0:0,0:0:0:0:
83,163,115285,1,2,0:0:0:0:
29,38,115513,2,0,B|79:64|108:6|172:7,1,140,2|10,1:2|0:0,0:0:0:0:
235,72,116195,1,2,0:3:0:0:
160,189,116422,6,0,P|164:223|162:258,2,70,6|2|8,1:2|0:0|0:0,0:0:0:0:
82,128,117104,2,0,B|57:146|4:103|20:1,1,140,2|2,0:0|0:0,0:0:0:0:
112,5,117785,1,10,0:0:0:0:
173,82,118013,1,2,0:0:0:0:
295,19,118240,6,0,P|350:28|393:28,1,70,2|0,1:2|0:0,0:0:0:0:
394,122,118695,2,0,P|339:113|296:113,1,70,10|0,0:0|0:0,0:0:0:0:
274,196,119149,2,0,P|329:205|372:205,1,70,2|2,1:2|0:3,0:0:0:0:
373,299,119604,2,0,P|318:290|275:290,1,70,10|2,0:0|0:3,0:0:0:0:
189,351,120058,6,0,P|248:349|348:332,1,140,6|8,1:2|0:0,0:0:0:0:
418,375,120740,1,2,0:0:0:0:
463,248,120967,2,0,P|404:246|304:229,1,140,2|8,1:2|0:0,0:0:0:0:
234,272,121649,1,2,0:0:0:0:
189,145,121876,2,0,P|248:143|348:126,1,140,2|8,1:2|0:0,0:0:0:0:
418,169,122558,1,2,0:0:0:0:
463,42,122785,2,0,P|404:40|364:34,2,70,2|0|8,1:2|1:0|1:2,0:0:0:0:
506,130,123467,1,2,0:0:0:0:
402,209,123695,6,0,B|293:202|269:71|152:60,1,280,6|2,1:2|0:3,0:0:0:0:
91,120,124831,1,0,3:0:0:0:
128,210,125058,2,0,P|112:269|109:299,1,70,2|2,0:3|0:3,0:0:0:0:
212,354,125513,6,0,B|261:365|261:365|305:327|270:272,1,140,2|2,0:0|0:0,0:0:0:0:
233,196,126195,1,2,0:0:0:0:
322,155,126422,2,0,P|329:112|340:67,2,70,2|2|2,0:0|0:0|0:0,0:0:0:0:
233,196,127104,1,0,0:0:0:0:
345,238,127331,6,0,P|352:281|363:326,2,70,2|2|2,0:0|0:3|0:0,0:0:0:0:
233,196,128013,1,2,0:3:0:0:
379,144,128240,2,0,P|386:101|397:56,2,70,2|2|2,3:2|3:3|3:2,0:0:0:0:
425,230,128922,1,2,3:3:0:0:
509,136,129149,6,0,P|458:195|387:161,1,140,6|2,0:0|0:0,0:0:0:0:
404,182,129831,1,2,0:0:0:0:
319,229,130058,1,2,0:0:0:0:
209,66,130513,2,0,P|202:119|192:146,1,70,2|2,0:0|0:0,0:0:0:0:
155,223,130967,5,2,0:0:0:0:
155,223,131422,2,0,P|111:214|7:205,1,140,2|2,0:0|0:0,0:0:0:0:
77,287,132104,1,2,0:0:0:0:
155,223,132331,2,0,P|140:174|132:124,1,70,2|0,0:0|0:0,0:0:0:0:
159,60,132785,5,2,0:0:0:0:
159,60,133240,2,0,P|118:45|85:25,2,70,2|0|2,0:0|0:0|0:0,0:0:0:0:
307,187,134149,2,0,P|348:172|381:152,2,70,2|0|2,0:0|0:0|0:0,0:0:0:0:
159,314,135058,6,0,P|118:299|85:279,1,70,2|2,0:0|0:0,0:0:0:0:
0,313,135513,2,0,P|-4:258|-13:214,1,70,2|0,0:0|0:0,0:0:0:0:
32,153,135967,2,0,P|73:138|106:118,1,70,2|0,0:0|0:0,0:0:0:0:
170,61,136422,5,2,0:0:0:0:
170,61,136876,2,0,P|177:105|193:151,2,70,2|2|2,0:0|0:0|0:0,0:0:0:0:
256,13,137558,1,0,0:0:0:0:
293,103,137785,2,0,P|286:147|270:193,1,70,2|2,0:0|0:0,0:0:0:0:
233,258,138240,5,2,0:0:0:0:
233,258,138695,2,0,P|294:272|324:284,1,70,2|0,0:0|0:0,0:0:0:0:
393,319,139149,1,2,0:0:0:0:
393,319,139376,1,2,0:0:0:0:
439,234,139604,1,2,0:0:0:0:
439,234,139831,1,2,0:0:0:0:
396,145,140058,5,2,0:0:0:0:
396,145,140513,2,0,P|455:124|473:110,1,70,2|0,0:0|0:0,0:0:0:0:
507,34,140967,1,2,0:0:0:0:
368,172,141422,2,0,P|309:151|291:137,1,70,2|2,0:0|0:0,0:0:0:0:
257,61,141876,5,2,0:0:0:0:
170,107,142104,2,0,P|185:163|187:201,1,70,2|0,0:3|0:0,0:0:0:0:
88,168,142558,2,0,P|103:224|105:262,1,70,2|0,0:3|0:0,0:0:0:0:
186,289,143013,2,0,P|171:345|169:383,2,70,2|0|2,0:3|0:0|0:3,0:0:0:0:
283,207,143695,6,0,P|343:197|430:166,1,140,6|10,1:2|0:0,0:0:0:0:
448,83,144376,1,2,0:3:0:0:
448,83,144490,1,2,0:3:0:0:
448,83,144604,2,0,P|403:69|353:65,1,70,2|2,1:2|0:3,0:0:0:0:
282,72,145058,1,10,0:0:0:0:
206,180,145285,1,2,0:3:0:0:
206,180,145399,1,2,0:3:0:0:
206,180,145513,6,0,P|218:248|226:318,1,140,2|10,1:2|0:0,0:0:0:0:
149,379,146195,1,2,0:3:0:0:
76,312,146422,2,0,P|35:301|-3:281,1,70,2|2,1:2|0:3,0:0:0:0:
53,201,146876,2,0,P|94:190|132:170,1,70,10|2,0:0|0:0,0:0:0:0:
187,66,147331,6,0,P|151:34|36:20,1,140,2|10,1:2|0:0,0:0:0:0:
10,96,148013,1,2,0:3:0:0:
10,96,148126,1,2,0:3:0:0:
10,96,148240,2,0,P|24:136|32:182,1,70,2|2,1:2|0:3,0:0:0:0:
107,223,148695,1,10,0:0:0:0:
41,295,148922,1,2,0:3:0:0:
160,361,149149,6,0,P|196:352|248:346,1,70,2|2,1:2|0:0,0:0:0:0:
287,268,149604,2,0,P|323:277|375:283,1,70,10|2,0:0|0:3,0:0:0:0:
418,356,150058,1,2,1:2:0:0:
491,290,150285,1,2,0:1:0:0:
491,290,150399,1,2,0:3:0:0:
491,290,150513,2,0,P|477:244|478:190,1,70,10|2,0:0|0:3,0:0:0:0:
500,101,150967,5,6,1:2:0:0:
313,40,151422,2,0,P|259:53|225:57,1,70,10|2,0:0|0:3,0:0:0:0:
289,136,151876,1,2,1:2:0:0:
206,189,152104,1,2,0:3:0:0:
206,189,152331,2,0,P|152:176|118:172,1,70,10|2,0:0|0:3,0:0:0:0:
182,93,152785,5,2,1:2:0:0:
99,40,153013,1,2,0:3:0:0:
99,40,153240,2,0,P|45:53|11:57,1,70,10|2,0:0|0:3,0:0:0:0:
3,95,153581,1,2,0:3:0:0:
3,95,153695,2,0,P|16:149|20:183,1,70,2|2,1:2|0:3,0:0:0:0:
91,228,154149,2,0,P|78:282|74:316,1,70,10|2,0:0|0:3,0:0:0:0:
193,359,154604,6,0,P|272:351|349:331,1,140,2|10,1:2|0:0,0:0:0:0:
426,302,155285,1,2,0:3:0:0:
426,302,155399,1,2,0:3:0:0:
426,302,155513,2,0,P|416:268|409:233,1,70,2|2,1:2|0:3,0:0:0:0:
323,187,155967,1,10,0:0:0:0:
408,135,156195,1,2,0:3:0:0:
408,135,156308,1,2,0:3:0:0:
408,135,156422,6,0,P|417:101|424:66,1,70,2|2,1:2|0:3,0:0:0:0:
344,9,156876,2,0,P|334:42|327:77,1,70,10|2,0:0|0:3,0:0:0:0:
268,155,157331,2,0,P|222:150|135:128,1,105,2|0,1:2|0:0,0:0:0:0:
122,162,157785,2,0,L|128:225,3,35,10|2|8|8,0:0|0:3|0:0|0:0,0:0:0:0:
165,225,158240,6,0,P|225:215|312:184,1,140,6|10,1:2|0:0,0:0:0:0:
396,155,158922,1,2,0:3:0:0:
396,155,159035,1,2,0:3:0:0:
396,155,159149,2,0,P|382:200|378:250,1,70,2|2,1:2|0:3,0:0:0:0:
400,318,159604,1,10,0:0:0:0:
311,348,159831,1,2,0:3:0:0:
311,348,159945,1,2,0:3:0:0:
311,348,160058,6,0,P|251:338|164:307,1,140,2|10,1:2|0:0,0:0:0:0:
84,271,160740,1,2,0:3:0:0:
84,271,160854,1,2,0:3:0:0:
84,271,160967,2,0,P|98:316|102:366,1,70,2|2,1:2|0:3,0:0:0:0:
196,364,161422,1,10,0:0:0:0:
259,248,161649,1,2,0:3:0:0:
259,248,161763,1,2,0:3:0:0:
259,248,161876,6,0,P|259:207|246:95,1,140,2|10,1:2|0:0,0:0:0:0:
226,12,162558,1,2,0:3:0:0:
140,59,162785,2,0,P|95:52|55:38,1,70,2|2,1:2|0:3,0:0:0:0:
17,126,163240,1,10,0:0:0:0:
119,218,163467,1,2,0:3:0:0:
119,218,163581,1,2,0:0:0:0:
119,218,163695,6,0,P|185:204|265:194,1,140,2|10,1:2|0:0,0:0:0:0:
339,247,164376,1,2,0:3:0:0:
406,175,164604,2,0,P|413:124|422:92,1,70,2|2,1:2|0:1,0:0:0:0:
407,62,164945,1,2,0:1:0:0:
407,62,165058,2,0,P|356:55|324:46,1,70,10|2,0:0|0:1,0:0:0:0:
212,7,165513,6,0,P|226:82|232:163,1,140,6|8,1:2|0:0,0:0:0:0:
139,244,166195,1,2,0:3:0:0:
139,244,166308,1,2,0:3:0:0:
139,244,166422,2,0,P|125:169|119:88,1,140,2|8,1:2|0:0,0:0:0:0:
212,7,167104,1,2,0:3:0:0:
212,7,167217,1,2,0:3:0:0:
212,7,167331,6,0,P|226:82|232:163,1,140,6|8,1:2|0:0,0:0:0:0:
139,244,168013,1,2,0:3:0:0:
139,244,168126,1,2,0:3:0:0:
139,244,168240,2,0,P|125:169|119:88,2,140,2|8|6,1:2|0:0|1:2,0:0:0:0:
175,334,169376,6,0,P|235:327|262:320,1,70,2|8,0:0|0:0,0:0:0:0:
332,367,169831,2,0,P|392:360|419:353,1,70,2|0,0:0|1:0,0:0:0:0:
452,274,170285,1,2,0:0:0:0:
452,274,170399,1,2,0:0:0:0:
452,274,170513,2,0,P|462:220|475:186,2,70,10|2|6,0:0|0:0|1:2,0:0:0:0:
377,337,171195,6,0,P|317:330|290:323,1,70,2|8,0:0|0:0,0:0:0:0:
220,370,171649,2,0,P|160:363|133:356,1,70,2|0,0:0|1:0,0:0:0:0:
66,332,172104,1,2,0:0:0:0:
66,332,172217,1,2,0:0:0:0:
66,332,172331,2,0,L|74:278,3,35,10|2|10|10,0:0|0:3|0:0|0:0,0:0:0:0:
95,254,172785,5,6,1:2:0:0:
188,283,173013,2,0,P|203:233|214:133,1,140,2|2,0:0|0:3,0:0:0:0:
196,49,173695,1,2,1:3:0:0:
112,99,173922,2,0,P|69:90|30:73,1,70,2|8,0:0|0:0,0:0:0:0:
12,206,174376,1,2,0:3:0:0:
12,206,174490,1,2,0:3:0:0:
12,206,174604,5,2,1:2:0:0:
101,244,174831,2,0,P|166:233|241:224,1,140,2|2,0:0|0:3,0:0:0:0:
323,275,175513,2,0,P|340:220|354:189,1,70,2|0,1:2|0:0,0:0:0:0:
274,140,175967,2,0,P|257:85|243:54,1,70,10|2,0:0|0:3,0:0:0:0:
323,5,176422,5,2,1:2:0:0:
323,5,176876,2,0,P|362:18|414:22,1,70,10|2,0:0|0:0,0:0:0:0:
488,17,177331,1,2,1:2:0:0:
424,202,177785,2,0,P|385:189|333:185,1,70,10|2,0:0|0:0,0:0:0:0:
259,190,178240,5,2,1:2:0:0:
323,5,178695,2,0,P|362:18|414:22,1,70,10|2,0:0|0:0,0:0:0:0:
488,17,179149,1,2,1:2:0:0:
424,202,179604,2,0,P|385:189|333:185,1,70,10|2,0:0|0:0,0:0:0:0:
312,202,179945,1,2,0:3:0:0:
312,202,180058,6,0,P|321:256|353:350,1,140,6|10,1:2|0:0,0:0:0:0:
450,380,180740,1,2,0:0:0:0:
450,380,180854,1,2,0:3:0:0:
450,380,180967,2,0,P|472:313|485:245,1,140,2|10,1:2|0:0,0:0:0:0:
447,166,181649,1,2,0:0:0:0:
447,166,181763,1,2,0:3:0:0:
447,166,181876,6,0,P|380:188|312:201,1,140,6|10,1:2|0:0,0:0:0:0:
248,276,182558,1,2,0:0:0:0:
248,276,182672,1,2,0:3:0:0:
248,276,182785,2,0,P|181:254|113:241,1,140,2|10,1:2|0:0,0:0:0:0:
49,166,183467,1,2,0:0:0:0:
49,166,183695,6,0,P|64:109|72:18,1,140,6|8,1:2|0:0,0:0:0:0:
160,91,184376,1,2,0:0:0:0:
160,91,184490,1,2,0:3:0:0:
160,91,184604,2,0,P|216:75|299:36,1,140,6|8,1:2|0:0,0:0:0:0:
281,149,185285,1,2,0:0:0:0:
281,149,185399,1,2,0:3:0:0:
281,149,185513,6,0,P|322:189|398:241,1,140,6|8,1:2|0:0,0:0:0:0:
479,275,186195,1,2,0:0:0:0:
420,353,186422,2,0,B|394:376|394:376|298:367,1,105,2|0,1:2|0:0,0:0:0:0:
280,346,186876,2,0,L|274:284,3,35,10|2|10|10,0:0|0:3|0:0|0:0,0:0:0:0:
296,265,187331,6,0,P|313:209|315:109,1,140,6|2,1:2|1:2,0:0:0:0:
295,32,188013,1,2,0:0:0:0:
295,32,188240,2,0,P|233:49|145:57,1,140,2|2,1:2|1:2,0:0:0:0:
60,45,188922,1,2,0:0:0:0:
21,169,189149,6,0,P|32:216|45:311,1,140,2|2,1:2|1:2,0:0:0:0:
115,375,189831,1,2,0:0:0:0:
206,341,190058,2,0,P|236:305|238:269,1,70,2|0,1:2|0:0,0:0:0:0:
328,240,190513,2,0,P|305:200|272:186,1,70,2|2,1:2|0:0,0:0:0:0:
190,161,190967,6,0,P|173:121|191:80,3,70,2|2|2|2,1:2|0:0|1:2|0:0,0:0:0:0:
247,26,191876,1,2,1:2:0:0:
331,75,192104,2,0,P|379:63|422:60,1,70,2|2,0:1|1:1,0:0:0:0:
496,69,192558,1,2,0:1:0:0:
447,190,192785,6,0,P|400:183|291:175,1,140,2|2,1:1|1:2,0:0:0:0:
223,225,193467,2,0,P|196:195|210:152,1,70,2|0,0:0|1:0,0:0:0:0:
110,127,193922,2,0,P|73:142|68:187,1,70,2|0,0:0|1:0,0:0:0:0:
108,256,194376,1,2,0:3:0:0:
231,193,194604,6,0,P|286:206|381:219,1,140,2|2,1:2|1:2,0:0:0:0:
445,287,195285,1,0,0:0:0:0:
445,287,195513,2,0,P|469:231|465:147,1,140,2|2,1:2|1:2,0:0:0:0:
437,59,196195,1,2,0:0:0:0:
314,100,196422,6,0,P|250:87|163:76,1,140,2|2,1:2|1:2,0:0:0:0:
78,85,197104,1,2,0:0:0:0:
147,154,197331,2,0,P|184:128|174:84,1,70,2|0,1:2|0:0,0:0:0:0:
280,77,197785,2,0,P|276:31|233:19,1,70,2|2,1:2|0:0,0:0:0:0:
160,20,198240,6,0,P|128:46|82:52,3,70,2|2|2|2,1:2|0:0|1:2|0:0,0:0:0:0:
53,143,199149,1,2,1:2:0:0:
139,188,199376,2,0,P|171:180|233:172,1,70,2|2,0:1|1:1,0:0:0:0:
282,110,199831,1,2,0:1:0:0:
397,174,200058,6,0,P|398:239|371:331,1,140,2|2,1:1|1:2,0:0:0:0:
303,373,200740,2,0,P|269:363|234:358,1,70,2|0,0:0|1:0,0:0:0:0:
195,268,201195,2,0,P|161:277|126:282,1,70,2|0,0:0|1:0,0:0:0:0:
43,380,201649,1,2,0:3:0:0:
43,380,201763,1,2,0:3:0:0:
43,380,201876,6,2,B|182:319|433:344|466:377,1,420.000016021729,2|0,1:2|0:0,0:0:0:0:
