osu file format v14

[General]
AudioFilename: audio.mp3
AudioLeadIn: 0
PreviewTime: 63173
Countdown: 0
SampleSet: Soft
StackLeniency: 0.3
Mode: 0
LetterboxInBreaks: 0
WidescreenStoryboard: 1

[Editor]
DistanceSpacing: 1.2
BeatDivisor: 4
GridSize: 32
TimelineZoom: 1

[Metadata]
Title:Acchi Muite (TV Size)
TitleUnicode:あっちむいて (TV Size)
Artist:Swimy
ArtistUnicode:Swimy
Creator:Sajinn
Version:Yorozuya
Source:Gintama°
Tags:rock jrock j-rock japanese 銀魂° 2015 ending Gintama season 4 male vocal anime armin a_r_m_i_n torriru nevo
BeatmapID:2970864
BeatmapSetID:1444242

[Difficulty]
HPDrainRate:5.2
CircleSize:4
OverallDifficulty:8.8
ApproachRate:9.2
SliderMultiplier:1.82
SliderTickRate:1

[Events]
//Background and Video events
0,0,"nevobg.jpg",0,0
//Break Periods
//Storyboard Layer 0 (Background)
//Storyboard Layer 1 (Fail)
//Storyboard Layer 2 (Pass)
//Storyboard Layer 3 (Foreground)
//Storyboard Layer 4 (Overlay)
//Storyboard Sound Samples

[TimingPoints]
1897,320.855614973262,4,2,22,50,1,0
1897,-161.290322580645,4,2,22,50,0,0
11763,-161.290322580645,4,2,22,5,0,0
11837,320.855614973262,4,2,22,80,1,0
11837,-81.9672131147541,4,2,22,80,0,0
12077,-81.9672131147541,4,2,22,5,0,0
12157,-98.0392156862745,4,2,22,80,0,0
13681,-98.0392156862745,4,2,22,5,0,0
13762,-98.0392156862745,4,2,22,80,0,0
16649,-312.5,4,2,22,80,0,0
16890,-81.9672131147541,4,2,22,5,0,0
16970,-81.9672131147541,4,2,22,80,0,0
17211,-81.9672131147541,4,2,22,5,0,0
17291,-98.0392156862745,4,2,22,80,0,0
18815,-98.0392156862745,4,2,22,5,0,0
18895,-98.0392156862745,4,2,22,80,0,0
20660,-81.9672131147541,4,2,22,80,0,0
20901,-81.9672131147541,4,2,22,5,0,0
20981,-81.9672131147541,4,2,22,80,0,0
21222,-81.9672131147541,4,2,22,5,0,0
21302,-81.9672131147541,4,2,22,80,0,0
21542,-81.9672131147541,4,2,22,5,0,0
21623,-81.9672131147541,4,2,22,80,0,0
22104,-81.9672131147541,4,2,22,80,0,0
22345,-81.9672131147541,4,2,22,5,0,0
22425,-98.0392156862745,4,2,22,80,0,0
23949,-98.0392156862745,4,2,22,5,0,0
24029,-98.0392156862745,4,2,22,80,0,0
26917,-312.5,4,2,22,80,0,0
27157,-81.9672131147541,4,2,22,5,0,0
27238,-81.9672131147541,4,2,22,80,0,0
27478,-81.9672131147541,4,2,22,5,0,0
27558,-98.0392156862745,4,2,22,80,0,0
29082,-98.0392156862745,4,2,22,5,0,0
29163,-98.0392156862745,4,2,22,80,0,0
30927,-81.9672131147541,4,2,22,80,0,0
31168,-81.9672131147541,4,2,22,5,0,0
31249,-81.9672131147541,4,2,22,80,0,0
31489,-81.9672131147541,4,2,22,5,0,0
31570,-81.9672131147541,4,2,22,80,0,0
31890,-81.9672131147541,4,2,22,70,0,0
32371,-121.951219512195,4,2,22,50,0,0
38708,-81.9672131147541,4,2,22,5,0,0
38788,-121.951219512195,4,2,22,50,0,0
40313,-121.951219512195,4,2,22,5,0,0
40393,-121.951219512195,4,2,22,50,0,0
41435,-81.9672131147541,4,2,22,5,0,0
41676,-121.951219512195,4,2,22,50,0,0
41756,-81.9672131147541,4,2,22,5,0,0
41997,-121.951219512195,4,2,22,50,0,0
42639,-81.967213114754,4,2,22,55,0,0
42879,-81.9672131147541,4,2,22,5,0,0
42959,-108.695652173913,4,2,22,55,0,0
43521,-81.9672131147541,4,2,22,5,0,0
43601,-108.695652173913,4,2,22,55,0,0
46088,-81.9672131147541,4,2,22,5,0,0
46168,-108.695652173913,4,2,22,55,0,0
47773,-108.695652173913,4,2,22,55,0,0
48013,-81.9672131147541,4,2,22,5,0,0
48093,-108.695652173913,4,2,22,55,0,0
49056,-108.695652173913,4,2,22,55,0,0
50340,-108.695652173913,4,2,22,55,0,0
50580,-81.9672131147541,4,2,22,5,0,0
50660,-108.695652173913,4,2,22,55,0,0
51623,-138.888888888889,4,2,22,55,0,0
52425,-312.5,4,2,22,55,0,0
52826,-81.9672131147541,4,2,22,5,0,0
52906,-161.290322580645,4,2,22,55,0,0
52986,-161.290322580645,4,2,22,40,0,0
55473,-192.307692307692,4,2,22,40,0,0
57719,-312.5,4,2,22,40,0,0
57959,-81.9672131147541,4,2,22,5,0,0
58040,-81.9672131147541,4,2,22,55,0,0
58280,-81.9672131147541,4,2,22,5,0,0
58361,-81.9672131147541,4,2,22,55,0,0
59323,-108.695652173913,4,2,22,55,0,0
60526,-81.9672131147541,4,2,22,5,0,0
60607,-108.695652173913,4,2,22,55,0,0
63173,-61.7283950617284,4,2,22,80,0,0
63414,-81.9672131147541,4,2,22,5,0,0
63494,-75.7575757575758,4,2,22,80,0,0
63735,-75.7575757575758,4,2,22,5,0,0
63816,-75.7575757575758,4,2,22,80,0,0
64377,-81.9672131147541,4,2,22,5,0,0
64457,-70.4225352112676,4,2,22,80,0,0
64697,-81.9672131147541,4,2,22,5,0,0
64778,-75.7575757575758,4,2,22,80,0,0
65019,-75.7575757575758,4,2,22,5,0,0
65099,-75.7575757575758,4,2,22,80,0,0
65660,-81.9672131147541,4,2,22,5,0,0
65740,-75.7575757575758,4,2,22,80,0,0
68307,-61.7283950617284,4,2,22,80,0,0
68548,-81.9672131147541,4,2,22,5,0,0
68628,-75.7575757575758,4,2,22,80,0,0
68869,-75.7575757575758,4,2,22,5,0,0
68949,-75.7575757575758,4,2,22,80,0,0
69510,-81.9672131147541,4,2,22,5,0,0
69591,-70.4225352112676,4,2,22,80,0,0
69831,-81.9672131147541,4,2,22,5,0,0
69911,-75.7575757575758,4,2,22,80,0,0
70153,-75.7575757575758,4,2,22,5,0,0
70233,-75.7575757575758,4,2,22,80,0,0
73441,-61.7283950617284,4,2,22,80,0,1
73681,-81.9672131147541,4,2,22,5,0,1
73762,-61.7283950617284,4,2,22,80,0,1
74724,-70.4225352112676,4,2,22,80,0,1
74965,-81.9672131147541,4,2,22,5,0,1
75045,-70.4225352112676,4,2,22,80,0,1
77291,-65.7894736842105,4,2,22,80,0,1
77532,-81.9672131147541,4,2,22,5,0,1
77612,-65.7894736842105,4,2,22,80,0,1
77853,-81.9672131147541,4,2,22,5,0,1
77933,-65.7894736842105,4,2,22,80,0,1
78173,-81.9672131147541,4,2,22,5,0,0
78254,-312.5,4,2,22,80,0,0
78494,-81.9672131147541,4,2,22,5,0,0
78574,-65.7894736842105,4,2,22,70,0,0
78815,-81.9672131147541,4,2,22,5,0,0
78895,-81.9672131147541,4,2,22,70,0,0
79136,-81.9672131147541,4,2,22,5,0,0
79217,-81.9672131147541,4,2,22,70,0,0
79778,-81.9672131147541,4,2,22,5,0,0
79858,-75.7575757575758,4,2,22,70,0,0
80099,-81.9672131147541,4,2,22,5,0,0
80179,-81.9672131147541,4,2,22,70,0,0
80420,-81.9672131147541,4,2,22,5,0,0
80500,-81.9672131147541,4,2,22,70,0,0
81061,-81.9672131147541,4,2,22,5,0,0
81141,-89.2857142857143,4,2,22,70,0,0
82104,-312.5,4,2,22,70,0,0
82345,-81.9672131147541,4,2,22,5,0,0
82425,-312.5,4,2,22,70,0,0
82746,-98.0392156862745,4,2,22,70,0,0
83628,-98.0392156862745,4,2,22,5,0,0
83708,-121.951219512195,4,2,22,60,0,0
86275,-98.0392156862744,4,2,22,60,0,0
86756,-121.951219512195,4,2,22,60,0,0

[Colours]
Combo1 : 255,168,211
Combo2 : 255,128,128
Combo3 : 255,0,0
Combo4 : 128,128,192
Combo5 : 183,183,255
Combo6 : 128,255,255

[HitObjects]
84,192,1897,6,0,P|114:154|195:170,2,112.839995523316,2|2|2,0:2|0:2|0:2,0:2:0:0:
249,271,2859,1,2,0:2:0:0:
256,279,3180,6,0,P|304:268|373:252,2,112.839995523316,2|2|2,0:2|0:2|0:2,0:2:0:0:
423,127,4142,1,2,0:2:0:0:
435,116,4463,6,0,B|398:86|351:111|351:111|328:158|275:154,1,169.259993284973,2|2,0:2|0:2,0:2:0:0:
225,106,5105,1,2,0:2:0:0:
213,97,5426,1,2,0:2:0:0:
63,223,5747,6,0,P|93:185|174:201,2,112.839995523316,2|2|2,0:2|0:2|0:2,0:2:0:0:
371,345,7030,6,0,P|383:296|402:222,2,112.839995523316,2|2|2,0:2|0:2|0:2,0:2:0:0:
327,165,7993,1,2,0:2:0:0:
320,154,8314,6,0,P|265:156|229:115,2,112.839995523316,2|2|2,0:2|0:2|0:2,0:2:0:0:
120,176,9276,1,2,0:2:0:0:
108,185,9597,6,0,P|99:220|91:247,1,56.4199977616578,2|0,0:2|0:2,0:2:0:0:
246,211,9918,2,0,P|220:185|200:165,1,56.4199977616578,2|0,0:2|0:2,0:2:0:0:
152,302,10239,2,0,P|186:292|214:285,1,56.4199977616578,2|0,0:2|0:2,0:2:0:0:
108,185,10560,2,0,P|99:220|91:247,1,56.4199977616578,2|0,0:2|0:2,0:2:0:0:
148,108,10880,5,2,0:2:0:0:
381,139,11837,6,0,B|444:127|444:127|460:65|393:34,1,166.529993139176,6|0,1:2|0:2,0:2:0:0:
374,148,12157,2,0,P|361:192|346:240,1,92.8200005665283,10|0,0:2|0:2,0:2:0:0:
469,384,12478,5,2,1:2:0:0:
419,326,12639,1,2,0:2:0:0:
295,362,12799,5,10,0:2:0:0:
495,308,12959,1,2,1:2:0:0:
349,228,13120,5,2,0:2:0:0:
289,281,13280,1,2,1:2:0:0:
125,215,13441,5,10,0:2:0:0:
252,154,13601,1,0,1:2:0:0:
206,280,13762,5,2,0:2:0:0:
177,122,13922,1,2,1:2:0:0:
246,68,14082,5,10,0:2:0:0:
252,154,14243,2,0,B|286:146|286:146|308:152|308:152|353:143,1,92.8200005665283,2|0,0:2|1:2,0:2:0:0:
452,77,14564,5,2,0:2:0:0:
349,228,14724,1,10,0:2:0:0:
462,65,14885,1,2,0:2:0:0:
475,205,15045,5,2,1:2:0:0:
368,74,15205,1,2,1:2:0:0:
487,217,15366,1,10,0:2:0:0:
292,168,15526,6,0,B|186:155|186:155|227:153|256:122,1,185.640001133057,2|2,1:2|1:2,0:2:0:0:
291,54,16008,1,10,0:2:0:0:
128,55,16168,2,0,P|139:116|162:239,1,185.640001133057,2|2,1:2|1:2,0:2:0:0:
56,366,16649,6,0,P|82:353|102:344,1,43.68,14|0,0:2|0:2,0:2:0:0:
186,315,16970,6,0,B|177:306|156:302|156:302|235:281|192:360|314:331,1,166.529993139176,6|0,1:2|0:2,0:2:0:0:
339,292,17291,2,0,B|363:253|363:253|338:191,1,92.8200005665283,10|0,0:2|0:2,0:2:0:0:
216,42,17612,5,2,1:2:0:0:
182,115,17772,1,2,1:2:0:0:
271,248,17933,5,10,0:2:0:0:
264,109,18093,1,2,1:2:0:0:
390,21,18254,5,2,1:2:0:0:
347,91,18414,1,2,1:2:0:0:
216,42,18574,5,10,0:2:0:0:
396,156,18735,1,0,1:2:0:0:
212,190,18895,5,2,0:2:0:0:
182,115,19056,1,2,1:2:0:0:
216,42,19216,5,10,0:2:0:0:
132,181,19377,2,0,P|90:154|44:165,1,92.8200005665283,2|0,0:2|1:2,0:2:0:0:
22,356,19697,5,2,0:2:0:0:
196,276,19858,1,10,0:2:0:0:
9,365,20018,1,2,0:2:0:0:
237,360,20179,5,2,1:2:0:0:
41,280,20339,1,2,1:2:0:0:
250,367,20500,1,10,0:2:0:0:
314,213,20660,6,0,B|290:270|290:270|318:335|395:303,1,166.529993139176,6|0,1:2|0:2,0:2:0:0:
459,198,20981,6,0,B|427:161|377:177|377:177|348:218|296:212,1,166.529993139176,6|0,1:2|0:2,0:2:0:0:
236,110,21302,6,0,P|307:130|302:225,1,166.529993139176,6|0,1:2|0:2,0:2:0:0:
113,218,21623,5,2,1:2:0:0:
55,50,21783,1,10,0:2:0:0:
251,34,21943,1,10,0:2:0:0:
315,210,22104,6,0,B|204:195|204:195|234:210|245:245,1,166.529993139176,6|0,1:2|0:2,0:2:0:0:
253,316,22425,2,0,P|300:303|353:289,1,92.8200005665283,10|0,0:2|0:2,0:2:0:0:
465,106,22746,5,2,1:2:0:0:
419,176,22906,1,2,1:2:0:0:
473,338,23066,5,10,0:2:0:0:
491,259,23227,1,2,1:2:0:0:
387,102,23387,5,2,0:2:0:0:
315,210,23548,1,2,1:2:0:0:
256,26,23708,5,10,0:2:0:0:
304,93,23869,1,0,1:2:0:0:
121,71,24029,5,2,0:2:0:0:
335,18,24189,1,2,1:2:0:0:
252,157,24350,5,10,0:2:0:0:
121,71,24510,2,0,B|148:113|148:113|123:169,1,92.8200005665283,2|0,0:2|1:2,0:2:0:0:
1,268,24831,5,2,0:2:0:0:
181,212,24992,1,10,0:2:0:0:
241,276,25152,1,2,0:2:0:0:
0,189,25312,5,2,1:2:0:0:
163,290,25473,1,2,1:2:0:0:
173,374,25633,1,10,0:2:0:0:
1,268,25794,6,0,B|41:288|81:331|81:331|66:278|91:236,1,185.640001133057,2|2,1:2|1:2,0:2:0:0:
81,168,26275,1,10,0:2:0:0:
163,290,26435,2,0,B|194:310|220:295|220:295|223:228|228:153,1,185.640001133057,2|2,1:2|1:2,0:2:0:0:
287,43,26917,6,0,P|316:35|332:31,1,43.68,14|0,0:2|0:2,0:2:0:0:
397,87,27238,6,0,B|388:82|381:83|381:83|442:68|442:68|485:98|440:167,1,166.529993139176,6|0,1:2|0:2,0:2:0:0:
387,194,27558,2,0,P|340:181|283:167,1,92.8200005665283,10|0,0:2|0:2,0:2:0:0:
150,33,27879,5,2,1:2:0:0:
213,83,28040,1,2,1:2:0:0:
183,262,28200,5,10,0:2:0:0:
56,166,28361,1,2,1:2:0:0:
224,167,28521,5,2,0:2:0:0:
57,249,28681,1,2,1:2:0:0:
56,166,28842,5,10,0:2:0:0:
141,332,29002,1,0,1:2:0:0:
297,299,29163,5,2,0:2:0:0:
225,337,29323,1,2,1:2:0:0:
296,217,29484,5,10,0:2:0:0:
297,299,29644,2,0,B|331:296|331:296|352:306|352:306|407:302,1,92.8200005665283,2|0,0:2|1:2,0:2:0:0:
493,163,29965,5,2,0:2:0:0:
384,227,30125,1,10,0:2:0:0:
261,141,30286,1,2,0:2:0:0:
501,175,30446,5,2,1:2:0:0:
382,246,30607,1,2,1:2:0:0:
246,147,30767,1,10,0:2:0:0:
37,230,30927,6,0,B|90:221|90:221|136:238|136:238|207:223,1,166.529993139176,6|0,1:2|0:2,0:2:0:0:
273,326,31248,6,0,P|201:305|202:219,1,166.529993139176,6|0,1:2|0:2,0:2:0:0:
246,147,31569,5,2,1:2:0:0:
116,311,31730,1,8,0:2:0:0:
37,230,31890,5,2,3:2:0:0:
79,168,32050,5,2,3:2:0:0:
32,107,32211,5,2,3:2:0:0:
165,98,32371,6,0,B|142:87|111:93|111:93|76:42|142:-8,1,149.240002277222,6|2,1:2|1:2,0:2:0:0:
364,27,33013,2,0,P|348:74|333:121,1,74.6200011386109,2|0,1:2|0:2,0:2:0:0:
268,228,33334,5,2,1:2:0:0:
204,177,33494,1,2,0:2:0:0:
357,187,33655,1,2,1:2:0:0:
288,230,33815,1,0,0:2:0:0:
340,97,33976,1,2,1:2:0:0:
363,170,34136,1,2,0:2:0:0:
211,46,34296,5,2,1:2:0:0:
160,104,34457,1,0,0:2:0:0:
218,35,34617,1,2,1:2:0:0:
260,115,34778,1,2,0:2:0:0:
53,202,34938,6,0,B|149:185|149:185|113:179|83:134,1,149.240002277222,2|2,1:2|1:2,0:2:0:0:
127,338,35580,2,0,P|97:303|122:259,1,74.6200011386109,2|0,1:2|0:2,0:2:0:0:
276,215,35901,5,2,1:2:0:0:
341,264,36061,1,2,0:2:0:0:
188,257,36222,1,2,1:2:0:0:
256,213,36382,1,0,0:2:0:0:
207,347,36543,1,2,1:2:0:0:
183,274,36703,1,2,0:2:0:0:
324,356,36863,2,0,B|340:320|342:265|342:265|352:297|376:331,1,149.240002277222,2|0,1:2|1:2,0:2:0:0:
490,182,37505,6,0,P|450:193|407:153,1,74.6200011386109,2|0,1:2|0:2,0:2:0:0:
295,53,37826,2,0,B|328:56|328:56|341:66|341:66|384:73,1,74.6200011386109,2|0,1:2|0:2,0:2:0:0:
268,177,38147,2,0,P|308:164|350:151,1,74.6200011386109,2|0,1:2|0:2,0:2:0:0:
195,59,38468,2,0,B|148:94|148:94|175:160,1,111.930001707916,2|0,1:2|0:2,0:2:0:0:
175,154,38788,6,0,P|162:194|149:236,1,74.6200011386109,2|0,1:2|0:2,0:2:0:0:
11,300,39109,2,0,P|48:274|82:284,1,74.6200011386109,2|0,1:2|0:2,0:2:0:0:
208,363,39430,2,0,B|179:360|179:360|165:349|165:349|135:345,1,74.6200011386109,2|0,1:2|0:2,0:2:0:0:
245,232,39751,2,0,P|258:272|271:314,1,74.6200011386109,2|0,1:2|0:2,0:2:0:0:
400,363,40072,5,2,1:2:0:0:
254,152,40393,1,2,1:2:0:0:
429,5,40714,2,0,P|442:45|455:87,1,74.6200011386109,2|0,1:2|0:2,0:2:0:0:
435,167,41034,2,0,P|398:141|364:151,1,74.6200011386109,2|0,1:2|3:2,0:2:0:0:
360,160,41275,1,0,0:2:0:0:
355,167,41355,6,0,L|368:221,1,37.3100005693054,2|0,1:2|0:2,0:2:0:0:
67,22,41676,2,0,L|54:76,1,37.3100005693054,2|0,1:2|0:2,0:2:0:0:
166,202,41997,5,0,3:2:0:0:
174,212,42318,1,0,3:2:0:0:
468,335,42639,6,0,B|436:313|420:253|420:253|422:297|387:323,1,166.529993139176,6|0,1:2|0:2,0:2:0:0:
380,327,42959,2,0,P|339:317|298:307,1,83.7199971895753,10|0,0:2|0:2,0:2:0:0:
64,259,43280,2,0,P|103:275|169:217,1,125.579995784363,2|0,1:2|0:2,0:2:0:0:
171,211,43601,5,10,0:2:0:0:
239,364,43762,1,2,0:2:0:0:
285,230,43922,1,2,1:2:0:0:
192,126,44082,1,2,0:2:0:0:
141,293,44243,1,10,0:2:0:0:
296,149,44403,1,2,0:2:0:0:
208,47,44564,5,2,1:2:0:0:
171,211,44724,1,2,0:2:0:0:
213,34,44885,1,10,0:2:0:0:
192,126,45045,1,2,0:2:0:0:
319,47,45205,6,0,B|359:11|401:31|401:31|421:75|477:78,1,167.439994379151,2|10,1:2|0:2,0:2:0:0:
512,9,45687,1,0,0:2:0:0:
512,198,45847,2,0,P|468:156|409:170,1,125.579995784363,2|0,1:2|0:2,0:2:0:0:
399,183,46168,5,10,0:2:0:0:
451,350,46328,1,2,0:2:0:0:
316,236,46489,1,2,1:2:0:0:
285,374,46649,1,2,0:2:0:0:
422,267,46810,1,10,0:2:0:0:
234,204,46970,1,2,0:2:0:0:
120,314,47131,2,0,B|225:292|225:292|185:289|157:249,1,167.439994379151,2|8,1:2|0:2,0:2:0:0:
68,88,47692,5,2,0:2:0:0:
75,82,47772,2,0,P|134:66|204:45,1,125.579995784363,2|0,1:2|0:2,0:2:0:0:
205,49,48093,2,0,P|236:79|225:134,1,83.7199971895753,10|0,0:2|0:2,0:2:0:0:
91,194,48414,2,0,B|125:200|125:200|141:214|141:214|186:220,1,83.7199971895753,2|0,1:2|0:2,0:2:0:0:
230,285,48735,1,10,0:2:0:0:
345,145,48895,5,0,0:2:0:0:
350,142,48976,1,2,0:2:0:0:
354,138,49056,2,0,P|341:198|317:309,1,167.439994379151,2|10,1:2|0:2,0:2:0:0:
422,362,49537,1,2,0:2:0:0:
429,369,49617,1,2,0:2:0:0:
429,369,49697,1,2,1:2:0:0:
415,252,49858,1,2,0:2:0:0:
418,247,49938,1,2,0:2:0:0:
421,242,50018,1,10,0:2:0:0:
318,301,50179,5,0,0:2:0:0:
313,306,50259,1,2,0:2:0:0:
309,310,50339,2,0,P|272:264|196:284,1,125.579995784363,2|0,1:2|0:2,0:2:0:0:
196,282,50660,5,10,0:2:0:0:
223,358,50820,1,2,0:2:0:0:
118,208,50981,5,2,1:2:0:0:
73,360,51141,1,10,0:2:0:0:
6,166,51302,5,10,0:2:0:0:
3,161,51382,1,8,0:2:0:0:
0,156,51462,1,2,1:2:0:0:
126,25,51623,5,14,0:2:0:0:
138,13,51943,2,0,B|186:13|186:13|215:33|215:33|273:39,1,131.040003199219,10|2,0:2|0:2,0:2:0:0:
337,8,52425,1,0,1:2:0:0:
455,184,52585,6,0,P|460:162|465:141,1,43.68,14|0,3:2|0:2,0:2:0:0:
442,192,52906,6,0,B|305:128|343:296|210:283|169:255|161:209|172:175|205:138|253:172,1,394.939984331605,6|0,1:2|0:2,0:2:0:0:
247,168,54189,6,0,B|204:116|226:5|226:5|196:86|132:89,1,282.099988808289,2|0,1:2|0:2,0:2:0:0:
145,91,55152,1,2,1:2:0:0:
83,207,55473,6,0,B|66:193|33:194|33:194|148:171|148:171|215:249|126:323,1,331.239997978272,2|0,1:2|0:2,0:2:0:0:
127,318,56756,5,2,1:2:0:0:
280,269,57398,5,8,0:2:0:0:
304,290,57478,5,8,0:2:0:0:
350,266,57558,5,0,1:2:0:0:
398,300,57639,5,0,1:2:0:0:
412,294,57719,6,0,P|416:260|421:238,1,43.68,14|0,0:2|0:2,0:2:0:0:
373,183,58040,6,0,B|396:170|430:170|430:170|452:101|368:72,1,166.529993139176,6|0,1:2|0:2,0:2:0:0:
376,75,58361,5,10,0:2:0:0:
294,122,58521,1,2,0:2:0:0:
230,76,58681,5,2,1:2:0:0:
103,157,58842,1,2,1:2:0:0:
178,177,59002,5,10,0:2:0:0:
94,42,59163,1,2,0:2:0:0:
191,189,59323,6,0,P|173:253|144:362,1,167.439994379151,2|10,1:2|0:2,0:2:0:0:
139,357,59804,1,2,0:2:0:0:
15,275,59965,2,0,P|52:242|93:248,1,83.7199971895753,2|0,1:2|1:2,0:2:0:0:
247,350,60286,2,0,B|273:323|290:299|290:299|317:320|349:340,1,125.579995784363,10|0,0:2|0:2,0:2:0:0:
347,333,60607,6,0,B|409:246|302:257|383:156,1,167.439994379151,6|2,1:2|0:2,0:2:0:0:
512,118,61088,2,0,B|475:141|475:141|412:107,1,83.7199971895753,8|2,0:2|0:2,0:2:0:0:
279,33,61409,1,0,1:2:0:0:
370,6,61569,2,0,P|356:52|342:106,1,83.7199971895753,10|2,0:2|0:2,0:2:0:0:
184,135,61890,2,0,B|220:98|265:112|265:112|288:160|343:163,1,167.439994379151,2|10,1:2|0:2,0:2:0:0:
331,168,62532,5,10,0:2:0:0:
368,199,62612,1,8,0:2:0:0:
373,249,62692,1,8,0:2:0:0:
348,290,62772,1,8,0:2:0:0:
340,296,62853,6,0,P|306:289|281:285,1,41.8599985947876,0|0,1:2|1:2,0:2:0:0:
205,377,63013,2,0,P|184:380|163:385,1,41.8599985947876,8|8,0:2|0:2,0:2:0:0:
55,207,63173,6,0,B|20:216|1:206|-6:160|14:136|40:121|83:116|146:165,1,221.130005398682,6|0,1:2|0:2,0:2:0:0:
133,240,63494,2,0,P|113:296|92:352,1,120.119999633423,10|0,0:2|0:2,0:2:0:0:
146,72,63815,2,0,P|177:37|245:47,1,120.119999633423,2|0,1:2|0:2,0:2:0:0:
435,195,64136,2,0,P|395:142|296:167,1,180.179999450134,10|0,0:2|0:2,0:2:0:0:
328,244,64457,6,0,B|294:257|260:245|260:245|208:307|270:368,1,193.829990239884,6|0,1:2|0:2,0:2:0:0:
347,372,64778,2,0,P|403:352|462:333,1,120.119999633423,10|0,0:2|0:2,0:2:0:0:
296,166,65099,2,0,P|265:131|191:146,1,120.119999633423,2|0,1:2|0:2,0:2:0:0:
8,323,65419,2,0,B|34:284|60:248|60:248|89:274|141:311,1,180.179999450134,10|0,0:2|0:2,0:2:0:0:
137,307,65740,6,0,B|202:194|52:196|134:83,1,240.239999266846,2|8,1:2|0:2,0:2:0:0:
287,77,66222,1,2,0:2:0:0:
412,157,66382,2,0,B|366:154|366:154|340:168|340:168|293:165,1,120.119999633423,2|0,1:2|0:2,0:2:0:0:
252,347,66703,2,0,B|288:298|288:298|254:239,1,120.119999633423,10|0,0:2|0:2,0:2:0:0:
20,335,67024,6,0,P|74:322|137:306,1,120.119999633423,2|0,1:2|0:2,0:2:0:0:
14,61,67345,2,0,P|63:71|133:86,1,120.119999633423,10|0,0:2|0:2,0:2:0:0:
306,164,67665,2,0,B|326:141|361:138|361:138|262:114|303:213|180:177,1,240.239999266846,2|8,1:2|0:2,0:2:0:0:
378,285,68307,6,0,B|507:264|507:264|460:264|416:225,1,221.130005398682,6|0,1:2|0:2,0:2:0:0:
369,292,68628,2,0,P|349:334|401:385,1,120.119999633423,10|0,0:2|0:2,0:2:0:0:
491,174,68949,2,0,P|475:125|450:54,1,120.119999633423,2|0,1:2|0:2,0:2:0:0:
125,166,69270,2,0,B|161:138|175:78|175:78|173:125|215:162,1,180.179999450134,10|0,0:2|0:2,0:2:0:0:
257,81,69591,6,0,B|287:71|314:52|314:52|391:78|354:160,1,193.829990239884,6|0,1:2|0:2,0:2:0:0:
325,236,69911,2,0,B|274:201|274:201|215:229,1,120.119999633423,10|0,0:2|0:2,0:2:0:0:
56,351,70232,2,0,B|101:342|101:342|127:354|127:354|172:345,1,120.119999633423,2|0,1:2|0:2,0:2:0:0:
330,323,70553,1,10,0:2:0:0:
145,244,70714,5,2,0:2:0:0:
350,331,70874,2,0,B|489:308|489:308|427:306|388:260,1,240.239999266846,2|8,1:2|0:2,0:2:0:0:
300,106,71355,5,2,0:2:0:0:
499,165,71516,2,0,B|452:104|384:137|384:137|344:207|276:187,1,240.239999266846,2|8,1:2|0:2,0:2:0:0:
128,76,71997,5,2,0:2:0:0:
156,251,72157,2,0,P|171:202|193:137,1,120.119999633423,2|0,1:2|0:2,0:2:0:0:
32,281,72478,2,0,P|16:232|-6:164,1,120.119999633423,10|0,0:2|0:2,0:2:0:0:
112,360,72799,2,0,P|152:291|296:304,1,240.239999266846,2|8,1:2|0:2,0:2:0:0:
390,344,73441,6,0,B|419:332|451:332|451:332|281:300,1,221.130005398682,6|0,1:2|0:2,0:2:0:0:
215,351,73762,5,10,0:2:0:0:
328,221,73922,1,2,0:2:0:0:
197,57,74082,5,2,1:2:0:0:
244,209,74243,1,2,0:2:0:0:
306,17,74403,5,10,0:2:0:0:
244,195,74564,1,2,0:2:0:0:
24,139,74724,6,0,B|61:89|121:100|121:100|144:143|204:143,1,193.829990239884,6|0,1:2|0:2,0:2:0:0:
258,107,75045,5,10,0:2:0:0:
462,44,75205,1,2,0:2:0:0:
512,212,75366,5,2,1:2:0:0:
351,89,75526,1,2,0:2:0:0:
382,308,75687,5,10,0:2:0:0:
429,127,75847,1,2,0:2:0:0:
465,375,76008,5,6,1:2:0:0:
322,206,76168,1,2,0:2:0:0:
113,215,76328,1,10,0:2:0:0:
256,384,76488,1,2,0:2:0:0:
222,147,76649,5,6,1:2:0:0:
0,88,76810,1,2,0:2:0:0:
22,311,76970,1,10,0:2:0:0:
244,370,77131,1,2,0:2:0:0:
222,147,77291,6,0,B|214:110|185:75|185:75|234:16|311:58,1,207.479997467285,6|0,1:2|0:2,0:2:0:0:
473,226,77612,6,0,B|444:188|422:128|422:128|407:186|354:214,1,207.479997467285,14|0,0:2|0:2,0:2:0:0:
187,279,77933,6,0,B|311:263|311:263|262:255|231:214,1,207.479997467285,6|0,1:2|0:2,0:2:0:0:
173,283,78254,6,0,P|162:315|158:330,1,43.68,8|0,0:2|0:2,0:2:0:0:
85,371,78574,6,0,B|39:344|-8:340|-8:340|38:300|59:247,1,207.479997467285,6|0,1:2|0:2,0:2:0:0:
93,184,78895,2,0,P|77:135|60:76,1,111.019995426117,10|0,0:2|0:2,0:2:0:0:
273,96,79216,2,0,P|216:110|168:55,1,111.019995426117,2|0,1:2|0:2,0:2:0:0:
497,161,79537,2,0,B|446:172|446:172|401:152|401:152|338:166,1,166.529993139176,10|0,0:2|0:2,0:2:0:0:
245,237,79858,6,0,B|335:204|308:321|406:294,1,180.179999450134,6|0,1:2|0:2,0:2:0:0:
475,293,80179,2,0,P|507:328|483:388,1,111.019995426117,10|0,0:2|0:2,0:2:0:0:
256,318,80500,2,0,P|207:334|139:357,1,111.019995426117,2|0,1:2|0:2,0:2:0:0:
32,217,80820,2,0,B|20:184|3:165|3:165|34:102|121:145,1,166.529993139176,10|0,0:2|0:2,0:2:0:0:
137,196,81141,6,0,B|247:231|198:73|325:124,1,203.840002488281,2|8,1:2|0:2,0:2:0:0:
434,197,81623,1,2,0:2:0:0:
352,298,81783,2,0,B|327:250|327:250|363:196,1,101.920001244141,2|0,1:2|0:2,0:2:0:0:
497,65,82104,6,0,P|471:57|451:51,1,43.68,14|0,0:2|0:2,0:2:0:0:
396,2,82425,5,2,1:2:0:0:
284,109,82585,1,8,0:2:0:0:
217,12,82746,5,10,0:2:0:0:
174,27,82826,1,8,0:2:0:0:
151,67,82906,1,8,0:2:0:0:
158,111,82986,1,8,0:2:0:0:
165,118,83066,5,10,0:2:0:0:
231,168,83227,5,0,3:2:0:0:
284,109,83387,5,2,3:2:0:0:
351,157,83548,5,0,3:2:0:0:
480,103,83708,6,0,B|390:82|390:82|419:100|426:125,1,149.240002277222,6|2,1:2|1:2,0:2:0:0:
468,254,84189,2,0,P|414:235|384:224,1,74.6200011386109,10|0,0:2|0:2,0:2:0:0:
230,295,84510,5,2,0:2:0:0:
288,250,84671,1,2,1:2:0:0:
421,336,84831,5,2,0:2:0:0:
345,315,84992,1,2,1:2:0:0:
224,384,85152,6,0,P|211:348|199:313,1,74.6200011386109,10|0,0:2|0:2,0:2:0:0:
41,216,85473,5,2,0:2:0:0:
104,255,85633,1,2,1:2:0:0:
193,163,85794,5,10,0:2:0:0:
242,171,85874,5,0,3:2:0:0:
270,144,85954,5,0,3:2:0:0:
316,172,86034,5,0,3:2:0:0:
327,159,86115,5,0,3:2:0:0:
350,170,86195,5,0,3:2:0:0:
359,161,86275,6,0,B|363:125|385:92|385:92|352:36|267:76,1,185.640001133057,6|2,1:2|1:2,0:2:0:0:
193,163,86756,2,0,P|183:201|200:234,1,74.6200011386109,10|0,0:2|0:2,0:2:0:0:
434,309,87077,5,2,0:2:0:0:
366,264,87238,1,2,1:2:0:0:
232,335,87398,5,2,0:2:0:0:
155,305,87558,1,2,1:2:0:0:
330,384,87719,6,0,P|317:348|305:313,1,74.6200011386109,10|0,0:2|0:2,0:2:0:0:
466,115,88040,5,10,0:2:0:0:
434,309,88200,5,10,0:2:0:0:
232,335,88361,5,10,0:2:0:0:
264,141,88521,5,10,0:2:0:0:
481,105,88681,5,10,0:2:0:0:
