osu file format v14

[General]
AudioFilename: audio.mp3
AudioLeadIn: 0
PreviewTime: 62184
Countdown: 0
SampleSet: Soft
StackLeniency: 0.4
Mode: 0
LetterboxInBreaks: 0
WidescreenStoryboard: 1

[Editor]
Bookmarks: 13414,24162,79510
DistanceSpacing: 0.8
BeatDivisor: 4
GridSize: 4
TimelineZoom: 3.499999

[Metadata]
Title:Acchi Muite (TV SIZE)
TitleUnicode:あっちむいて (TV SIZE)
Artist:Swimy
ArtistUnicode:スイミー
Creator:MisakiAN
Version:Memory
Source:銀魂゜
Tags:Gintama 2015 Ending. -Kilala-. Zyl. Yasaija 714
BeatmapID:1072098
BeatmapSetID:445872

[Difficulty]
HPDrainRate:6
CircleSize:4
OverallDifficulty:7.5
ApproachRate:9
SliderMultiplier:2.1
SliderTickRate:1

[Events]
//Background and Video events
Video,0,"video.avi"
0,0,"BG.jpg",0,0
//Break Periods
//Storyboard Layer 0 (Background)
//Storyboard Layer 1 (Fail)
//Storyboard Layer 2 (Pass)
//Storyboard Layer 3 (Foreground)
//Storyboard Sound Samples

[TimingPoints]
580,320.855614973262,4,2,0,79,1,0
900,-200,4,2,1,79,0,0
8521,-200,4,2,1,79,0,0
9724,-100,4,2,1,79,0,0
10044,-100,4,2,1,79,0,0
10124,-100,4,2,1,79,0,0
10847,-100,4,2,1,79,0,0
41010,-100,4,2,3,79,0,0
41411,-100,4,2,1,79,0,0
51759,-200,4,2,1,79,0,0
56892,-100,4,2,1,79,0,0
61542,-100,4,2,1,79,0,0
62184,-100,4,2,1,79,0,1
82719,-100,4,2,1,79,0,0

[Colours]
Combo1 : 222,200,122
Combo2 : 180,155,200
Combo3 : 102,231,253
Combo4 : 249,151,166
SliderBorder : 255,255,255

[HitObjects]
216,96,900,5,0,0:2:0:0:
120,224,1221,1,0,0:0:0:0:
240,296,1542,2,0,P|296:288|348:308,1,105
344,308,2184,5,0,0:0:0:0:
440,204,2505,1,0,0:0:0:0:
328,120,2825,2,0,P|272:136|216:120,1,105
80,108,3467,6,0,P|112:184|72:248,1,157.5
44,284,4109,2,0,P|112:280|156:296,1,105
264,340,4751,1,0,0:0:0:0:
400,272,5071,1,0,0:0:0:0:
288,120,5392,2,0,P|232:108|184:120,1,105
92,268,6034,6,0,P|136:284|208:268,1,105
232,184,6676,2,0,P|284:168|344:188,1,105
404,332,7317,6,0,P|420:276|404:232,1,105
316,176,7959,2,0,P|300:116|316:76,1,105
108,136,8601,6,0,B|100:104|100:104|104:68|104:68|94:21,2,105
64,264,9563,2,0,P|104:280|180:260,1,105
272,292,10205,6,0,L|300:292,15,26.25
344,292,10847,6,0,P|324:212|360:156,1,105,4|0,0:1|0:0,0:0:0:0:
464,112,11168,2,0,P|400:120|336:96,1,105,8|0,0:0|0:0,0:0:0:0:
276,56,11489,1,2,0:0:0:0:
224,208,11650,1,2,0:0:0:0:
308,264,11810,2,0,P|324:200|288:128,1,105,8|0,0:0|0:0,0:0:0:0:
160,160,12131,6,0,L|36:188,1,105,2|2,0:0|0:0,0:0:0:0:
96,292,12452,2,0,L|228:264,1,105,8|0,0:0|0:0,0:0:0:0:
328,212,12773,1,2,0:0:0:0:
240,116,12933,1,2,0:0:0:0:
292,300,13093,2,0,P|376:296|420:200,1,157.5,8|0,0:0|0:0,0:0:0:0:
364,144,13575,5,0,0:0:0:0:
176,104,13735,1,8,0:0:0:0:
248,240,13896,1,0,0:0:0:0:
292,64,14055,1,2,0:0:0:0:
128,28,14216,1,2,0:0:0:0:
80,184,14377,1,8,0:0:0:0:
192,309,14537,6,0,P|279:360|368:312,1,210,2|0,0:0|0:0,0:0:0:0:
412,232,15019,1,8,0:0:0:0:
368,148,15178,2,0,P|281:97|192:145,1,210,4|0,0:0|0:0,0:0:0:0:
152,240,15660,2,0,P|220:224|280:244,1,105,12|0,0:0|0:0,0:0:0:0:
440,336,15981,6,0,P|456:248|444:208,1,105,4|0,0:1|0:0,0:0:0:0:
256,128,16302,2,0,P|252:228|276:268,1,105,8|0,0:0|0:0,0:0:0:0:
364,276,16623,1,2,0:0:0:0:
448,104,16783,1,2,0:0:0:0:
336,208,16944,1,8,0:0:0:0:
464,280,17104,1,0,0:0:0:0:
512,200,17265,6,0,P|444:188|400:208,1,105
168,276,17585,2,0,P|248:292|304:256,1,105,8|0,0:0|0:0,0:0:0:0:
336,216,17906,1,2,0:0:0:0:
192,132,18067,1,2,0:0:0:0:
364,320,18227,2,0,P|436:260|392:128,1,210,8|0,0:0|0:0,0:0:0:0:
384,68,18708,5,0,0:0:0:0:
324,208,18869,1,8,0:0:0:0:
512,296,19029,1,0,0:0:0:0:
392,92,19190,1,2,0:0:0:0:
368,320,19350,1,2,0:0:0:0:
508,184,19511,1,8,0:0:0:0:
264,224,19671,6,0,B|184:224|184:224|128:252|128:252|56:252,2,210,2|2|2,0:0|0:0|0:0,0:0:0:0:
264,224,20634,1,8,0:0:0:0:
440,256,20794,1,8,0:0:0:0:
320,132,20954,1,8,0:0:0:0:
352,328,21115,6,0,P|360:256|340:204,1,105,4|0,0:1|0:0,0:0:0:0:
208,88,21436,2,0,P|204:180|236:232,1,105,8|0,0:0|0:0,0:0:0:0:
284,280,21757,1,2,0:0:0:0:
404,192,21917,1,2,0:0:0:0:
368,64,22077,2,0,L|252:36,1,105,8|0,0:0|0:0,0:0:0:0:
164,65,22398,6,0,P|132:121|144:177,1,105
224,328,22719,2,0,P|252:260|232:196,1,105,8|0,0:0|0:0,0:0:0:0:
135,159,23040,1,2,0:0:0:0:
216,20,23200,1,2,0:0:0:0:
332,64,23361,2,0,P|416:96|432:232,1,210,8|0,0:0|0:0,0:0:0:0:
360,312,23842,5,0,0:0:0:0:
304,240,24002,2,0,P|288:188|307:131,1,105,8|0,0:0|0:0,0:0:0:0:
412,136,24323,2,0,P|424:196|404:260,1,105,2|2,0:0|0:0,0:0:0:0:
360,312,24644,1,8,0:0:0:0:
224,315,24805,6,0,P|104:324|25:244,1,210
156,192,25286,1,8,0:0:0:0:
156,192,25446,2,0,L|264:136,1,105,4|0,0:0|0:0,0:0:0:0:
356,92,25767,1,0,0:0:0:0:
460,275,25928,2,0,P|471:214|439:140,1,105,12|0,0:0|0:0,0:0:0:0:
344,224,26249,6,0,P|276:240|216:216,1,105,4|0,0:1|0:0,0:0:0:0:
96,136,26569,2,0,P|152:120|216:144,1,105,8|0,0:0|0:0,0:0:0:0:
336,116,26890,2,0,L|420:48,1,105,2|2,0:0|0:0,0:0:0:0:
344,224,27211,2,0,L|468:240,1,105,8|0,0:0|0:0,0:0:0:0:
249,277,27531,6,0,P|237:200|275:141,1,105
336,116,27852,2,0,P|347:65|332:15,1,105,8|0,0:0|0:0,0:0:0:0:
196,96,28174,1,2,0:0:0:0:
384,200,28334,1,2,0:0:0:0:
243,26,28495,2,0,P|148:28|137:158,1,210,8|0,0:0|0:0,0:0:0:0:
224,300,28976,6,0,P|232:224|216:172,1,105,0|8,0:0|0:0,0:0:0:0:
116,124,29297,1,0,0:0:0:0:
94,257,29457,1,2,0:0:0:0:
301,183,29618,1,2,0:0:0:0:
131,102,29778,1,8,0:0:0:0:
304,288,29938,6,0,B|372:288|372:288|436:316|436:316|512:316,2,210,2|2|2,0:0|0:0|0:0,0:0:0:0:
178,286,30740,1,8,0:0:0:0:
284,156,30901,1,2,0:0:0:0:
398,284,31061,1,2,0:0:0:0:
178,286,31221,1,2,0:0:0:0:
125,186,31382,5,4,0:1:0:0:
248,84,31703,1,8,0:0:0:0:
372,196,32024,1,0,0:0:0:0:
372,196,32345,6,0,L|268:156,1,105,8|0,0:0|0:0,0:0:0:0:
232,52,32666,2,0,L|336:92,1,105,2|2,0:0|0:0,0:0:0:0:
436,128,32986,1,8,0:0:0:0:
496,252,33147,1,8,0:0:0:0:
372,208,33307,2,0,P|354:287|385:338,1,105
437,366,33628,2,0,P|456:294|439:251,1,105,8|0,0:0|0:0,0:0:0:0:
300,160,33949,5,4,0:1:0:0:
128,214,34270,1,8,0:0:0:0:
248,344,34591,1,0,0:0:0:0:
248,344,34912,6,0,P|260:280|244:228,1,105,8|0,0:0|0:0,0:0:0:0:
176,88,35233,2,0,P|164:156|192:212,1,105,2|2,0:0|0:0,0:0:0:0:
254,282,35553,1,8,0:0:0:0:
326,148,35714,1,8,0:0:0:0:
248,52,35874,2,0,B|133:17|156:84|29:45,1,210,0|8,0:0|0:0,0:0:0:0:
64,185,36516,5,4,0:1:0:0:
196,296,36837,1,8,0:0:0:0:
320,176,37158,1,0,0:0:0:0:
192,48,37479,1,8,0:0:0:0:
444,160,37799,6,0,P|392:196|332:192,1,105
349,292,38120,2,8,P|288:273|260:224,1,105
172,253,38441,2,0,P|185:188|239:155,1,105
340,128,38762,1,8,0:0:0:0:
336,292,39083,5,4,0:1:0:0:
168,292,39404,1,8,0:0:0:0:
172,124,39725,1,0,0:0:0:0:
340,128,40045,1,8,0:0:0:0:
340,128,40366,6,0,L|428:64,1,105,8|0,0:0|0:0,0:0:0:0:
444,160,40687,2,0,L|352:224,1,105,8|0,0:0|0:0,0:0:0:0:
268,284,41008,5,8,0:0:0:0:
268,284,41329,1,8,0:0:0:0:
144,292,41650,6,0,P|88:248|76:176,1,105,4|0,0:1|0:0,0:0:0:0:
92,72,41970,2,0,P|144:116|152:176,1,105,8|0,0:0|0:0,0:0:0:0:
268,284,42291,2,0,P|228:228|256:160,1,105,2|2,0:0|0:0,0:0:0:0:
316,104,42612,5,8,0:0:0:0:
400,40,42773,1,0,0:0:0:0:
448,136,42933,2,0,P|448:220|428:240,1,105,2|2,0:0|0:0,0:0:0:0:
356,293,43254,2,0,P|336:228|371:164,1,105,8|0,0:0|0:0,0:0:0:0:
437,232,43575,1,2,0:0:0:0:
252,328,43735,1,2,0:0:0:0:
380,116,43896,1,8,0:0:0:0:
240,76,44056,1,8,0:0:0:0:
184,224,44216,6,0,P|124:240|52:208,1,105,4|0,0:1|0:0,0:0:0:0:
22,134,44537,2,0,P|89:116|146:141,1,105,8|0,0:0|0:0,0:0:0:0:
201,319,44858,2,0,P|174:258|198:206,1,105,2|2,0:0|0:0,0:0:0:0:
280,152,45179,5,8,0:0:0:0:
376,212,45339,1,0,0:0:0:0:
276,328,45500,2,0,L|272:220,1,105,2|2,0:0|0:0,0:0:0:0:
276,76,45821,2,0,P|212:76|168:52,1,105,8|0,0:0|0:0,0:0:0:0:
116,136,46142,2,0,P|130:199|92:271,1,105,2|2,0:0|0:0,0:0:0:0:
24,192,46462,1,8,0:0:0:0:
24,192,46623,1,8,0:0:0:0:
176,298,46783,6,0,P|217:248|199:166,1,105,4|0,0:1|0:0,0:0:0:0:
296,32,47104,2,0,P|288:120|320:168,1,105,8|0,0:0|0:0,0:0:0:0:
491,167,47425,2,0,P|426:154|356:185,1,105,2|2,0:0|0:0,0:0:0:0:
436,280,47746,1,8,0:0:0:0:
328,340,47906,1,0,0:0:0:0:
232,280,48066,2,0,P|160:272|88:288,1,105,2|2,0:0|0:0,0:0:0:0:
36,160,48387,2,0,P|116:168|180:144,1,105,8|0,0:0|0:0,0:0:0:0:
204,80,48708,2,0,P|316:76|340:184,1,210,0|8,0:0|0:0,0:0:0:0:
348,153,49190,1,8,0:0:0:0:
296,296,49350,5,4,0:1:0:0:
180,252,49510,1,0,0:0:0:0:
208,152,49670,2,0,P|204:80|224:28,1,105,8|0,0:0|0:0,0:0:0:0:
364,168,49991,2,0,P|376:236|356:292,1,105,2|2,0:0|0:0,0:0:0:0:
276,320,50312,1,0,0:0:0:0:
276,320,50393,1,2,0:0:0:0:
276,320,50473,1,2,0:0:0:0:
136,336,50634,5,2,0:0:0:0:
56,252,50954,5,8,0:0:0:0:
136,172,51275,5,4,0:0:0:0:
136,172,51596,5,8,0:0:0:0:
226,260,51916,2,0,P|261:191|257:135,1,105,4|0,0:1|0:0,0:0:0:0:
320,112,52398,2,0,P|356:132|428:128,1,105
392,316,52880,2,0,P|388:260|392:248,1,52.5,2|0,0:0|0:0,0:0:0:0:
296,228,53200,6,0,P|277:306|239:327,1,105,2|0,0:0|0:0,0:0:0:0:
216,248,53682,2,0,P|164:224|116:232,1,105
76,156,54163,2,0,L|120:124,1,52.5,2|0,0:0|0:0,0:0:0:0:
200,72,54484,6,0,P|256:92|320:80,1,105,2|0,0:0|0:0,0:0:0:0:
380,132,54965,2,0,P|368:176|392:244,1,105
324,296,55446,2,0,L|272:308,1,52.5,2|0,0:0|0:0,0:0:0:0:
199,265,55767,6,0,P|154:233|95:230,1,105,2|0,0:0|0:0,0:0:0:0:
120,324,56249,1,0,0:0:0:0:
36,184,56409,1,2,0:0:0:0:
36,184,56489,1,2,0:0:0:0:
36,184,56569,1,2,0:0:0:0:
156,92,56730,1,4,0:0:0:0:
408,244,57051,6,0,P|420:160|400:104,1,105,4|0,0:1|0:0,0:0:0:0:
328,80,57372,1,8,0:0:0:0:
256,240,57532,1,0,0:0:0:0:
424,84,57692,5,2,0:0:0:0:
344,312,57853,1,2,0:0:0:0:
224,136,58013,1,8,0:0:0:0:
444,188,58174,1,0,0:0:0:0:
256,300,58334,6,0,P|196:312|60:228,1,210,4|8,0:1|0:0,0:0:0:0:
56,144,58815,1,2,0:0:0:0:
132,80,58976,2,0,P|192:68|328:152,1,210,2|8,0:0|0:0,0:0:0:0:
376,252,59457,1,0,0:0:0:0:
244,344,59618,6,0,P|228:292|248:236,1,105,4|0,0:1|0:0,0:0:0:0:
312,40,59938,2,0,P|328:100|312:148,1,105,2|8,0:0|0:0,0:0:0:0:
204,168,60259,6,0,P|156:184|92:164,1,105,2|2,0:0|0:0,0:0:0:0:
12,84,60580,2,0,P|68:68|150:100,1,105,8|0,0:0|0:0,0:0:0:0:
238,89,60901,1,0,0:0:0:0:
238,89,61061,1,0,0:0:0:0:
228,352,61221,6,0,P|220:275|260:224,1,105,12|0,0:0|0:0,0:0:0:0:
312,304,61542,6,2,P|356:289|377:261,3,52.5
392,256,61863,1,2,0:0:0:0:
414,234,61943,1,2,0:0:0:0:
429,206,62023,1,2,0:0:0:0:
436,176,62103,1,2,0:0:0:0:
440,156,62184,6,0,P|448:80|416:32,1,105,4|0,0:1|0:0,0:0:0:0:
308,168,62505,2,0,P|296:236|328:288,1,105,8|0,0:0|0:0,0:0:0:0:
396,208,62826,2,0,L|488:156,1,105,2|2,0:0|0:0,0:0:0:0:
404,320,63147,2,0,L|300:372,1,105,8|0,0:0|0:0,0:0:0:0:
192,336,63468,6,0,P|204:268|176:216,1,105,4|0,0:1|0:0,0:0:0:0:
63,137,63789,2,0,P|112:151|194:123,1,105,8|0,0:0|0:0,0:0:0:0:
260,64,64109,1,2,0:0:0:0:
120,24,64269,1,2,0:0:0:0:
212,240,64430,1,8,0:0:0:0:
344,104,64590,1,0,0:0:0:0:
245,115,64751,6,0,P|288:184|435:150,1,210,4|8,0:1|0:0,0:0:0:0:
352,52,65233,1,0,0:0:0:0:
245,115,65393,2,0,P|213:163|217:239,1,105,2|2,0:0|0:0,0:0:0:0:
344,332,65714,2,0,P|288:296|220:308,1,105,8|0,0:0|0:0,0:0:0:0:
120,264,66035,6,0,L|68:156,1,105,4|0,0:1|0:0,0:0:0:0:
204,160,66356,2,0,L|184:48,1,105,8|0,0:0|0:0,0:0:0:0:
320,112,66676,2,2,L|352:-28,1,105
456,60,66997,1,8,0:0:0:0:
404,200,67158,1,2,0:0:0:0:
404,200,67238,1,2,0:0:0:0:
404,200,67318,6,0,P|328:204|280:180,1,105,4|0,0:1|0:0,0:0:0:0:
168,88,67639,2,0,P|220:84|292:112,1,105,8|0,0:0|0:0,0:0:0:0:
400,132,67960,1,2,0:0:0:0:
296,272,68120,1,2,0:0:0:0:
184,160,68281,1,8,0:0:0:0:
284,40,68441,1,0,0:0:0:0:
284,40,68602,6,0,P|300:100|276:176,1,105,4|0,0:1|0:0,0:0:0:0:
216,308,68922,2,0,P|200:248|216:200,1,105,8|0,0:0|0:0,0:0:0:0:
293,141,69243,1,2,0:0:0:0:
368,220,69404,1,2,0:0:0:0:
328,316,69564,1,8,0:0:0:0:
220,312,69725,1,0,0:0:0:0:
220,312,69885,6,0,P|144:344|20:288,1,210,4|8,0:1|0:0,0:0:0:0:
48,152,70366,1,0,0:0:0:0:
213,121,70527,2,0,P|249:181|205:325,1,210,0|8,0:0|0:0,0:0:0:0:
304,368,71008,1,0,0:0:0:0:
408,320,71168,6,0,P|428:256|424:216,1,105,4|0,0:1|0:0,0:0:0:0:
340,48,71489,2,0,P|324:128|344:180,1,105,8|0,0:0|0:0,0:0:0:0:
408,320,71810,2,0,P|352:304|276:332,1,105,2|2,0:0|0:0,0:0:0:0:
172,344,72131,1,8,0:0:0:0:
172,344,72211,1,2,0:0:0:0:
172,344,72291,1,0,0:0:0:0:
112,159,72451,5,4,0:1:0:0:
296,128,72612,1,0,0:0:0:0:
164,260,72772,1,8,0:0:0:0:
193,67,72932,1,0,0:0:0:0:
278,242,73093,1,2,0:0:0:0:
104,163,73253,1,2,0:0:0:0:
305,127,73414,1,8,0:0:0:0:
164,260,73574,1,0,0:0:0:0:
164,260,73735,6,0,P|148:208|164:152,1,105,4|0,0:1|0:0,0:0:0:0:
264,84,74056,1,8,0:0:0:0:
360,159,74216,1,0,0:0:0:0:
320,280,74377,1,2,0:0:0:0:
192,272,74537,1,2,0:0:0:0:
160,160,74698,1,8,0:0:0:0:
264,84,74858,1,0,0:0:0:0:
384,188,75018,6,0,P|404:240|381:308,1,105,4|0,0:1|0:0,0:0:0:0:
324,348,75339,2,0,P|304:296|327:228,1,105,8|0,0:0|0:0,0:0:0:0:
360,120,75660,1,2,0:0:0:0:
214,206,75820,1,2,0:0:0:0:
396,288,75981,1,8,0:0:0:0:
264,96,76142,1,0,0:0:0:0:
128,260,76302,6,2,B|104:188|104:188|112:128|112:128|84:32,2,210,4|8|2,0:1|0:0|0:0,0:0:0:0:
136,264,77265,1,8,0:0:0:0:
136,264,77345,1,2,0:0:0:0:
136,264,77425,1,2,0:0:0:0:
320,336,77585,6,0,P|340:276|320:208,1,105,4|0,0:1|0:0,0:0:0:0:
276,56,77906,2,0,P|256:112|284:180,1,105,8|0,0:0|0:0,0:0:0:0:
356,116,78227,1,2,0:0:0:0:
264,284,78388,1,2,0:0:0:0:
416,168,78548,1,8,0:0:0:0:
320,336,78708,1,0,0:0:0:0:
320,336,78869,6,0,L|184:328,1,105,4|0,0:1|0:0,0:0:0:0:
96,228,79190,2,0,L|224:236,1,105,8|0,0:0|0:0,0:0:0:0:
316,208,79510,2,0,L|448:148,1,105,2|2,0:0|0:0,0:0:0:0:
240,124,79831,2,0,L|312:16,1,105,8|0,0:0|0:0,0:0:0:0:
188,248,80152,6,4,P|228:320|368:328,1,210,4|8,0:1|0:0,0:1:0:0:
488,256,80634,1,0,0:0:0:0:
456,120,80794,2,0,P|428:80|376:56,1,105,2|2,0:0|0:0,0:0:0:0:
244,100,81115,2,0,P|272:140|324:168,1,105,8|0,0:0|0:0,0:0:0:0:
432,196,81436,1,4,0:1:0:0:
296,320,81596,5,2,0:0:0:0:
296,320,81676,1,2,0:0:0:0:
296,320,81757,1,2,0:0:0:0:
176,160,81917,1,8,0:0:0:0:
80,328,82077,1,2,0:0:0:0:
80,328,82158,1,2,0:0:0:0:
80,328,82238,2,0,P|96:264|68:188,1,105,2|0,0:0|0:0,0:0:0:0:
89,226,82719,6,0,B|165:246|213:170|329:226,1,210,4|2,0:1|0:0,0:0:0:0:
432,284,83200,1,8,0:0:0:0:
432,284,83521,1,2,0:0:0:0:
464,180,83681,2,0,P|465:128|443:80,1,105,2|2,0:0|0:0,0:0:0:0:
272,32,84003,1,2,0:0:0:0:
320,248,84163,1,8,0:0:0:0:
320,248,84484,5,0,0:0:0:0:
172,340,84644,1,2,0:0:0:0:
72,200,84805,1,8,0:0:0:0:
232,108,84965,1,2,0:0:0:0:
232,108,85045,1,2,0:0:0:0:
232,108,85126,1,2,0:0:0:0:
324,244,85286,6,0,L|352:136,2,105,4|0|2,0:1|0:0|0:0,0:0:0:0:
180,280,85767,1,8,0:0:0:0:
180,280,86088,1,0,0:0:0:0:
76,60,86249,1,2,0:0:0:0:
272,84,86409,1,2,0:0:0:0:
36,232,86569,1,2,0:0:0:0:
160,16,86730,1,8,0:0:0:0:
160,16,87051,5,8,0:0:0:0:
180,320,87211,1,8,0:0:0:0:
60,176,87372,1,8,0:0:0:0:
256,164,87532,1,8,0:0:0:0:
44,344,87692,1,8,0:0:0:0:
