osu file format v14

[General]
AudioFilename: audio.mp3
AudioLeadIn: 0
PreviewTime: 62184
Countdown: 0
SampleSet: Soft
StackLeniency: 0.4
Mode: 0
LetterboxInBreaks: 0
WidescreenStoryboard: 0

[Editor]
DistanceSpacing: 0.9
BeatDivisor: 4
GridSize: 4
TimelineZoom: 1.7

[Metadata]
Title:Acchi Muite (TV SIZE)
TitleUnicode:あっちむいて (TV SIZE)
Artist:Swimy
ArtistUnicode:スイミー
Creator:MisakiAN
Version:Insane
Source:銀魂゜
Tags:Gintama 2015 Ending. -Kilala-. Zyl. Yasaija 714
BeatmapID:957777
BeatmapSetID:445872

[Difficulty]
HPDrainRate:5.5
CircleSize:4
OverallDifficulty:7.5
ApproachRate:8.5
SliderMultiplier:2.1
SliderTickRate:1

[Events]
//Background and Video events
Video,0,"video.avi"
0,0,"BG.jpg",0,0
//Break Periods
//Storyboard Layer 0 (Background)
//Storyboard Layer 1 (Fail)
//Storyboard Layer 2 (Pass)
//Storyboard Layer 3 (Foreground)
//Storyboard Sound Samples

[TimingPoints]
580,320.855614973262,4,2,0,65,1,0
900,-200,4,2,1,80,0,0
8521,-200,4,2,1,11,0,0
9724,-166.666666666667,4,2,1,11,0,0
10044,-100,4,2,1,11,0,0
10847,-100,4,2,1,87,0,0
31382,-133.333333333333,4,2,1,87,0,0
41010,-133.333333333333,4,2,3,87,0,0
41491,-133.333333333333,4,2,1,87,0,0
51916,-200,4,2,1,87,0,0
57050,-133.333333333333,4,2,1,87,0,0
59539,-133.333333333333,4,2,1,87,0,0
61542,-100,4,2,1,87,0,0
62184,-100,4,2,1,87,0,1
82719,-100,4,2,1,87,0,0

[Colours]
Combo1 : 222,200,122
Combo2 : 180,155,200
Combo3 : 102,231,253
Combo4 : 249,151,166
SliderBorder : 255,255,255

[HitObjects]
184,332,900,6,0,P|196:272|184:224,1,105
80,172,1542,2,0,P|72:108|84:64,1,105
304,240,2184,6,0,P|313:291|301:341,1,105
186,230,2825,2,0,P|172:176|186:122,1,105
392,96,3467,6,0,P|312:68|224:96,1,157.5
184,128,4109,2,0,P|136:144|76:124,1,105
28,40,4751,1,0,0:0:0:0:
20,172,5071,1,0,0:0:0:0:
107,269,5392,2,0,P|163:256|217:273,1,105
332,336,6034,6,0,L|348:224,1,105
264,144,6676,2,0,L|244:32,1,105
140,24,7317,6,0,L|121:127,1,105
56,216,7959,2,0,L|70:319,1,105
240,268,8601,6,0,B|272:252|272:252|316:248|316:248|360:228,2,105
144,340,9563,1,0,0:0:0:0:
52,272,9884,2,0,P|24:216|56:148,1,125.999996154785
232,56,10847,6,0,P|304:44|344:60,1,105,4|0,0:1|0:0,0:0:0:0:
416,112,11168,1,10,0:0:0:0:
400,220,11328,1,0,0:0:0:0:
400,220,11489,2,2,P|380:272|344:308,1,105
208,324,11809,2,0,P|144:308|72:320,1,105,8|0,0:0|0:0,0:0:0:0:
20,272,12130,5,2,0:0:0:0:
96,164,12291,1,0,0:0:0:0:
96,164,12451,2,0,P|104:96|76:40,1,105,8|0,0:0|0:0,0:0:0:0:
180,200,12772,2,2,P|164:276|188:320,1,105
280,352,13093,2,0,P|340:320|268:344,1,210,12|2,0:0|0:0,0:0:0:0:
184,364,13574,5,0,0:0:0:0:
120,288,13735,1,10,0:0:0:0:
32,336,13895,2,0,P|16:276|28:224,1,105,0|2,0:0|0:0,0:0:0:0:
88,160,14216,1,2,0:0:0:0:
196,200,14376,1,10,0:0:0:0:
196,200,14537,2,0,B|248:196|284:148|284:148|320:200|392:200,1,210
464,168,15018,1,8,0:0:0:0:
371,198,15178,2,0,P|321:282|401:366,1,210,4|0,0:0|0:0,0:0:0:0:
495,288,15660,2,0,P|439:268|383:288,1,105,12|0,0:0|0:0,0:0:0:0:
264,348,15981,6,0,B|250:317|250:317|217:289|217:289|192:233,1,105,4|0,0:1|0:0,0:0:0:0:
144,156,16301,1,8,0:0:0:0:
240,184,16462,1,0,0:0:0:0:
88,296,16622,1,2,0:0:0:0:
88,296,16783,2,0,P|48:208|48:184,1,105,2|8,0:0|0:0,0:0:0:0:
68,80,17104,1,0,0:0:0:0:
232,144,17264,6,0,L|124:168,1,105
328,200,17585,2,0,L|440:224,1,105,8|0,0:0|0:0,0:0:0:0:
232,256,17906,2,2,L|88:288,1,105
324,312,18227,2,0,P|392:332|332:276,1,210,12|0,0:0|0:0,0:0:0:0:
232,256,18708,5,0,0:0:0:0:
140,324,18868,1,10,0:0:0:0:
68,251,19029,2,0,L|40:135,1,105,0|2,0:0|0:0,0:0:0:0:
205,144,19350,2,2,P|221:89|206:33,1,105,2|8,0:0|0:0,0:0:0:0:
52,24,19670,6,0,P|105:83|165:76,1,105,2|0,0:0|0:0,0:0:0:0:
211,43,19991,2,0,P|273:75|293:140,1,105,2|0,0:0|0:0,0:0:0:0:
192,236,20312,2,0,P|183:186|209:141,1,105,2|0,0:0|0:0,0:0:0:0:
352,224,20633,1,2,0:0:0:0:
352,224,20793,2,8,B|408:208|408:208|448:156,1,105
348,44,21114,6,0,P|344:112|372:148,1,105,4|0,0:1|0:0,0:0:0:0:
472,252,21435,2,0,P|504:324|488:364,1,105,8|0,0:0|0:0,0:0:0:0:
416,312,21756,1,2,0:0:0:0:
416,312,21916,2,0,L|328:232,1,105,2|10,0:0|0:0,0:0:0:0:
184,156,22237,2,0,P|236:176|268:236,1,105
264,324,22558,5,0,0:0:0:0:
160,328,22719,2,0,P|116:308|88:252,1,105,8|0,0:0|0:0,0:0:0:0:
84,124,23039,2,2,B|128:84|128:84|200:76,1,105
292,68,23360,2,0,P|344:120|268:88,1,210,12|0,0:0|0:0,0:0:0:0:
224,24,23841,5,0,0:0:0:0:
144,89,24002,1,10,0:0:0:0:
56,32,24162,2,0,P|40:96|52:136,1,105,0|2,0:0|0:0,0:0:0:0:
104,232,24483,1,2,0:0:0:0:
196,160,24644,1,8,0:0:0:0:
196,160,24804,2,0,B|264:128|336:180|336:180|404:144,1,210
480,120,25285,1,8,0:0:0:0:
432,220,25446,2,0,P|380:292|496:300,1,210,4|0,0:0|0:0,0:0:0:0:
348,344,25927,2,0,P|276:328|236:328,1,105,12|0,0:0|0:0,0:0:0:0:
120,344,26248,6,0,B|112:292|112:292|124:236,1,105,4|0,0:1|0:0,0:0:0:0:
160,136,26569,1,8,0:0:0:0:
248,212,26729,1,0,0:0:0:0:
336,128,26890,2,2,P|348:56|336:24,1,105
384,192,27211,2,0,P|372:260|400:312,1,105,8|0,0:0|0:0,0:0:0:0:
288,324,27531,6,0,L|172:300,1,105
32,247,27852,2,0,L|160:227,1,105,8|0,0:0|0:0,0:0:0:0:
276,152,28173,2,2,L|160:132,1,105
96,118,28494,2,0,P|16:118|88:150,1,210,12|2,0:0|0:0,0:0:0:0:
172,134,28975,5,0,0:0:0:0:
264,200,29136,1,10,0:0:0:0:
328,120,29296,2,0,B|348:64|348:64|392:40,1,105,0|2,0:0|0:0,0:0:0:0:
428,148,29617,2,0,B|408:212|408:212|368:240,1,105,2|8,0:0|0:0,0:0:0:0:
304,316,29938,6,0,P|268:252|280:200,1,105,2|0,0:0|0:0,0:0:0:0:
343,123,30259,2,0,P|331:62|278:23,1,105,2|0,0:0|0:0,0:0:0:0:
160,104,30579,2,2,P|216:128|260:104,1,105,2|8,0:0|0:0,0:0:0:0:
301,33,30900,1,2,0:0:0:0:
396,70,31061,2,2,B|412:130|412:130|412:178,1,105
352,256,31382,6,0,L|200:320,2,157.500006008148,4|8|0,0:1|0:0|0:0,0:0:0:0:
352,256,32344,1,8,0:0:0:0:
352,256,32505,2,0,P|356:180|340:144,1,78.7500030040742
296,92,32825,1,0,0:0:0:0:
208,136,32986,2,8,B|176:160|176:160|160:208,1,78.7500030040742
124,300,33307,2,0,B|84:256|84:256|72:216|72:216|20:168,2,157.500006008148,0|8|2,0:0|0:0|0:0,0:0:0:0:
236,356,34269,5,8,0:0:0:0:
328,240,34590,1,0,0:0:0:0:
332,244,34911,5,8,0:0:0:0:
244,276,35071,2,0,P|184:280|156:256,1,78.7500030040742
104,196,35392,1,0,0:0:0:0:
176,128,35553,2,8,B|224:108|224:108|264:108,1,78.7500030040742
368,128,35874,2,0,B|384:176|384:176|376:232|376:232|396:288,1,157.500006008148,0|8,0:0|0:0,0:0:0:0:
288,288,36515,6,0,P|204:272|120:296,2,157.500006008148,0|8|0,0:0|0:0|0:0,0:0:0:0:
408,348,37478,1,8,0:0:0:0:
452,240,37638,1,0,0:0:0:0:
452,240,37799,2,0,B|464:188|464:188|452:132,1,78.7500030040742
376,120,38120,2,8,B|372:72|372:72|384:36,1,78.7500030040742
458,163,38440,2,0,P|426:243|342:247,1,157.500006008148,2|8,0:0|0:0,0:0:0:0:
362,255,39082,5,4,0:0:0:0:
168,164,39403,1,8,0:0:0:0:
288,352,39724,1,0,0:0:0:0:
116,268,40045,1,8,0:0:0:0:
248,144,40366,6,4,L|312:80,1,78.7500030040742,8|0,0:0|0:0,0:0:0:0:
396,104,40686,2,4,L|328:184,1,78.7500030040742,8|0,0:0|0:0,0:0:0:0:
264,268,41007,5,8,0:1:0:0:
268,272,41328,1,8,0:1:0:0:
268,272,41649,6,0,P|276:216|256:168,1,78.7500030040742,4|0,0:1|0:0,0:0:0:0:
176,88,41970,2,0,P|176:156|184:168,1,78.7500030040742,8|0,0:0|0:0,0:0:0:0:
100,284,42291,2,2,P|108:220|84:180,1,78.7500030040742
24,84,42612,2,0,P|16:140|24:164,1,78.7500030040742,8|0,0:0|0:0,0:0:0:0:
96,280,42932,5,2,0:0:0:0:
172,212,43093,1,2,0:0:0:0:
232,288,43253,2,0,P|288:272|324:284,1,78.7500030040742,8|0,0:0|0:0,0:0:0:0:
392,324,43574,1,2,0:0:0:0:
432,232,43735,1,2,0:0:0:0:
432,232,43895,2,0,P|424:188|436:144,1,78.7500030040742,10|8,0:0|0:0,0:0:0:0:
360,64,44216,6,0,L|276:40,1,78.7500030040742,4|0,0:0|0:0,0:0:0:0:
252,120,44537,2,0,L|152:144,1,78.7500030040742,8|0,0:0|0:0,0:0:0:0:
120,48,44858,2,2,L|32:36,1,78.7500030040742
0,112,45178,1,8,0:0:0:0:
40,208,45339,1,0,0:0:0:0:
120,140,45499,6,2,L|216:128,1,78.7500030040742
304,124,45821,1,8,0:0:0:0:
400,184,45981,1,0,0:0:0:0:
400,184,46141,2,0,P|380:248|372:184,1,157.500006008148,0|12,0:0|0:0,0:0:0:0:
264,44,46783,6,0,L|168:84,1,78.7500030040742
228,152,47104,2,0,L|152:212,1,78.7500030040742,8|0,0:0|0:0,0:0:0:0:
272,236,47424,2,2,L|260:328,1,78.7500030040742
360,260,47745,2,0,L|412:352,1,78.7500030040742,8|0,0:0|0:0,0:0:0:0:
488,224,48066,6,0,B|448:180|448:180|400:168|400:168|348:116,2,157.500006008148,0|8|0,0:0|0:0|0:0,0:0:0:0:
512,316,48868,1,0,0:0:0:0:
416,316,49029,2,8,B|372:304|372:304|308:308,1,78.7500030040742
224,324,49350,5,4,0:0:0:0:
104,176,49670,1,10,0:0:0:0:
208,64,49831,1,0,0:0:0:0:
208,64,49991,2,0,L|292:4,2,78.7500030040742,0|0|8,0:0|0:0|0:0,0:0:0:0:
88,164,50633,5,2,0:0:0:0:
172,292,50954,1,8,0:0:0:0:
288,200,51275,5,4,0:0:0:0:
204,80,51595,1,2,0:0:0:0:
204,80,51916,6,0,P|124:56|44:88,1,157.5,4|0,0:1|0:0,0:0:0:0:
136,224,52879,1,2,0:0:0:0:
57,299,53200,2,0,P|28:236|65:145,1,157.5,2|0,0:0|0:0,0:0:0:0:
192,68,54162,1,2,0:0:0:0:
256,172,54483,6,0,B|308:217|308:217|412:230,2,157.5,2|0|2,0:0|0:0|0:0,0:0:0:0:
188,64,55767,6,0,P|104:56|80:120,1,157.5,2|0,0:0|0:0,0:0:0:0:
108,200,56408,1,10,0:0:0:0:
108,200,56489,1,2,0:0:0:0:
108,200,56568,1,2,0:0:0:0:
192,264,56729,1,6,0:0:0:0:
192,264,57050,6,0,L|284:240,1,78.7500030040742,4|0,0:1|0:0,0:0:0:0:
396,144,57371,2,0,L|308:168,1,78.7500030040742,8|0,0:0|0:0,0:0:0:0:
116,152,57692,2,2,L|220:128,1,78.7500030040742
348,40,58013,2,0,L|260:60,1,78.7500030040742,8|0,0:0|0:0,0:0:0:0:
144,56,58334,2,0,B|76:72|76:72|24:144,2,157.500006008148,0|8|0,0:0|0:0|0:0,0:0:0:0:
144,56,59296,1,8,0:0:0:0:
100,176,59617,6,0,P|72:240|80:272,1,78.7500030040742,4|0,0:1|0:0,0:0:0:0:
152,344,59938,2,0,P|176:300|160:240,1,78.7500030040742,0|8,0:0|0:0,0:0:0:0:
272,156,60259,2,2,P|256:216|268:244,1,78.7500030040742
332,352,60579,2,0,P|348:288|332:252,1,78.7500030040742,8|0,0:0|0:0,0:0:0:0:
260,229,60900,1,2,0:0:0:0:
228,112,61221,1,6,0:0:0:0:
228,112,61543,6,2,P|168:120|144:132,3,52.5
144,136,61863,1,2,0:0:0:0:
114,144,61943,1,2,0:0:0:0:
91,166,62023,1,2,0:0:0:0:
81,195,62103,1,2,0:0:0:0:
64,244,62184,6,0,P|120:268|200:236,1,105,4|0,0:1|0:0,0:0:0:0:
288,192,62505,2,0,P|200:184|168:208,1,105,8|0,0:0|0:0,0:0:0:0:
64,244,62825,1,2,0:0:0:0:
196,336,62986,1,2,0:0:0:0:
320,264,63146,2,0,P|357:220|351:156,1,105,8|0,0:0|0:0,0:0:0:0:
276,52,63467,6,0,B|208:44|208:44|140:60,1,105,4|0,0:1|0:0,0:0:0:0:
96,132,63788,2,0,B|168:144|168:144|224:128,1,105,8|0,0:0|0:0,0:0:0:0:
276,52,64109,2,2,L|380:20,1,105
304,156,64430,2,0,L|424:184,1,105,8|0,0:0|0:0,0:0:0:0:
256,240,64751,6,0,P|200:208|136:216,1,105,4|0,0:1|0:0,0:0:0:0:
36,236,65071,2,0,P|100:284|160:268,1,105,8|0,0:0|0:0,0:0:0:0:
256,240,65392,2,2,P|276:180|256:120,1,105
180,40,65713,2,0,P|164:96|184:152,1,105,8|0,0:0|0:0,0:0:0:0:
256,240,66034,6,0,L|372:220,1,105,4|0,0:1|0:0,0:0:0:0:
416,136,66355,2,0,L|300:156,1,105,8|0,0:0|0:0,0:0:0:0:
164,112,66676,2,2,L|308:88,1,105
432,16,66997,2,0,L|312:40,1,105,8|0,0:0|0:0,0:0:0:0:
267,94,67317,6,0,B|286:150|286:150|282:218,1,105,4|0,0:1|0:0,0:0:0:0:
217,270,67638,2,0,B|204:209|204:209|209:138,1,105,8|0,0:0|0:0,0:0:0:0:
267,94,67959,1,2,0:0:0:0:
192,16,68120,1,2,0:0:0:0:
108,48,68280,2,0,P|88:112|112:164,1,105,8|0,0:0|0:0,0:0:0:0:
204,240,68601,6,0,B|68:212,1,105,4|0,0:1|0:0,0:0:0:0:
128,308,68922,2,0,L|244:336,1,105,8|0,0:0|0:0,0:0:0:0:
352,292,69243,2,2,L|448:244,1,105
328,212,69563,2,0,L|400:92,1,105,8|0,0:0|0:0,0:0:0:0:
256,160,69884,6,0,P|224:76|144:160,1,210,4|8,0:1|0:0,0:0:0:0:
96,204,70366,1,0,0:0:0:0:
136,280,70526,2,0,P|228:320|244:232,1,210,0|8,0:0|0:0,0:0:0:0:
176,180,71007,1,0,0:0:0:0:
180,184,71168,6,0,L|220:64,1,105,4|0,0:1|0:0,0:0:0:0:
328,32,71489,2,0,L|288:144,1,105,10|0,0:0|0:0,0:0:0:0:
264,208,71809,1,2,0:0:0:0:
348,340,71970,1,2,0:0:0:0:
264,296,72130,5,10,0:0:0:0:
216,280,72211,1,2,0:0:0:0:
168,288,72291,1,2,0:0:0:0:
128,304,72371,1,2,0:0:0:0:
88,320,72452,6,0,P|64:256|120:112,1,210,4|10,0:1|0:0,0:0:0:0:
184,52,72932,1,0,0:0:0:0:
184,52,73093,2,0,L|292:32,1,105
392,92,73414,2,0,L|268:116,1,105,8|0,0:0|0:0,0:0:0:0:
184,128,73735,6,4,P|180:208|216:248,1,105,4|0,0:1|0:0,0:0:0:0:
268,296,74055,1,8,0:0:0:0:
328,216,74216,2,0,P|320:120|284:92,1,105,0|2,0:0|0:0,0:0:0:0:
248,56,74537,1,2,0:0:0:0:
152,32,74697,1,8,0:0:0:0:
84,96,74858,1,0,0:0:0:0:
112,184,75018,6,0,L|0:236,2,105,4|0|8,0:1|0:0|0:0,0:0:0:0:
212,228,75499,1,0,0:0:0:0:
252,132,75660,2,0,L|364:80,2,105,0|0|8,0:0|0:0|0:0,0:0:0:0:
112,184,76141,1,0,0:0:0:0:
112,184,76301,5,2,0:0:0:0:
236,272,76622,1,10,0:0:0:0:
284,124,76943,1,6,0:0:0:0:
168,48,77264,1,8,0:0:0:0:
168,48,77585,6,0,B|156:104|156:104|164:168,1,105,4|0,0:1|0:0,0:0:0:0:
244,244,77906,2,0,B|248:176|248:176|232:96,1,105,8|0,0:0|0:0,0:0:0:0:
164,48,78227,1,2,0:0:0:0:
80,132,78387,1,2,0:0:0:0:
104,224,78547,2,0,P|160:268|224:264,1,105,8|0,0:0|0:0,0:0:0:0:
300,333,78868,6,0,P|316:273|292:205,1,105,4|0,0:1|0:0,0:0:0:0:
216,72,79189,2,0,P|200:140|236:200,1,105,8|0,0:0|0:0,0:0:0:0:
307,231,79510,2,2,L|407:263,1,105
320,152,79831,2,0,L|428:120,1,105,8|0,0:0|0:0,0:0:0:0:
368,336,80152,6,0,P|261:299|162:343,1,210,4|8,0:1|0:0,0:0:0:0:
109,263,80634,1,0,0:0:0:0:
40,209,80794,2,0,P|22:266|42:322,1,105
168,188,81115,2,0,P|184:135|156:74,1,105,8|0,0:0|0:0,0:0:0:0:
320,187,81436,6,0,L|364:327,2,105,2|0|10,0:0|0:0|0:0,0:0:0:0:
240,240,81916,1,0,0:0:0:0:
144,216,82077,2,0,L|108:104,2,105,2|0|10,0:0|0:0|0:0,0:0:0:0:
408,88,82719,6,0,P|448:152|408:288,1,210,4|2,0:1|0:0,0:0:0:0:
336,312,83200,1,8,0:0:0:0:
336,312,83521,5,0,0:0:0:0:
320,184,83681,1,2,0:0:0:0:
250,66,83842,2,0,P|299:44|375:68,1,105,0|2,0:0|0:0,0:0:0:0:
320,184,84162,1,8,0:0:0:0:
320,184,84483,6,0,L|348:312,2,105,0|2|0,0:0|0:0|0:0,0:0:0:0:
292,68,84965,1,2,0:0:0:0:
292,68,85285,5,4,0:1:0:0:
380,160,85446,1,0,0:0:0:0:
296,248,85606,1,2,0:0:0:0:
208,160,85767,1,8,0:0:0:0:
208,160,86088,6,0,P|152:104|144:40,1,105,0|2,0:0|0:0,0:0:0:0:
256,224,86408,2,0,P|312:280|320:328,1,105,0|2,0:0|0:0,0:0:0:0:
240,312,86729,1,8,0:0:0:0:
240,312,87050,1,10,0:0:0:0:
156,248,87211,5,8,0:0:0:0:
228,144,87371,1,8,0:0:0:0:
244,316,87531,1,10,0:0:0:0:
116,168,87692,1,8,0:0:0:0:
