osu file format v14

[General]
AudioFilename: audio.mp3
AudioLeadIn: 0
PreviewTime: 62184
Countdown: 0
SampleSet: Soft
StackLeniency: 0.8
Mode: 0
LetterboxInBreaks: 0
WidescreenStoryboard: 1

[Editor]
DistanceSpacing: 0.8
BeatDivisor: 4
GridSize: 4
TimelineZoom: 1.7

[Metadata]
Title:Acchi Muite (TV SIZE)
TitleUnicode:あっちむいて (TV SIZE)
Artist:Swimy
ArtistUnicode:スイミー
Creator:MisakiAN
Version:Easy
Source:銀魂゜
Tags:Gintama 2015 Ending. -Kilala-. Zyl. Yasaija 714
BeatmapID:1072097
BeatmapSetID:445872

[Difficulty]
HPDrainRate:2
CircleSize:3
OverallDifficulty:2
ApproachRate:4
SliderMultiplier:0.999999999999999
SliderTickRate:1

[Events]
//Background and Video events
Video,0,"video.avi"
0,0,"BG.jpg",0,0
//Break Periods
//Storyboard Layer 0 (Background)
//Storyboard Layer 1 (Fail)
//Storyboard Layer 2 (Pass)
//Storyboard Layer 3 (Foreground)
//Storyboard Sound Samples

[TimingPoints]
580,320.855614973262,4,2,0,65,1,0
900,-117.647058823529,4,2,1,80,0,0
8521,-200,4,2,1,11,0,0
9724,-100,4,2,1,8,0,0
10847,-100,4,2,1,83,0,0
11168,-100,4,2,3,82,0,0
11248,-100,4,2,1,82,0,0
12451,-100,4,2,3,82,0,0
12531,-100,4,2,1,82,0,0
14376,-100,4,2,3,82,0,0
14457,-100,4,2,1,82,0,0
16301,-100,4,2,3,82,0,0
16382,-100,4,2,1,82,0,0
18227,-100,4,2,3,82,0,0
18307,-100,4,2,1,82,0,0
19510,-100,4,2,3,82,0,0
19590,-100,4,2,1,82,0,0
21435,-100,4,2,3,82,0,0
21515,-100,4,2,1,82,0,0
22719,-100,4,2,3,82,0,0
22799,-100,4,2,1,82,0,0
27852,-100,4,2,3,82,0,0
27932,-100,4,2,1,82,0,0
29777,-100,4,2,3,82,0,0
29858,-100,4,2,1,82,0,0
36836,-100,4,2,3,82,0,0
36916,-100,4,2,1,82,0,0
38120,-100,4,2,3,82,0,0
38200,-100,4,2,1,82,0,0
40927,-100,4,2,3,82,0,0
41489,-100,4,2,1,82,0,0
41970,-100,4,2,3,82,0,0
42050,-100,4,2,1,82,0,0
43253,-100,4,2,3,82,0,0
43334,-100,4,2,1,82,0,0
43895,-100,4,2,3,82,0,0
43975,-100,4,2,1,82,0,0
49670,-100,4,2,3,82,0,0
49751,-100,4,2,1,82,0,0
51756,-100,4,2,1,75,0,0
56890,-100,4,2,1,75,0,0
57371,-100,4,2,3,75,0,0
57451,-100,4,2,1,75,0,0
58013,-100,4,2,3,75,0,0
58093,-100,4,2,1,75,0,0
59938,-100,4,2,3,75,0,0
60018,-100,4,2,1,75,0,0
60579,-100,4,2,3,75,0,0
60660,-100,4,2,1,75,0,0
62184,-100,4,2,1,82,0,1
62505,-100,4,2,3,82,0,1
62585,-100,4,2,1,82,0,1
63146,-100,4,2,3,82,0,1
63227,-100,4,2,1,82,0,1
65071,-100,4,2,3,82,0,1
65152,-100,4,2,1,82,0,1
65713,-100,4,2,3,82,0,1
65793,-100,4,2,1,82,0,1
67638,-100,4,2,3,82,0,1
67719,-100,4,2,1,82,0,1
68280,-100,4,2,3,82,0,1
68360,-100,4,2,1,82,0,1
70205,-100,4,2,3,82,0,1
70285,-100,4,2,1,82,0,1
70847,-100,4,2,3,82,0,1
70927,-100,4,2,1,82,0,1
72772,-100,4,2,3,82,0,1
72852,-100,4,2,1,82,0,1
73414,-100,4,2,3,82,0,1
73494,-100,4,2,1,82,0,1
76622,-100,4,2,3,82,0,1
76702,-100,4,2,1,82,0,1
77264,-100,4,2,3,82,0,1
77344,-100,4,2,1,82,0,1
80473,-100,4,2,3,82,0,1
80553,-100,4,2,1,82,0,1
82719,-100,4,2,1,82,0,0
84804,-100,4,2,3,82,0,0
84884,-100,4,2,1,82,0,0

[Colours]
Combo1 : 222,200,122
Combo2 : 180,155,200
Combo3 : 102,231,253
Combo4 : 249,151,166
SliderBorder : 255,255,255

[HitObjects]
304,60,900,6,0,B|260:44|213:93|213:93|206:60|166:14|104:22|75:41,1,255.000004863739,4|0,0:1|0:0,0:0:0:0:
124,124,2184,2,0,B|132:168|84:212|84:212|172:160|248:216,1,255.000004863739
256,280,3467,6,0,P|303:237|300:164,2,127.500002431869
184,312,4751,1,0,0:0:0:0:
132,252,5071,1,0,0:0:0:0:
64,296,5392,2,0,P|52:255|72:199,1,85.0000016212463
36,136,6034,6,0,B|58:123|106:127|137:160|144:188|144:188|156:104|224:84,1,255.000004863739,4|0,0:1|0:0,0:0:0:0:
264,36,7317,2,0,B|298:72|287:136|248:156|248:156|297:140|342:173|383:145,1,276.25000526905
256,192,8601,12,0,9884,0:0:0:0:
128,288,10847,6,0,B|160:240|136:192|136:192|192:208|240:184,1,200,4|0,0:1|0:0,0:0:0:0:
264,112,11810,1,8,0:0:0:0:
257,27,12131,2,0,P|338:69|320:177,1,200,0|0,0:1|0:0,0:0:0:0:
272,220,13093,1,8,0:0:0:0:
304,288,13414,6,0,P|360:268|408:280,1,99.9999999999999,0|8,0:0|0:0,0:0:0:0:
400,196,14056,2,0,P|440:88|364:40,1,200
365,121,15019,1,8,0:0:0:0:
291,152,15339,2,0,P|239:168|183:152,1,99.9999999999999,0|8,0:0|0:0,0:0:0:0:
185,79,15981,6,0,B|121:93|105:155|124:192|124:192|89:240,1,200,4|0,0:1|0:0,0:0:0:0:
48,296,16944,1,8,0:0:0:0:
125,304,17265,2,0,P|173:292|233:296,1,99.9999999999999,0|8,0:0|0:0,0:0:0:0:
268,360,17906,2,0,B|320:326|308:259|275:234|275:234|304:170,1,200,0|0,0:1|0:0,0:0:0:0:
316,104,18869,5,8,0:0:0:0:
380,152,19190,2,0,P|420:212|412:296,1,150,0|2,0:0|0:0,0:0:0:0:
360,344,19992,5,2,0:0:0:0:
280,336,20313,2,0,B|232:332|216:300|216:300|184:324|144:308,1,150,2|8,0:0|0:0,0:0:0:0:
100,244,21115,6,0,B|104:184|72:160|72:160|136:176|180:132,1,200,4|0,0:1|0:0,0:0:0:0:
232,84,22077,1,8,0:0:0:0:
292,28,22398,2,0,B|325:59|316:111|302:130|302:130|340:164|296:228,1,200
268,280,23361,1,8,0:0:0:0:
200,323,23682,6,0,P|188:279|208:227,1,99.9999999999999,0|8,0:0|0:0,0:0:0:0:
244,160,24323,1,0,0:0:0:0:
321,148,24644,2,0,P|373:136|429:156,1,99.9999999999999,8|0,0:0|0:0,0:0:0:0:
371,216,25286,2,0,P|387:256|363:324,1,99.9999999999999,8|0,0:0|0:0,0:0:0:0:
297,337,25928,2,0,L|185:341,1,99.9999999999999,8|4,0:0|0:1,0:0:0:0:
136,288,26569,6,0,P|120:248|144:180,1,99.9999999999999,8|0,0:0|0:0,0:0:0:0:
184,132,27211,1,8,0:0:0:0:
256,96,27531,2,0,B|308:112|352:96|352:96|318:135|338:188|352:196,1,200
416,148,28494,1,8,0:0:0:0:
433,235,28815,6,0,P|441:295|417:341,1,99.9999999999999,0|8,0:0|0:0,0:0:0:0:
356,276,29457,2,0,B|328:264|280:292|280:292|252:248|220:256,1,150,0|2,0:0|0:0,0:0:0:0:
144,260,30259,5,2,0:0:0:0:
80,212,30580,2,0,B|80:160|68:128|68:128|112:136|140:124,1,150,2|0,0:0|0:0,0:0:0:0:
200,84,31382,5,4,0:1:0:0:
272,116,31703,1,8,0:0:0:0:
300,192,32024,1,0,0:0:0:0:
272,268,32345,6,8,B|224:256|184:304|184:304|132:268|88:288,1,200
12,308,33307,1,0,0:0:0:0:
24,228,33628,2,0,P|36:164|24:120,1,99.9999999999999,8|0,0:0|0:0,0:0:0:0:
0,56,34270,5,8,0:0:0:0:
76,28,34591,1,0,0:0:0:0:
144,68,34912,2,0,P|208:76|260:56,1,99.9999999999999,8|0,0:0|0:0,0:0:0:0:
308,108,35553,2,0,P|328:164|316:212,1,99.9999999999999,8|0,0:0|0:0,0:0:0:0:
196,304,36516,6,0,B|156:288|108:348|108:348|76:284|32:292,1,200,4|0,0:0|0:0,0:0:0:0:
0,224,37479,1,8,0:0:0:0:
40,156,37799,2,0,B|100:116|152:220|248:164,1,200
267,99,38762,6,0,P|311:155|306:200,1,99.9999999999999,8|0,0:0|0:0,0:0:0:0:
280,256,39404,2,0,B|320:248|352:292|352:292|372:224|444:228,1,200,8|8,0:0|0:0,0:0:0:0:
444,152,40366,2,8,L|360:76,1,99.9999999999999
308,36,41008,1,8,0:0:0:0:
236,68,41329,1,8,0:0:0:0:
168,108,41650,6,0,B|188:152|172:208|172:208|216:184|268:184,1,200,4|0,0:1|0:0,0:0:0:0:
344,176,42612,1,8,0:0:0:0:
392,240,42933,2,0,B|360:288|372:332|372:332|328:316|272:344,2,200
464,204,44537,5,8,0:0:0:0:
440,128,44858,1,0,0:0:0:0:
412,52,45179,2,8,B|368:60|348:108|357:145|357:145|307:123|262:127,2,200
440,128,46783,6,0,P|452:196|444:244,1,99.9999999999999,4|8,0:1|0:0,0:0:0:0:
392,284,47425,1,0,0:0:0:0:
320,248,47746,1,8,0:0:0:0:
286,175,48067,2,0,P|242:223|244:272,1,99.9999999999999,0|8,0:0|0:0,0:0:0:0:
168,292,48708,2,0,P|128:232|84:220,1,99.9999999999999,0|8,0:0|0:0,0:0:0:0:
80,143,49350,6,0,B|124:143|148:75|148:75|212:131|240:87,1,200
284,36,50313,2,0,P|332:32|397:49,1,99.9999999999999,8|2,0:0|0:0,0:0:0:0:
420,112,50954,5,8,0:0:0:0:
428,192,51275,1,0,0:0:0:0:
356,228,51596,1,8,0:0:0:0:
304,288,51917,6,0,B|256:296|256:296|208:324|208:324|152:328,2,150,4|0|2,0:1|0:0|0:0,0:0:0:0:
312,208,53200,2,0,B|277:197|277:197|216:200|216:200|156:180,2,150,2|0|2,0:0|0:0|0:0,0:0:0:0:
348,136,54484,6,0,B|312:100|312:100|264:80|264:80|224:40,2,150,2|0|2,0:0|0:0|0:0,0:0:0:0:
428,144,55767,2,0,B|429:95|429:95|416:44|416:44|420:-16,2,150,2|0|4,0:0|0:0|0:1,0:0:0:0:
392,224,57051,6,0,B|360:272|372:316|372:316|328:300|272:328,2,200,4|0|0,0:1|0:0|0:0,0:0:0:0:
458,180,58655,2,0,P|414:148|356:156,1,99.9999999999999,8|0,0:0|0:0,0:0:0:0:
303,192,59297,1,8,0:0:0:0:
250,256,59618,6,0,B|207:220|213:149|259:123|259:123|258:60,2,200,4|0|0,0:1|0:0|0:0,0:0:0:0:
296,319,61222,1,8,0:0:0:0:
364,285,61543,2,0,P|352:237|380:185,1,99.9999999999999,0|8,0:0|0:0,0:0:0:0:
352,116,62184,6,0,B|389:104|423:121|440:147|440:147|450:101|503:69,2,200,4|0|0,0:1|0:0|0:0,0:0:0:0:
272,120,63789,1,8,0:0:0:0:
199,155,64110,2,0,P|232:192|295:200,1,99.9999999999999,0|8,0:0|0:0,0:0:0:0:
358,170,64751,6,0,B|376:224|338:266|338:266|410:234|438:294,2,200
277,202,66356,2,0,P|209:218|161:198,1,99.9999999999999,8|0,0:0|0:0,0:0:0:0:
123,153,66997,1,8,0:0:0:0:
51,118,67318,6,0,B|34:168|55:202|75:219|75:219|33:237|-4:270,2,200,4|0|0,0:1|0:0|0:0,0:0:0:0:
93,50,68922,1,8,0:0:0:0:
172,56,69243,2,0,L|312:64,1,99.9999999999999,0|8,0:0|0:0,0:0:0:0:
340,20,69885,6,0,B|360:44|357:86|341:109|341:109|391:85|450:125,2,200
271,61,71489,2,0,P|256:123|282:169,1,99.9999999999999,8|0,0:0|0:0,0:0:0:0:
324,216,72131,1,8,0:0:0:0:
300,292,72452,6,0,B|220:284|220:284|164:304|164:304|94:295,2,200,4|0|0,0:1|0:0|0:0,0:0:0:0:
356,350,74056,2,0,P|381:289|364:246,1,99.9999999999999,8|0,0:0|0:0,0:0:0:0:
328,188,74698,2,0,P|275:159|214:166,1,99.9999999999999,8|0,0:0|0:0,0:0:0:0:
172,204,75339,5,8,0:0:0:0:
100,168,75660,2,0,B|68:124|96:68,1,99.9999999999999,0|8,0:0|0:0,0:0:0:0:
168,117,76302,6,0,B|218:108|237:56|237:56|270:105|330:81,2,200,0|0|4,0:0|0:0|0:1,0:0:0:0:
100,164,77906,2,0,P|155:198|208:184,1,99.9999999999999,8|0,0:0|0:0,0:0:0:0:
252,240,78548,2,0,P|316:204|364:204,1,99.9999999999999,8|0,0:0|0:0,0:0:0:0:
408,244,79190,5,8,0:0:0:0:
476,200,79511,2,0,P|496:156|476:88,1,99.9999999999999,0|8,0:0|0:0,0:0:0:0:
432,48,80152,6,0,B|364:49|357:84|357:84|335:42|279:26|243:54,1,200
285,121,81115,2,0,P|258:176|205:197,1,99.9999999999999,8|0,0:0|0:0,0:0:0:0:
160,240,81757,1,8,0:0:0:0:
96,191,82077,2,0,B|63:240|98:296,1,99.9999999999999,0|8,0:0|0:0,0:0:0:0:
176,337,82719,6,0,P|248:361|312:301,1,150,4|8,0:1|0:0,0:0:0:0:
344,254,83521,2,0,B|324:206|364:158|364:158|292:190|264:130,1,200,0|8,0:0|0:0,0:0:0:0:
202,116,84484,2,0,P|170:52|86:36,1,150
117,121,85285,6,0,B|133:165|133:165|109:201|137:221|137:221|137:273,1,150,4|8,0:1|0:0,0:0:0:0:
201,311,86088,2,0,B|237:262|281:311|281:311|328:260|370:324,1,200,0|8,0:0|0:0,0:0:0:0:
448,308,87051,6,8,P|460:260|448:204,1,99.9999999999999
394,155,87692,1,12,0:0:0:0:
