osu file format v14

[General]
AudioFilename: audio.mp3
AudioLeadIn: 0
PreviewTime: 60900
Countdown: 0
SampleSet: Soft
StackLeniency: 0.7
Mode: 0
LetterboxInBreaks: 0
WidescreenStoryboard: 0

[Editor]
Bookmarks: 10847,31382,62184
DistanceSpacing: 1.2
BeatDivisor: 4
GridSize: 4
TimelineZoom: 1.4

[Metadata]
Title:Acchi Muite
TitleUnicode:あっちむいて
Artist:Swimy
ArtistUnicode:スイミー
Creator:Kantzm8
Version:Hard
Source:銀魂°
Tags:Gintama anime ending 2015 銀魂
BeatmapID:1091066
BeatmapSetID:513476

[Difficulty]
HPDrainRate:5
CircleSize:4
OverallDifficulty:7
ApproachRate:8
SliderMultiplier:1.2
SliderTickRate:1

[Events]
//Background and Video events
0,0,"285858.jpg",0,0
//Break Periods
//Storyboard Layer 0 (Background)
//Storyboard Layer 1 (Fail)
//Storyboard Layer 2 (Pass)
//Storyboard Layer 3 (Foreground)
//Storyboard Sound Samples

[TimingPoints]
900,320.855614973262,4,2,1,100,1,0
900,-100,4,2,1,30,0,0
10204,-100,4,2,1,5,0,0
10847,320.855614973262,4,2,1,70,1,0
10847,-71.4285714285714,4,2,2,70,0,0
36675,-71.4285714285714,4,2,2,5,0,0
36836,-71.4285714285714,4,2,2,70,0,0
36996,-71.4285714285714,4,2,2,5,0,0
37157,-71.4285714285714,4,2,2,70,0,0
37317,-71.4285714285714,4,2,2,5,0,0
37478,-71.4285714285714,4,2,2,70,0,0
37638,-71.4285714285714,4,2,2,5,0,0
37798,-71.4285714285714,4,2,2,70,0,0
37959,-71.4285714285714,4,2,2,5,0,0
38119,-71.4285714285714,4,2,2,70,0,0
38280,-71.4285714285714,4,2,2,5,0,0
38440,-71.4285714285714,4,2,2,70,0,0
38601,-71.4285714285714,4,2,2,5,0,0
38761,-71.4285714285714,4,2,2,70,0,0
38921,-71.4285714285714,4,2,2,5,0,0
39082,-71.4285714285714,4,2,2,70,0,0
39242,-71.4285714285714,4,2,2,5,0,0
39403,-71.4285714285714,4,2,2,70,0,0
39563,-71.4285714285714,4,2,2,5,0,0
39724,-71.4285714285714,4,2,2,70,0,0
39884,-71.4285714285714,4,2,2,5,0,0
40044,-71.4285714285714,4,2,2,70,0,0
40205,-71.4285714285714,4,2,2,5,0,0
40365,-71.4285714285714,4,2,2,70,0,0
51595,-125,4,2,2,40,0,0
56248,-71.4285714285714,4,2,2,70,0,0
62186,-71.4285714285714,4,2,2,80,0,1
87050,-71.4285714285714,4,2,2,90,0,1
87691,-71.4285714285714,4,2,2,90,0,0

[Colours]
Combo1 : 128,0,255
Combo2 : 255,128,64
Combo3 : 255,128,192
Combo4 : 23,209,116

[HitObjects]
76,96,900,5,2,0:0:0:0:
180,136,1220,1,0,0:0:0:0:
82,183,1541,1,0,0:0:0:0:
183,217,1861,1,0,0:0:0:0:
307,177,2183,5,2,0:0:0:0:
411,137,2503,1,0,0:0:0:0:
313,90,2824,1,0,0:0:0:0:
414,56,3144,1,0,0:0:0:0:
278,23,3466,6,0,P|238:79|250:131,1,120,2|0,0:0|0:0,0:0:0:0:
294,183,3948,1,0,0:0:0:0:
350,231,4108,2,0,P|354:267|350:303,1,60
318,355,4429,2,0,P|282:359|246:355,1,60
186,343,4750,5,2,0:0:0:0:
46,315,5071,1,0,0:0:0:0:
154,219,5391,2,0,B|250:219|250:219|230:239,1,120
126,127,6033,6,0,P|158:123|190:127,1,60,2|0,0:0|0:0,0:0:0:0:
254,147,6354,2,0,P|286:151|318:147,1,60
382,123,6675,2,0,P|386:155|382:187,1,60
374,255,6996,2,0,P|342:259|310:255,1,60
242,243,7317,6,0,L|242:307,1,60,2|0,0:0|0:0,0:0:0:0:
198,359,7637,2,0,L|134:359,1,60
90,307,7958,2,0,L|26:307,1,60
50,231,8279,2,0,L|114:231,1,60
182,231,8600,5,2,0:0:0:0:
326,227,8921,1,0,0:0:0:0:
210,143,9242,1,0,0:0:0:0:
354,139,9563,1,0,0:0:0:0:
230,67,9883,2,0,P|154:87|134:127,1,120
119,284,10847,6,0,L|223:275,1,83.9999974365235,8|0,0:0|0:0,0:0:0:0:
240,184,11167,2,0,L|343:193,1,83.9999974365235,2|0,0:0|0:0,0:0:0:0:
424,202,11488,2,0,P|432:258|420:306,1,83.9999974365235,8|0,0:0|0:0,0:0:0:0:
328,260,11809,2,0,P|323:301|331:342,2,83.9999974365235,2|0|8,0:0|0:0|0:0,0:0:0:0:
236,300,12290,5,0,0:0:0:0:
172,230,12451,2,0,P|116:222|72:242,1,83.9999974365235,2|0,0:0|0:0,0:0:0:0:
129,136,12772,2,0,P|165:140|220:161,1,83.9999974365235,8|0,0:0|0:0,0:0:0:0:
289,221,13092,2,0,P|373:189|396:104,1,167.999994873047,2|8,0:0|0:0,0:0:0:0:
348,32,13574,5,0,0:0:0:0:
296,120,13734,2,0,P|248:108|192:116,1,83.9999974365235,2|2,0:0|0:0,0:0:0:0:
164,200,14055,1,8,0:0:0:0:
109,115,14215,1,0,0:0:0:0:
81,211,14376,1,2,0:0:0:0:
33,123,14536,2,0,P|49:67|89:43,1,83.9999974365235,0|8,0:0|0:0,0:0:0:0:
160,8,14857,5,0,0:0:0:0:
264,36,15018,1,2,0:0:0:0:
300,128,15178,2,0,P|284:184|244:208,1,83.9999974365235,0|8,0:0|0:0,0:0:0:0:
168,224,15499,1,0,0:0:0:0:
228,136,15659,2,0,L|156:84,1,83.9999974365235,2|0,0:0|0:0,0:0:0:0:
76,32,15980,6,0,P|68:88|88:132,1,83.9999974365235,8|0,0:0|0:0,0:0:0:0:
86,224,16301,2,0,P|142:232|186:212,1,83.9999974365235,2|0,0:0|0:0,0:0:0:0:
268,208,16622,2,0,P|276:264|256:308,1,83.9999974365235,8|0,0:0|0:0,0:0:0:0:
196,360,16943,1,2,0:0:0:0:
296,372,17103,2,0,P|352:380|396:360,1,83.9999974365235,0|8,0:0|0:0,0:0:0:0:
456,308,17424,1,0,0:0:0:0:
360,272,17584,6,0,L|351:168,1,83.9999974365235,2|2,0:0|0:0,0:0:0:0:
444,144,17905,1,8,0:0:0:0:
400,52,18066,1,0,0:0:0:0:
316,108,18226,2,0,P|260:116|216:96,1,83.9999974365235,2|0,0:0|0:0,0:0:0:0:
152,48,18547,5,8,0:0:0:0:
128,144,18707,2,0,P|112:200|72:224,1,83.9999974365235,2|8,0:0|0:0,0:0:0:0:
12,272,19028,2,0,P|28:328|68:352,1,83.9999974365235,2|8,0:0|0:0,0:0:0:0:
144,316,19349,2,0,L|248:307,1,83.9999974365235,2|8,0:0|0:0,0:0:0:0:
328,296,19670,5,2,0:0:0:0:
356,292,19991,1,2,0:0:0:0:
384,288,20312,1,2,0:0:0:0:
412,284,20633,1,2,0:0:0:0:
356,200,20793,1,2,0:0:0:0:
373,96,20953,1,0,0:0:0:0:
279,134,21114,6,0,P|251:182|259:226,1,83.9999974365235,8|0,0:0|0:0,0:0:0:0:
290,304,21435,2,0,P|234:312|190:292,1,83.9999974365235,2|0,0:0|0:0,0:0:0:0:
128,252,21756,1,8,0:0:0:0:
128,252,21916,1,0,0:0:0:0:
88,160,22076,2,0,P|128:150|169:159,2,83.9999974365235,2|0|8,0:0|0:0|0:0,0:0:0:0:
8,96,22558,5,0,0:0:0:0:
104,64,22718,2,0,L|208:55,1,83.9999974365235,2|0,0:0|0:0,0:0:0:0:
256,132,23039,2,0,L|360:141,1,83.9999974365235,8|0,0:0|0:0,0:0:0:0:
440,152,23360,2,0,P|468:236|424:296,1,167.999994873047,2|8,0:0|0:0,0:0:0:0:
324,304,23841,5,0,0:0:0:0:
260,224,24002,2,0,B|268:204|268:204|232:208|188:204,1,83.9999974365235,2|0,0:0|0:0,0:0:0:0:
216,304,24322,1,8,0:0:0:0:
216,304,24483,1,0,0:0:0:0:
128,352,24643,1,2,0:0:0:0:
68,272,24804,2,0,B|60:252|60:252|96:256|140:252,1,83.9999974365235,0|8,0:0|0:0,0:0:0:0:
144,156,25125,5,0,0:0:0:0:
144,156,25285,1,2,0:0:0:0:
204,76,25445,2,0,P|244:66|285:75,1,83.9999974365235,0|8,0:0|0:0,0:0:0:0:
348,152,25766,1,0,0:0:0:0:
248,140,25927,2,0,P|238:180|247:221,1,83.9999974365235,2|0,0:0|0:0,0:0:0:0:
200,312,26248,6,0,L|96:321,1,83.9999974365235,8|2,0:0|0:0,0:0:0:0:
56,240,26568,2,0,L|160:231,1,83.9999974365235,2|2,0:0|0:0,0:0:0:0:
240,248,26889,2,0,P|272:288|272:328,1,83.9999974365235,8|0,0:0|0:0,0:0:0:0:
360,372,27210,1,2,0:0:0:0:
424,292,27371,2,0,P|434:252|425:211,1,83.9999974365235,2|8,0:0|0:0,0:0:0:0:
360,132,27691,5,0,0:0:0:0:
296,56,27852,2,0,L|192:65,1,83.9999974365235,2|0,0:0|0:0,0:0:0:0:
128,120,28173,1,8,0:0:0:0:
40,72,28333,1,0,0:0:0:0:
44,172,28494,2,0,B|28:204|28:204|92:192|160:204,1,167.999994873047,2|8,0:0|0:0,0:0:0:0:
259,225,28975,5,0,0:0:0:0:
360,228,29135,2,0,P|370:188|361:147,1,83.9999974365235,8|0,0:0|0:0,0:0:0:0:
316,56,29456,1,8,0:0:0:0:
259,143,29617,2,0,P|249:183|258:224,1,83.9999974365235,2|8,0:0|0:0,0:0:0:0:
304,316,29937,5,2,0:0:0:0:
276,316,30258,1,2,0:0:0:0:
248,316,30579,1,2,0:0:0:0:
220,316,30900,1,2,0:0:0:0:
212,204,31060,1,14,0:0:0:0:
192,316,31221,1,2,0:0:0:0:
140,232,31381,6,0,P|140:176|160:144,1,83.9999974365235,8|0,0:0|0:0,0:0:0:0:
228,84,31702,2,0,P|268:74|309:83,1,83.9999974365235
408,60,32023,2,0,P|408:116|388:148,1,83.9999974365235,8|0,0:0|0:0,0:0:0:0:
336,224,32344,1,0,0:0:0:0:
336,224,32504,1,0,0:0:0:0:
272,300,32665,6,0,L|168:309,1,83.9999974365235,8|0,0:0|0:0,0:0:0:0:
92,340,32986,1,2,0:0:0:0:
120,244,33146,1,0,0:0:0:0:
84,148,33306,2,0,L|188:139,1,83.9999974365235,8|0,0:0|0:0,0:0:0:0:
268,136,33627,1,0,0:0:0:0:
268,136,33788,1,0,0:0:0:0:
232,228,33948,6,0,P|216:284|176:308,1,83.9999974365235,10|0,0:0|0:0,0:0:0:0:
296,312,34269,2,0,P|312:368|352:392,1,83.9999974365235,2|0,0:0|0:0,0:0:0:0:
368,288,34590,2,0,P|332:244|296:236,1,83.9999974365235,8|0,0:0|0:0,0:0:0:0:
212,204,34911,1,2,0:0:0:0:
112,216,35071,1,0,0:0:0:0:
64,128,35232,6,0,L|168:119,1,83.9999974365235,8|0,0:0|0:0,0:0:0:0:
212,44,35552,2,0,L|316:53,1,83.9999974365235,2|0,0:0|0:0,0:0:0:0:
396,72,35873,2,0,P|454:101|385:101,1,167.999994873047,8|2,0:0|0:0,0:0:0:0:
232,244,36515,6,0,P|220:204|232:156,1,83.9999974365235,8|0,0:0|0:0,0:0:0:0:
320,204,36836,2,0,P|332:244|320:292,1,83.9999974365235,2|0,0:0|0:0,0:0:0:0:
224,320,37157,2,0,P|164:280|156:232,1,83.9999974365235,8|0,0:0|0:0,0:0:0:0:
136,172,37478,2,0,P|176:112|224:104,1,83.9999974365235,2|0,0:0|0:0,0:0:0:0:
284,112,37798,6,0,L|275:216,1,83.9999974365235,8|0,0:0|0:0,0:0:0:0:
376,200,38118,2,0,L|385:304,1,83.9999974365235,2|0,0:0|0:0,0:0:0:0:
452,208,38440,2,0,P|432:148|388:124,1,83.9999974365235,8|0,0:0|0:0,0:0:0:0:
344,64,38761,2,0,P|300:40|240:48,1,83.9999974365235,2|0,0:0|0:0,0:0:0:0:
172,68,39082,6,0,L|94:36,1,83.9999974365235,8|0,0:0|0:0,0:0:0:0:
126,133,39402,2,0,L|48:164,1,83.9999974365235,8|0,0:0|0:0,0:0:0:0:
200,212,39724,2,0,L|162:306,1,83.9999974365235,8|0,0:0|0:0,0:0:0:0:
268,284,40044,2,0,L|306:378,1,83.9999974365235,8|0,0:0|0:0,0:0:0:0:
352,276,40365,6,0,L|328:224,1,41.9999987182618
222,38,40686,2,0,L|252:88,1,41.9999987182618
423,50,41007,5,2,0:0:0:0:
423,50,41328,1,2,0:0:0:0:
472,192,41649,6,0,L|368:183,1,83.9999974365235,12|0,0:0|0:0,0:0:0:0:
360,280,41969,2,0,L|256:289,1,83.9999974365235,2|0,0:0|0:0,0:0:0:0:
236,196,42290,2,0,L|227:92,1,83.9999974365235,8|0,0:0|0:0,0:0:0:0:
152,52,42611,1,2,0:0:0:0:
152,52,42772,1,0,0:0:0:0:
56,76,42932,6,0,P|44:116|56:164,1,83.9999974365235,12|0,0:0|0:0,0:0:0:0:
132,220,43253,1,2,0:0:0:0:
116,120,43413,1,0,0:0:0:0:
200,176,43574,2,0,P|212:216|200:264,1,83.9999974365235,8|0,0:0|0:0,0:0:0:0:
164,348,43895,1,2,0:0:0:0:
164,348,44055,1,0,0:0:0:0:
264,328,44215,6,0,L|368:319,1,83.9999974365235,12|0,0:0|0:0,0:0:0:0:
292,236,44535,2,0,L|412:248,1,83.9999974365235,2|0,0:0|0:0,0:0:0:0:
440,164,44857,2,0,L|431:60,1,83.9999974365235,8|0,0:0|0:0,0:0:0:0:
344,36,45178,1,0,0:0:0:0:
300,128,45338,1,0,0:0:0:0:
248,40,45499,6,0,P|208:28|160:40,1,83.9999974365235,12|0,0:0|0:0,0:0:0:0:
108,120,45820,2,0,P|120:160|108:208,1,83.9999974365235,2|0,0:0|0:0,0:0:0:0:
64,292,46141,2,0,B|192:292|192:292|156:328,1,167.999994873047,8|2,0:0|0:0,0:0:0:0:
364,324,46782,6,0,B|352:280|352:280|364:224,1,83.9999974365235,12|0,0:0|0:0,0:0:0:0:
424,164,47103,2,0,B|436:120|436:120|424:64,1,83.9999974365235,2|0,0:0|0:0,0:0:0:0:
348,144,47424,2,0,L|244:135,1,83.9999974365235,8|0,0:0|0:0,0:0:0:0:
276,235,47744,2,0,L|380:244,1,83.9999974365235,2|0,0:0|0:0,0:0:0:0:
459,240,48066,6,0,L|417:150,1,83.9999974365235,12|0,0:0|0:0,0:0:0:0:
383,67,48387,2,0,L|341:157,1,83.9999974365235,2|0,0:0|0:0,0:0:0:0:
268,84,48707,2,0,B|224:72|224:72|168:84,1,83.9999974365235,8|0,0:0|0:0,0:0:0:0:
124,160,49028,2,0,B|168:172|168:172|224:160,1,83.9999974365235,2|0,0:0|0:0,0:0:0:0:
300,204,49349,6,0,P|340:252|276:232,1,167.999994873047,12|2,0:0|0:0,0:0:0:0:
205,163,49830,1,0,0:0:0:0:
136,84,49991,2,0,P|96:88|56:124,1,83.9999974365235,8|0,0:0|0:0,0:0:0:0:
60,216,50312,2,0,P|100:212|140:176,1,83.9999974365235,10|0,0:0|0:0,0:0:0:0:
224,88,50633,1,8,0:0:0:0:
244,308,50953,1,6,0:0:0:0:
380,160,51274,2,0,P|428:120|407:184,1,167.999994873047,8|2,0:0|0:0,0:0:0:0:
48,208,51916,6,0,P|96:216|144:208,1,96
188,176,52397,2,0,P|236:168|284:176,1,96
336,192,52879,2,0,P|340:220|336:248,1,48
312,288,53199,6,0,P|264:295|217:287,1,96
172,252,53681,2,0,P|124:244|77:252,1,96
24,276,54162,2,0,P|20:308|24:344,1,48
64,360,54483,6,0,P|112:368|160:360,1,96
196,320,54964,2,0,P|244:312|292:320,1,96
340,348,55445,2,0,P|372:352|404:348,1,48
444,332,55766,6,0,P|452:284|444:236,1,96
420,140,56248,1,0,0:0:0:0:
348,72,56408,6,0,L|308:36,4,41.9999987182618
144,76,57050,6,0,L|144:168,1,83.9999974365235,12|0,0:0|0:0,0:0:0:0:
208,240,57371,1,2,0:0:0:0:
208,240,57531,1,0,0:0:0:0:
272,316,57691,2,0,L|372:316,1,83.9999974365235,8|0,0:0|0:0,0:0:0:0:
428,244,58012,1,2,0:0:0:0:
428,244,58173,1,0,0:0:0:0:
364,168,58333,6,0,B|316:176|272:160|236:144|188:168,1,167.999994873047,12|2,0:0|0:0,0:0:0:0:
100,180,58814,1,0,0:0:0:0:
60,272,58975,2,0,P|108:280|156:268,1,83.9999974365235,8|0,0:0|0:0,0:0:0:0:
236,240,59296,1,0,0:0:0:0:
60,112,59617,6,0,B|97:92|133:108|177:124|225:116,1,167.999994873047,12|2,0:0|0:0,0:0:0:0:
324,100,60098,1,0,0:0:0:0:
420,68,60258,2,0,P|427:115|424:156,1,83.9999974365235,8|0,0:0|0:0,0:0:0:0:
388,248,60579,1,2,0:0:0:0:
388,248,60740,1,0,0:0:0:0:
300,296,60900,6,0,L|196:287,1,83.9999974365235,8|0,0:0|0:0,0:0:0:0:
179,196,61220,2,0,L|76:205,1,83.9999974365235,2|0,0:0|0:0,0:0:0:0:
40,120,61542,2,0,L|8:72,2,41.9999987182618,8|0|2,0:0|0:0|0:0,0:0:0:0:
140,112,61863,2,0,L|172:64,2,41.9999987182618,8|0|2,0:0|0:0|0:0,0:0:0:0:
95,203,62183,6,0,L|86:307,1,83.9999974365235,12|0,0:0|0:0,0:0:0:0:
187,275,62503,2,0,L|196:368,1,83.9999974365235,2|0,0:0|0:0,0:0:0:0:
276,300,62825,2,0,B|320:312|320:312|376:300,1,83.9999974365235,8|0,0:0|0:0,0:0:0:0:
408,216,63146,2,0,B|364:204|364:204|308:216,1,83.9999974365235,2|0,0:0|0:0,0:0:0:0:
226,188,63467,6,8,L|162:274,1,83.9999974365235,12|0,0:0|0:0,0:0:0:0:
88,200,63788,2,8,L|24:286,1,83.9999974365235,2|0,0:0|0:0,0:0:0:0:
104,344,64109,2,0,P|152:352|200:340,1,83.9999974365235,8|0,0:0|0:0,0:0:0:0:
276,300,64429,2,0,P|324:292|372:304,1,83.9999974365235,2|0,0:0|0:0,0:0:0:0:
456,320,64750,6,0,P|518:319|461:284,1,167.999994873047,12|2,0:0|0:0,0:0:0:0:
380,224,65232,1,0,0:0:0:0:
284,188,65392,2,0,P|240:180|192:188,1,83.9999974365235,8|0,0:0|0:0,0:0:0:0:
100,192,65713,2,0,P|92:236|100:284,1,83.9999974365235,2|0,0:0|0:0,0:0:0:0:
196,288,66034,6,0,B|240:300|240:300|296:288,1,83.9999974365235,12|0,0:0|0:0,0:0:0:0:
284,188,66355,2,0,B|328:176|328:176|384:188,1,83.9999974365235,2|0,0:0|0:0,0:0:0:0:
464,196,66675,2,0,P|525:188|464:159,1,167.999994873047,8|2,0:0|0:0,0:0:0:0:
284,188,67317,6,0,L|180:197,1,83.9999974365235,12|0,0:0|0:0,0:0:0:0:
228,100,67637,2,0,L|125:91,1,83.9999974365235,2|0,0:0|0:0,0:0:0:0:
112,188,67959,2,0,P|120:232|160:272,1,83.9999974365235,8|0,0:0|0:0,0:0:0:0:
244,260,68280,2,0,P|236:304|196:344,1,83.9999974365235,2|0,0:0|0:0,0:0:0:0:
112,336,68601,6,0,L|8:345,1,83.9999974365235,12|0,0:0|0:0,0:0:0:0:
36,244,68921,2,0,L|27:140,1,83.9999974365235,2|0,0:0|0:0,0:0:0:0:
72,68,69242,2,0,P|116:60|164:68,1,83.9999974365235,8|0,0:0|0:0,0:0:0:0:
248,100,69563,1,0,0:0:0:0:
340,140,69724,1,0,0:0:0:0:
424,196,69884,6,0,P|457:248|396:219,1,167.999994873047,12|2,0:0|0:0,0:0:0:0:
296,208,70365,1,0,0:0:0:0:
208,260,70526,2,0,P|174:312|235:283,1,167.999994873047,8|2,0:0|0:0,0:0:0:0:
296,208,71007,1,0,0:0:0:0:
208,260,71167,6,0,L|199:156,1,83.9999974365235,12|0,0:0|0:0,0:0:0:0:
96,172,71488,2,0,L|105:68,1,83.9999974365235,2|0,0:0|0:0,0:0:0:0:
188,32,71809,2,0,B|225:12|261:28|305:44|353:36,1,167.999994873047,8|2,0:0|0:0,0:0:0:0:
508,164,72451,6,0,P|464:172|416:164,1,83.9999974365235,12|2,0:0|0:0,0:0:0:0:
336,120,72772,1,8,0:0:0:0:
244,160,72932,1,2,0:0:0:0:
156,200,73092,2,0,P|144:244|160:292,1,83.9999974365235,12|2,0:0|0:0,0:0:0:0:
232,344,73413,1,8,0:0:0:0:
220,244,73574,1,2,0:0:0:0:
312,284,73734,6,0,B|349:264|385:280|429:296|477:288,1,167.999994873047,12|8,0:0|0:0,0:0:0:0:
488,188,74215,1,2,0:0:0:0:
408,120,74376,2,0,L|304:111,1,83.9999974365235,12|2,0:0|0:0,0:0:0:0:
224,100,74697,1,8,0:0:0:0:
240,200,74857,1,2,0:0:0:0:
160,140,75018,6,0,P|148:96|164:52,1,83.9999974365235,12|2,0:0|0:0,0:0:0:0:
252,28,75338,2,0,P|292:56|304:100,1,83.9999974365235,8|2,0:0|0:0,0:0:0:0:
348,180,75659,1,12,0:0:0:0:
240,200,75820,1,2,0:0:0:0:
340,252,75980,2,0,P|392:239|416:203,1,83.9999974365235,8|2,0:0|0:0,0:0:0:0:
490,155,76301,5,2,0:0:0:0:
240,200,76622,1,2,0:0:0:0:
490,155,76943,2,0,P|489:247|406:255,1,167.999994873047,2|2,0:0|0:0,0:0:0:0:
208,344,77584,6,2,B|196:300|196:300|208:244,1,83.9999974365235,14|2,0:0|0:0,0:0:0:0:
304,256,77905,2,0,B|316:212|316:212|304:156,1,83.9999974365235,8|2,0:0|0:0,0:0:0:0:
236,104,78226,2,4,P|192:92|152:104,1,83.9999974365235,8|2,0:0|0:0,0:0:0:0:
164,204,78547,2,0,P|120:216|80:204,1,83.9999974365235,8|2,0:0|0:0,0:0:0:0:
40,116,78868,6,4,L|49:12,1,83.9999974365235,12|2,0:0|0:0,0:0:0:0:
148,36,79189,2,0,L|252:27,1,83.9999974365235,8|2,0:0|0:0,0:0:0:0:
332,36,79510,2,0,B|344:80|344:80|332:136,1,83.9999974365235,12|2,0:0|0:0,0:0:0:0:
244,156,79830,2,0,B|232:200|232:200|244:256,1,83.9999974365235,8|2,0:0|0:0,0:0:0:0:
280,328,80151,6,0,B|416:328|416:328|372:288,1,167.999994873047,12|8,0:0|0:0,0:0:0:0:
332,224,80633,1,2,0:0:0:0:
432,224,80793,2,0,B|432:88|432:88|392:132,1,167.999994873047,12|12,0:0|0:0,0:0:0:0:
220,176,81435,6,0,P|196:180|160:172,2,41.9999987182618,12|0|2,0:0|0:0|0:0,0:0:0:0:
316,144,81756,2,0,P|340:148|376:140,2,41.9999987182618,8|0|2,0:0|0:0|0:0,0:0:0:0:
216,94,82076,2,0,P|192:90|156:98,2,41.9999987182618,12|0|2,0:0|0:0|0:0,0:0:0:0:
324,64,82397,1,8,0:0:0:0:
220,176,82718,6,0,B|208:132|208:132|220:76,1,83.9999974365235,8|2,0:0|0:0,0:0:0:0:
316,144,83039,2,0,B|328:188|328:188|316:244,1,83.9999974365235,8|2,0:0|0:0,0:0:0:0:
220,176,83359,1,8,0:0:0:0:
152,32,83681,6,0,B|164:76|164:76|152:132,1,83.9999974365235,8|2,0:0|0:0,0:0:0:0:
56,108,84002,2,0,B|44:64|44:64|56:8,1,83.9999974365235,8|2,0:0|0:0,0:0:0:0:
152,32,84322,1,8,0:0:0:0:
368,100,84643,6,0,P|380:148|364:196,1,83.9999974365235,8|2,0:0|0:0,0:0:0:0:
296,248,84964,1,8,0:0:0:0:
304,144,85125,1,2,0:0:0:0:
316,44,85285,2,0,P|348:24|416:40,1,83.9999974365235,8|2,0:0|0:0,0:0:0:0:
476,88,85606,1,8,0:0:0:0:
448,184,85766,1,2,0:0:0:0:
272,284,86087,5,10,0:0:0:0:
192,224,86248,2,8,L|183:120,1,83.9999974365235,8|2,0:0|0:0,0:0:0:0:
283,96,86568,2,0,L|276:180,1,83.9999974365235,8|2,0:0|0:0,0:0:0:0:
84,72,87050,5,8,0:0:0:0:
40,160,87210,2,0,L|31:264,1,83.9999974365235,10|8,0:0|0:0,0:0:0:0:
124,304,87531,1,8,0:0:0:0:
192,224,87691,1,4,0:0:0:0:
