osu file format v14

[General]
AudioFilename: audio.mp3
AudioLeadIn: 0
PreviewTime: 60900
Countdown: 0
SampleSet: Soft
StackLeniency: 0.7
Mode: 0
LetterboxInBreaks: 0
WidescreenStoryboard: 0

[Editor]
Bookmarks: 10847,31382,62184
DistanceSpacing: 0.9
BeatDivisor: 2
GridSize: 4
TimelineZoom: 1.4

[Metadata]
Title:Acchi Muite
TitleUnicode:あっちむいて
Artist:Swimy
ArtistUnicode:スイミー
Creator:Kantzm8
Version:Easy
Source:銀魂°
Tags:Gintama anime ending 2015 銀魂
BeatmapID:1091938
BeatmapSetID:513476

[Difficulty]
HPDrainRate:2
CircleSize:3
OverallDifficulty:2
ApproachRate:3
SliderMultiplier:0.9
SliderTickRate:1

[Events]
//Background and Video events
0,0,"285858.jpg",0,0
//Break Periods
//Storyboard Layer 0 (Background)
//Storyboard Layer 1 (Fail)
//Storyboard Layer 2 (Pass)
//Storyboard Layer 3 (Foreground)
//Storyboard Sound Samples

[TimingPoints]
900,320.855614973262,4,2,1,100,1,0
900,-100,4,2,1,30,0,0
10204,-100,4,2,1,5,0,0
10847,320.855614973262,4,2,1,70,1,0
10847,-100,4,2,2,70,0,0
51595,-100,4,2,2,40,0,0
56248,-100,4,2,2,70,0,0
62183,-100,4,2,2,80,0,1
87050,-100,4,2,2,90,0,1
87691,-100,4,2,2,90,0,0

[Colours]
Combo1 : 128,0,255
Combo2 : 255,128,64
Combo3 : 255,128,192
Combo4 : 23,209,116

[HitObjects]
132,88,900,6,0,P|228:64|308:88,1,180,2|0,0:0|0:0,0:0:0:0:
373,132,1862,1,0,0:0:0:0:
420,200,2183,2,0,P|324:224|244:200,1,180,2|0,0:0|0:0,0:0:0:0:
176,163,3145,1,0,0:0:0:0:
101,195,3466,6,0,P|108:116|198:83,1,180,2|0,0:0|0:0,0:0:0:0:
272,92,4429,1,0,0:0:0:0:
328,152,4750,2,0,B|396:124|404:160|436:180|508:160,1,180,2|0,0:0|0:0,0:0:0:0:
401,287,6033,6,0,B|353:271|313:295|313:295|293:247|257:219,1,180,2|0,0:0|0:0,0:0:0:0:
198,172,6996,1,0,0:0:0:0:
189,91,7317,2,0,B|234:101|277:83|277:83|297:131|333:159,1,180,2|0,0:0|0:0,0:0:0:0:
386,212,8279,1,0,0:0:0:0:
425,282,8600,2,0,B|357:310|349:274|317:254|245:274,1,180,2|0,0:0|0:0,0:0:0:0:
171,290,9563,1,0,0:0:0:0:
108,340,9883,2,0,P|91:291|112:236,1,90,2|0,0:0|0:0,0:0:0:0:
36,108,10846,6,0,B|96:132|172:104|172:104|220:104,1,180,8|10,0:0|0:0,0:0:0:0:
294,104,11809,1,2,0:0:0:0:
376,100,12130,2,0,P|416:172|348:224,1,180,8|10,0:0|0:0,0:0:0:0:
272,244,13092,1,2,0:0:0:0:
191,238,13413,6,0,L|103:222,2,90,8|2|8,0:0|0:0|0:0,0:0:0:0:
284,160,14536,2,0,L|440:148,1,135,8|0,0:0|0:0,0:0:0:0:
408,68,15338,2,0,L|288:76,1,90,8|0,0:0|0:0,0:0:0:0:
236,88,15980,6,0,B|184:72|184:72|132:100|52:80,1,180,8|10,0:0|0:0,0:0:0:0:
28,156,16943,1,2,0:0:0:0:
56,232,17264,2,0,B|108:248|108:248|160:220|240:240,1,180,8|10,0:0|0:0,0:0:0:0:
308,260,18226,1,2,0:0:0:0:
388,256,18547,6,0,P|372:136|336:80,1,180,8|10,0:0|0:0,0:0:0:0:
232,36,19670,2,0,P|180:24|132:40,2,90,8|8|8,0:0|0:0|0:0,0:0:0:0:
188,104,20633,1,8,0:0:0:0:
120,204,21114,6,0,B|128:232|128:232|192:200|276:216,1,180,8|10,0:0|0:0,0:0:0:0:
348,252,22076,1,2,0:0:0:0:
388,324,22397,2,0,B|396:352|396:352|312:332|228:356,1,180,8|10,0:0|0:0,0:0:0:0:
164,356,23360,1,2,0:0:0:0:
160,276,23681,6,0,L|84:220,2,90,8|2|8,0:0|0:0|0:0,0:0:0:0:
276,244,24804,2,0,L|432:232,1,135,8|0,0:0|0:0,0:0:0:0:
412,152,25606,2,0,L|292:160,1,90,8|0,0:0|0:0,0:0:0:0:
240,168,26248,6,0,P|176:120|132:192,1,180,8|10,0:0|0:0,0:0:0:0:
124,268,27210,1,2,0:0:0:0:
204,248,27531,2,0,P|304:228|320:128,1,180,8|10,0:0|0:0,0:0:0:0:
356,88,28494,1,2,0:0:0:0:
284,52,28814,6,0,B|208:64|184:44|144:40|104:52,1,180,8|10,0:0|0:0,0:0:0:0:
192,136,29937,2,0,P|148:124|92:144,2,90,8|8|8,0:0|0:0|0:0,0:0:0:0:
28,216,31381,6,0,P|120:240|216:216,1,180,8|2,0:0|0:0,0:0:0:0:
281,200,32344,1,2,0:0:0:0:
336,136,32665,2,0,P|364:192|356:232,1,90,8|2,0:0|0:0,0:0:0:0:
312,284,33306,2,0,P|312:328|337:365,1,90,8|2,0:0|0:0,0:0:0:0:
392,304,33948,6,0,L|480:260,2,90,8|2|8,0:0|0:0|0:0,0:0:0:0:
312,284,34911,1,2,0:0:0:0:
244,240,35232,2,0,L|156:284,2,90,8|2|8,0:0|0:0|0:0,0:0:0:0:
104,156,36515,6,0,B|96:128|96:128|168:144|256:128,1,180,8|8,0:0|0:0,0:0:0:0:
324,108,37478,1,2,0:0:0:0:
404,92,37798,2,0,B|432:84|432:84|416:156|432:244,1,180,8|10,0:0|0:0,0:0:0:0:
380,300,38761,1,2,0:0:0:0:
308,336,39082,2,0,B|280:344|280:344|296:272|280:184,1,180,8|10,0:0|0:0,0:0:0:0:
260,116,40044,1,2,0:0:0:0:
252,36,40365,2,0,L|124:40,1,90,8|4,0:0|0:0,0:0:0:0:
108,100,41007,2,0,L|96:208,1,90
100,272,41649,6,0,B|148:288|188:264|188:264|208:312|244:340,1,180,8|8,0:0|0:0,0:0:0:0:
320,328,42611,1,2,0:0:0:0:
396,300,42932,2,0,P|408:240|392:192,1,90,8|2,0:0|0:0,0:0:0:0:
336,168,43574,2,0,P|321:113|341:61,1,90,8|2,0:0|0:0,0:0:0:0:
401,118,44215,6,0,L|501:118,2,90,8|2|8,0:0|0:0|0:0,0:0:0:0:
328,81,45178,1,2,0:0:0:0:
247,70,45499,2,0,L|175:150,1,90,8|0,0:0|0:0,0:0:0:0:
136,200,46141,1,8,0:0:0:0:
298,236,46782,6,0,B|287:198|351:184|351:184|420:148|402:81,1,180,8|8,0:0|0:0,0:0:0:0:
375,36,47745,1,2,0:0:0:0:
456,36,48066,2,0,B|486:87|486:87|492:105|480:172|448:216,1,180,8|8,0:0|0:0,0:0:0:0:
420,274,49028,1,2,0:0:0:0:
465,341,49349,6,0,P|423:355|361:328,1,90,8|2,0:0|0:0,0:0:0:0:
332,278,49991,2,0,P|288:266|228:282,1,90,8|2,0:0|0:0,0:0:0:0:
168,296,50633,1,8,0:0:0:0:
96,336,50953,2,0,P|84:296|104:240,1,90,2|4,0:0|0:0,0:0:0:0:
184,116,51916,6,0,P|244:76|320:52,2,135
236,180,53199,2,0,P|176:220|100:244,2,135
292,120,54483,2,0,P|332:180|356:256,2,135
212,136,55766,2,0,P|148:128|100:152,2,90
168,208,56729,1,0,0:0:0:0:
184,288,57050,6,8,B|240:268|240:268|284:296|284:296|324:284|372:296,1,180
492,208,58333,2,8,B|384:208|384:208|352:196|300:204,1,180
194,317,59617,2,8,B|222:249|186:241|166:209|186:137,1,180,10|8,0:0|0:0,0:0:0:0:
225,72,60579,1,8,0:0:0:0:
299,103,60900,6,8,L|344:212,1,90
372,260,61542,1,12,0:0:0:0:
236,344,62183,6,8,B|208:288|208:288|152:168,1,180,12|8,0:0|0:0,0:0:0:0:
120,112,63146,1,8,0:0:0:0:
136,32,63467,2,8,P|44:80|48:152,1,180
76,220,64429,1,8,0:0:0:0:
120,288,64750,6,8,B|188:260|196:296|228:316|300:296,1,180,12|8,0:0|0:0,0:0:0:0:
372,268,65713,1,8,0:0:0:0:
432,216,66034,2,0,P|452:280|439:312,2,90,8|2|8,0:0|0:0|0:0,0:0:0:0:
360,72,67317,6,8,B|312:76|264:56|264:56|268:108|252:140,1,180,12|8,0:0|0:0,0:0:0:0:
220,212,68280,1,8,0:0:0:0:
244,290,68601,2,8,P|168:276|145:182,1,180
176,112,69563,1,8,0:0:0:0:
132,44,69884,6,8,P|168:32|228:48,1,90,12|8,0:0|0:0,0:0:0:0:
268,108,70526,2,8,P|304:120|364:104,1,90
424,68,71167,2,0,P|436:104|420:164,2,90,8|8|8,0:0|0:0|0:0,0:0:0:0:
264,92,72451,6,8,L|164:100,1,90,12|8,0:0|0:0,0:0:0:0:
184,180,73092,2,8,L|84:188,1,90
80,268,73734,2,8,B|232:256|232:256|264:228,1,180,12|8,0:0|0:0,0:0:0:0:
292,166,74697,1,8,0:0:0:0:
364,208,75018,6,8,P|376:160|351:108,1,90,12|8,0:0|0:0,0:0:0:0:
296,80,75659,2,8,L|200:80,1,90
200,160,76301,2,8,P|144:172|104:160,2,90,12|8|8,0:0|0:0|0:0,0:0:0:0:
236,320,77584,6,8,B|304:292|312:328|344:348|416:328,1,180,12|8,0:0|0:0,0:0:0:0:
464,268,78547,1,8,0:0:0:0:
420,200,78868,2,8,B|352:172|344:208|312:228|240:208,1,180,14|8,0:0|0:0,0:0:0:0:
172,176,79830,1,8,0:0:0:0:
124,248,80151,6,8,P|84:178|148:92,1,180,12|8,0:0|0:0,0:0:0:0:
208,72,81114,1,8,0:0:0:0:
276,24,81435,2,8,P|292:72|276:120,1,90,12|8,0:0|0:0,0:0:0:0:
224,164,82076,2,8,P|208:212|224:260,1,90
273,311,82718,6,0,P|434:185|274:113,1,450,12|0,0:0|0:0,0:0:0:0:
96,192,85285,6,0,B|144:180|188:200|244:192,1,135,12|0,0:0|0:0,0:0:0:0:
312,284,86248,2,0,B|264:272|220:292|164:284,1,135,12|0,0:0|0:0,0:0:0:0:
100,300,87050,2,0,P|64:204|96:124,1,180,8|12,0:0|0:0,0:0:0:0:
