osu file format v14

[General]
AudioFilename: audio.mp3
AudioLeadIn: 0
PreviewTime: 60900
Countdown: 0
SampleSet: Soft
StackLeniency: 0.7
Mode: 0
LetterboxInBreaks: 0
WidescreenStoryboard: 0

[Editor]
Bookmarks: 10847,31382,62184
DistanceSpacing: 1.1
BeatDivisor: 2
GridSize: 4
TimelineZoom: 1.4

[Metadata]
Title:Acchi Muite
TitleUnicode:あっちむいて
Artist:Swimy
ArtistUnicode:スイミー
Creator:Kantzm8
Version:Advanced
Source:銀魂°
Tags:Gintama anime ending 2015 銀魂
BeatmapID:1092828
BeatmapSetID:513476

[Difficulty]
HPDrainRate:4
CircleSize:3.4
OverallDifficulty:5
ApproachRate:6
SliderMultiplier:1.1
SliderTickRate:1

[Events]
//Background and Video events
0,0,"285858.jpg",0,0
//Break Periods
//Storyboard Layer 0 (Background)
//Storyboard Layer 1 (Fail)
//Storyboard Layer 2 (Pass)
//Storyboard Layer 3 (Foreground)
//Storyboard Sound Samples

[TimingPoints]
900,320.855614973262,4,2,1,100,1,0
900,-100,4,2,1,30,0,0
10204,-100,4,2,1,5,0,0
10847,320.855614973262,4,2,1,70,1,0
10847,-100,4,2,2,70,0,0
51595,-100,4,2,2,40,0,0
56248,-100,4,2,2,70,0,0
62183,-100,4,2,2,80,0,1
84322,-100,4,2,2,5,0,1
84643,-100,4,2,2,80,0,1
87050,-100,4,2,2,90,0,1
87691,-100,4,2,2,90,0,0

[Colours]
Combo1 : 128,0,255
Combo2 : 255,128,64
Combo3 : 255,128,192
Combo4 : 23,209,116

[HitObjects]
160,76,900,6,0,P|220:68|284:80,1,110,2|0,0:0|0:0,0:0:0:0:
388,100,1541,2,0,P|396:160|384:224,1,110
364,328,2183,2,0,B|332:344|332:344|244:344,1,110,2|0,0:0|0:0,0:0:0:0:
136,332,2825,2,0,B|120:300|120:300|120:212,1,110
124,104,3466,6,0,P|216:52|308:104,1,220,2|0,0:0|0:0,0:0:0:0:
384,196,4429,1,0,0:0:0:0:
336,308,4750,2,0,P|396:316|460:304,1,110,2|0,0:0|0:0,0:0:0:0:
465,192,5391,2,0,P|436:132|376:116,1,110
304,192,6033,6,0,P|244:200|180:188,1,110,2|0,0:0|0:0,0:0:0:0:
288,272,6675,2,0,P|360:248|380:216,1,110
368,100,7317,2,0,P|428:92|492:104,1,110,2|0,0:0|0:0,0:0:0:0:
384,20,7959,2,0,P|312:44|292:76,1,110
224,168,8600,5,2,0:0:0:0:
332,221,8921,1,2,0:0:0:0:
217,260,9242,1,2,0:0:0:0:
111,201,9563,1,2,0:0:0:0:
176,100,9883,2,0,P|244:88|296:120,1,110,2|0,0:0|0:0,0:0:0:0:
328,276,10847,6,0,P|392:288|456:272,2,110,8|2|8,0:0|0:0|0:0,0:0:0:0:
208,252,11809,1,2,0:0:0:0:
208,252,11969,2,0,B|136:244|136:244|72:264,1,110,8|0,0:0|0:0,0:0:0:0:
40,272,12451,2,0,P|28:208|44:144,2,110,2|8|10,0:0|0:0|0:0,0:0:0:0:
200,356,13574,6,0,L|276:365,2,55,8|2|0,0:0|0:0|0:0,0:0:0:0:
140,344,14055,2,0,L|80:360,2,55,8|0|2,0:0|0:0|0:0,0:0:0:0:
144,284,14536,2,0,P|208:272|272:288,1,110,8|0,0:0|0:0,0:0:0:0:
308,300,15018,1,0,0:0:0:0:
364,320,15178,2,0,B|375:284|375:284|367:212,1,110,8|0,0:0|0:0,0:0:0:0:
364,152,15659,2,0,P|332:148|296:152,1,55,2|0,0:0|0:0,0:0:0:0:
252,168,15980,6,0,P|197:175|144:163,2,110,8|0|0,0:0|0:0|0:0,0:0:0:0:
364,152,16943,1,2,0:0:0:0:
364,152,17103,2,0,B|372:224|372:224|352:288,1,110,8|2,0:0|0:0,0:0:0:0:
336,316,17584,2,0,P|281:323|228:311,2,110,10|8|10,0:0|0:0|0:0,0:0:0:0:
240,172,18707,6,8,P|272:168|308:172,2,55
180,156,19189,2,8,P|148:160|112:156,2,55
208,104,19670,1,8,0:0:0:0:
320,60,19991,1,8,0:0:0:0:
204,24,20312,1,4,0:0:0:0:
92,68,20633,2,8,P|60:64|24:68,2,55
147,93,21114,6,0,P|159:157|143:221,2,110,8|2|8,0:0|0:0|0:0,0:0:0:0:
259,49,22076,1,2,0:0:0:0:
259,49,22237,2,0,B|331:41|331:41|384:56,1,110,8|0,0:0|0:0,0:0:0:0:
394,106,22718,2,0,P|406:170|390:234,2,110,2|8|10,0:0|0:0|0:0,0:0:0:0:
229,182,23841,6,0,L|213:254,1,55,8|0,0:0|0:0,0:0:0:0:
269,262,24162,2,0,L|285:334,1,55,8|0,0:0|0:0,0:0:0:0:
284,376,24483,2,0,P|316:380|352:376,2,55,8|0|2,0:0|0:0|0:0,0:0:0:0:
164,376,25125,2,0,P|132:372|96:376,2,55,8|0|2,0:0|0:0|0:0,0:0:0:0:
228,280,25766,2,0,P|260:276|296:280,1,55,8|0,0:0|0:0,0:0:0:0:
404,276,26248,6,0,P|416:340|400:404,2,110,8|2|8,0:0|0:0|0:0,0:0:0:0:
343,171,27210,1,2,0:0:0:0:
343,171,27370,2,0,B|271:163|271:163|207:183,1,110,8|0,0:0|0:0,0:0:0:0:
213,231,27852,2,0,P|201:295|217:359,2,110,2|8|10,0:0|0:0|0:0,0:0:0:0:
56,138,28975,6,8,L|48:78,1,55
109,82,29296,2,8,L|117:22,1,55
176,20,29617,1,8,0:0:0:0:
230,46,29777,2,8,L|291:71,1,55
400,68,30258,1,8,0:0:0:0:
308,148,30579,1,8,0:0:0:0:
332,268,30900,2,8,P|300:272|264:268,1,55
218,266,31221,1,8,0:0:0:0:
160,252,31381,6,8,P|148:188|164:124,2,110,4|2|2,0:0|0:0|0:0,0:0:0:0:
220,356,32344,1,2,0:0:0:0:
308,272,32665,2,0,L|316:212,1,55,8|0,0:0|0:0,0:0:0:0:
256,212,32986,2,0,L|248:152,1,55,2|0,0:0|0:0,0:0:0:0:
204,116,33306,2,0,L|144:124,1,55,8|0,0:0|0:0,0:0:0:0:
144,64,33627,2,0,L|84:56,1,55,2|0,0:0|0:0,0:0:0:0:
28,44,33948,6,0,P|16:108|32:172,2,110,8|2|8,0:0|0:0|0:0,0:0:0:0:
144,64,34911,1,2,0:0:0:0:
236,144,35232,2,0,P|268:148|304:144,1,55,8|0,0:0|0:0,0:0:0:0:
348,132,35552,2,0,P|352:164|348:200,1,55,2|0,0:0|0:0,0:0:0:0:
336,237,35873,2,0,L|192:249,1,110,8|2,0:0|0:0,0:0:0:0:
108,264,36515,6,0,B|97:228|97:228|105:156,1,110,8|2,0:0|0:0,0:0:0:0:
136,40,37157,2,0,B|172:29|172:29|244:37,1,110,8|2,0:0|0:0,0:0:0:0:
188,144,37798,2,0,B|180:216|180:216|191:252,1,110,8|2,0:0|0:0,0:0:0:0:
308,276,38440,1,8,0:0:0:0:
396,196,38761,1,2,0:0:0:0:
376,320,39082,6,0,P|336:352|272:348,1,110,8|2,0:0|0:0,0:0:0:0:
176,284,39724,2,0,P|136:252|72:256,1,110,8|2,0:0|0:0,0:0:0:0:
128,364,40365,1,8,0:0:0:0:
128,364,40686,1,2,0:0:0:0:
244,352,41007,1,0,0:0:0:0:
244,352,41328,1,2,0:0:0:0:
360,316,41649,6,0,P|372:252|356:188,2,110,8|2|8,0:0|0:0|0:0,0:0:0:0:
244,352,42611,1,2,0:0:0:0:
132,308,42932,2,0,L|124:248,1,55,8|0,0:0|0:0,0:0:0:0:
184,248,43253,2,0,L|192:188,1,55,0|2,0:0|0:0,0:0:0:0:
236,152,43573,2,8,L|296:160,1,55,8|0,0:0|0:0,0:0:0:0:
296,100,43894,2,0,L|356:92,1,55,0|2,0:0|0:0,0:0:0:0:
412,80,44215,6,8,P|424:144|408:208,2,110,8|2|8,0:0|0:0|0:0,0:0:0:0:
296,100,45178,1,2,0:0:0:0:
216,192,45499,2,0,P|184:196|148:192,1,55,8|0,0:0|0:0,0:0:0:0:
136,140,45820,2,0,P|104:136|68:140,1,55,2|0,0:0|0:0,0:0:0:0:
20,128,46141,2,0,B|12:200|12:200|23:236,1,110,8|2,0:0|0:0,0:0:0:0:
100,332,46782,6,0,P|164:344|228:328,1,110,8|2,0:0|0:0,0:0:0:0:
292,252,47424,2,0,P|356:240|420:256,1,110,8|0,0:0|0:0,0:0:0:0:
464,144,48066,2,0,B|428:133|428:133|356:141,1,110,8|2,0:0|0:0,0:0:0:0:
240,180,48707,1,8,0:0:0:0:
128,224,49028,1,2,0:0:0:0:
184,116,49349,6,0,P|244:96|304:124,1,110,8|2,0:0|0:0,0:0:0:0:
392,168,49991,2,0,P|396:200|392:236,1,55,8|0,0:0|0:0,0:0:0:0:
336,236,50312,2,0,P|332:268|336:304,1,55,2|0,0:0|0:0,0:0:0:0:
372,340,50633,1,8,0:0:0:0:
252,360,50953,1,8,0:0:0:0:
148,300,51274,1,12,0:0:0:0:
245,102,51916,6,0,P|291:44|263:118,1,220,0|0,0:3|0:3,0:3:0:0:
148,92,52879,1,0,0:0:0:0:
72,184,53199,2,0,P|34:251|93:201,1,220,0|0,0:3|0:3,0:3:0:0:
24,100,54162,1,0,0:0:0:0:
148,92,54483,2,0,P|207:41|169:109,1,220,0|0,0:3|0:3,0:3:0:0:
72,184,55445,1,0,0:0:0:0:
156,272,55766,2,0,P|215:322|177:254,1,220,0|0,0:3|0:3,0:3:0:0:
156,136,56729,1,0,0:0:0:0:
252,60,57050,6,0,L|248:188,1,110,8|2,0:0|0:0,0:0:0:0:
228,288,57691,2,0,P|260:284|296:288,1,55,8|0,0:0|0:0,0:0:0:0:
296,344,58012,2,0,P|328:348|364:344,1,55,2|0,0:0|0:0,0:0:0:0:
404,316,58333,1,8,0:0:0:0:
372,200,58654,2,0,L|228:187,1,110,2|8,0:0|0:0,0:0:0:0:
140,180,59296,1,2,0:0:0:0:
228,100,59617,6,0,P|292:88|356:104,2,110,8|2|8,0:0|0:0|0:0,0:0:0:0:
216,220,60579,1,2,0:0:0:0:
336,240,60900,2,0,L|344:300,1,55,8|0,0:0|0:0,0:0:0:0:
400,312,61221,2,0,L|392:372,1,55,2|0,0:0|0:0,0:0:0:0:
332,380,61542,2,0,P|252:356|232:300,1,110,8|0,0:0|0:0,0:0:0:0:
216,220,62183,6,0,L|72:207,1,110,8|2,0:0|0:0,0:0:0:0:
28,120,62825,2,0,L|171:107,1,110,8|2,0:0|0:0,0:0:0:0:
236,40,63467,2,0,P|300:28|364:44,1,110,8|2,0:0|0:0,0:0:0:0:
456,84,64109,2,0,P|468:148|452:212,1,110,8|2,0:0|0:0,0:0:0:0:
416,304,64750,6,0,B|348:256|240:360|202:308|168:304,1,220,8|8,0:0|0:0,0:0:0:0:
92,260,65713,1,2,0:0:0:0:
40,152,66034,2,0,P|96:144|160:156,1,110,8|2,0:0|0:0,0:0:0:0:
264,192,66675,2,0,P|328:200|392:188,1,110,8|2,0:0|0:0,0:0:0:0:
424,84,67317,6,0,B|388:73|388:73|316:81,1,110,8|2,0:0|0:0,0:0:0:0:
200,120,67959,2,0,B|164:131|164:131|92:123,1,110,8|2,0:0|0:0,0:0:0:0:
68,240,68601,2,0,L|211:252,1,110,8|2,0:0|0:0,0:0:0:0:
248,348,69242,2,0,L|391:335,1,110,8|2,0:0|0:0,0:0:0:0:
416,324,69724,1,0,0:0:0:0:
472,304,69884,6,0,P|484:240|472:180,1,110,8|2,0:0|0:0,0:0:0:0:
447,143,70365,1,0,0:0:0:0:
416,92,70526,2,0,P|352:80|292:92,1,110,8|2,0:0|0:0,0:0:0:0:
252,108,71007,1,0,0:0:0:0:
196,128,71167,6,8,L|183:271,1,110
308,236,71809,2,8,L|320:379,1,110
196,352,72451,6,0,P|160:356|128:352,1,55,8|2,0:0|0:0,0:0:0:0:
88,324,72772,2,0,P|84:288|88:256,1,55,8|2,0:0|0:0,0:0:0:0:
104,212,73092,1,8,0:0:0:0:
132,160,73253,1,2,0:0:0:0:
168,112,73413,2,0,P|204:108|236:112,1,55,8|2,0:0|0:0,0:0:0:0:
284,112,73734,6,0,P|296:176|284:236,1,110,8|8,0:0|0:0,0:0:0:0:
264,276,74215,1,2,0:0:0:0:
251,336,74376,2,0,L|323:342,1,55,8|2,0:0|0:0,0:0:0:0:
352,300,74697,2,0,L|423:293,1,55,8|2,0:0|0:0,0:0:0:0:
460,264,75018,6,0,L|454:192,1,55,8|2,0:0|0:0,0:0:0:0:
408,172,75338,2,0,L|414:100,1,55,8|2,0:0|0:0,0:0:0:0:
392,60,75659,2,0,P|356:56|324:60,1,55,8|2,0:0|0:0,0:0:0:0:
292,96,75980,2,0,P|256:100|224:96,1,55,8|2,0:0|0:0,0:0:0:0:
176,104,76301,5,8,0:0:0:0:
256,196,76622,1,8,0:0:0:0:
136,220,76943,1,12,0:0:0:0:
344,344,77584,6,0,L|331:201,1,110,8|10,0:0|0:0,0:0:0:0:
412,140,78226,2,0,L|425:-3,1,110,8|10,0:0|0:0,0:0:0:0:
488,132,78868,6,0,P|472:188|416:216,1,110,8|10,0:0|0:0,0:0:0:0:
308,228,79510,2,0,P|252:212|224:156,1,110,8|10,0:0|0:0,0:0:0:0:
140,84,80151,6,0,B|104:200|204:200|144:298|140:332,1,220,8|8,0:0|0:0,0:0:0:0:
240,380,81114,1,10,0:0:0:0:
332,304,81435,6,0,P|396:292|456:304,1,110,8|10,0:0|0:0,0:0:0:0:
484,188,82076,2,0,P|420:176|360:188,1,110,8|10,0:0|0:0,0:0:0:0:
260,204,82718,6,8,B|60:296|-8:100|144:0|308:104|224:296|28:202,1,550
36,88,84643,6,0,P|96:40|152:32,1,110,8|10,0:0|0:0,0:0:0:0:
248,52,85285,2,0,L|316:68,1,55,8|10,0:0|0:0,0:0:0:0:
332,116,85606,2,0,L|400:132,1,55,8|10,0:0|0:0,0:0:0:0:
344,304,86248,2,0,L|276:320,1,55,8|10,0:0|0:0,0:0:0:0:
232,336,86568,1,8,0:0:0:0:
172,348,86729,1,10,0:0:0:0:
156,228,87050,6,0,P|188:224|224:228,2,55,8|10|10,0:0|0:0|0:0,0:0:0:0:
112,184,87531,1,10,0:0:0:0:
88,128,87691,1,14,0:0:0:0:
