osu file format v14

[General]
AudioFilename: audio.mp3
AudioLeadIn: 0
PreviewTime: 131911
Countdown: 0
SampleSet: Soft
StackLeniency: 0.7
Mode: 0
LetterboxInBreaks: 0
WidescreenStoryboard: 1

[Editor]
DistanceSpacing: 0.2
BeatDivisor: 4
GridSize: 4
TimelineZoom: 2

[Metadata]
Title:Acchi Muite
TitleUnicode:あっちむいて
Artist:Swimy
ArtistUnicode:Swimy
Creator:FuJu
Version:Spring
Source:銀魂゜
Tags:japanese pop jpop j-pop rock jrock j-rock Gintama° gintama ending ed full ver version season 4 male vocals anime kowari kudosu soop so0p
BeatmapID:2504951
BeatmapSetID:1141606

[Difficulty]
HPDrainRate:6
CircleSize:4
OverallDifficulty:8.5
ApproachRate:9.3
SliderMultiplier:1.7
SliderTickRate:1

[Events]
//Background and Video events
0,0,"bg.jpg",0,0
//Break Periods
//Storyboard Layer 0 (Background)
//Storyboard Layer 1 (Fail)
//Storyboard Layer 2 (Pass)
//Storyboard Layer 3 (Foreground)
//Storyboard Layer 4 (Overlay)
//Storyboard Sound Samples

[TimingPoints]
1404,320.855614973262,4,2,22,40,1,0
1404,-153.846153846154,4,2,22,40,0,0
10387,-222.222222222223,4,2,22,40,0,0
11270,-222.222222222223,4,2,22,5,0,0
11350,320.855614973262,4,2,22,75,1,0
11350,-95.2380952380954,4,2,22,75,0,0
11590,-95.2380952380954,4,2,22,5,0,0
11670,-95.2380952380954,4,2,22,75,0,0
16724,-95.2380952380954,4,2,22,5,0,0
16804,-95.2380952380954,4,2,22,75,0,0
20253,-95.2380952380954,4,2,22,5,0,0
20494,-95.2380952380954,4,2,22,75,0,0
20574,-95.2380952380954,4,2,22,5,0,0
20815,-95.2380952380954,4,2,22,75,0,0
20895,-95.2380952380954,4,2,22,5,0,0
21136,-95.2380952380954,4,2,22,75,0,0
21216,-95.2380952380954,4,2,22,5,0,0
21296,-95.2380952380954,4,2,22,75,0,0
21858,-95.2380952380954,4,2,22,5,0,0
21938,-95.2380952380954,4,2,22,75,0,0
26991,-95.2380952380954,4,2,22,5,0,0
27071,-95.2380952380954,4,2,22,75,0,0
30521,-95.2380952380954,4,2,22,5,0,0
30761,-95.2380952380954,4,2,22,75,0,0
30841,-95.2380952380954,4,2,22,5,0,0
31082,-95.2380952380954,4,2,22,75,0,0
31162,-95.2380952380954,4,2,22,5,0,0
31243,-95.2380952380954,4,2,22,75,0,0
31483,-95.2380952380954,4,2,22,5,0,0
31563,-95.2380952380954,4,2,22,75,0,0
31884,-105.263157894737,4,2,22,60,0,0
40948,-95.2380952380954,4,2,22,5,0,0
41189,-105.263157894737,4,2,22,60,0,0
41269,-95.2380952380954,4,2,22,5,0,0
41510,-105.263157894737,4,2,22,65,0,0
52339,-95.2380952380954,4,2,22,5,0,0
52419,-133.333333333334,4,2,22,50,0,0
57553,-95.2380952380956,4,2,22,65,0,0
59799,-133.333333333334,4,2,22,50,0,0
60039,-95.2380952380956,4,2,22,5,0,0
60120,-95.2380952380956,4,2,22,75,0,0
62686,-86.9565217391304,4,2,22,85,0,1
62927,-86.9565217391304,4,2,22,5,0,1
63007,-86.9565217391304,4,2,22,85,0,1
64210,-86.9565217391304,4,2,22,5,0,1
64291,-86.9565217391304,4,2,22,85,0,1
68061,-86.9565217391304,4,2,22,5,0,1
68141,-86.9565217391304,4,2,22,85,0,1
69344,-86.9565217391304,4,2,22,5,0,1
69424,-86.9565217391304,4,2,22,85,0,1
74478,-86.9565217391304,4,2,22,5,0,1
74558,-86.9565217391304,4,2,22,85,0,1
78328,-86.9565217391304,4,2,22,5,0,1
78408,-86.9565217391304,4,2,22,85,0,1
79612,-86.9565217391304,4,2,22,5,0,1
79692,-86.9565217391304,4,2,22,85,0,1
83221,-117.647058823529,4,2,22,55,0,0
85066,-117.647058823529,4,2,22,5,0,0
85146,-117.647058823529,4,2,22,55,0,0
86029,-117.647058823529,4,2,22,5,0,0
86109,-117.647058823529,4,2,22,55,0,0
86349,-117.647058823529,4,2,22,5,0,0
86430,-117.647058823529,4,2,22,55,0,0
88916,-117.647058823529,4,2,22,5,0,0
88997,-117.647058823529,4,2,22,55,0,0
89879,-117.647058823529,4,2,22,5,0,0
89960,-117.647058823529,4,2,22,55,0,0
90922,-105.263157894737,4,2,22,60,0,0
99505,-105.263157894737,4,2,22,5,0,0
99585,-105.263157894737,4,2,22,60,0,0
100628,-105.263157894737,4,2,22,5,0,0
100868,-105.263157894737,4,2,22,60,0,0
100948,-105.263157894737,4,2,22,5,0,0
101189,-153.846153846154,4,2,22,45,0,0
111456,-105.263157894737,4,2,22,60,0,0
121644,-105.263157894737,4,2,22,5,0,0
121724,-133.333333333334,4,2,22,50,0,0
126858,-95.2380952380956,4,2,22,75,0,0
129344,-95.2380952380956,4,2,22,5,0,0
129424,-95.2380952380956,4,2,22,75,0,0
131991,-86.9565217391304,4,2,22,85,0,1
132232,-86.9565217391304,4,2,22,5,0,1
132312,-86.9565217391304,4,2,22,85,0,1
133515,-86.9565217391304,4,2,22,5,0,1
133595,-86.9565217391304,4,2,22,85,0,1
137366,-86.9565217391304,4,2,22,5,0,1
137446,-86.9565217391304,4,2,22,85,0,1
138649,-86.9565217391304,4,2,22,5,0,1
138729,-86.9565217391304,4,2,22,85,0,1
143783,-86.9565217391304,4,2,22,5,0,1
143863,-86.9565217391304,4,2,22,85,0,1
147633,-86.9565217391304,4,2,22,5,0,1
147713,-86.9565217391304,4,2,22,85,0,1
148916,-86.9565217391304,4,2,22,5,0,1
148997,-86.9565217391304,4,2,22,85,0,1
152526,-133.333333333333,4,2,22,50,0,0
170494,-105.263157894737,4,2,22,60,0,0
170735,-105.263157894737,4,2,22,5,0,0
170815,-105.263157894737,4,2,22,60,0,0
182152,-105.263157894737,4,2,22,5,0,0
182259,-105.263157894737,4,2,22,60,0,0
182366,-105.263157894737,4,2,22,5,0,0
182473,-105.263157894737,4,2,22,60,0,0
182579,-105.263157894737,4,2,22,5,0,0
182686,-105.263157894737,4,2,22,60,0,0
182793,-105.263157894737,4,2,22,5,0,0
182900,-105.263157894737,4,2,22,60,0,0
183007,-105.263157894737,4,2,22,5,0,0
183114,-105.263157894737,4,2,22,60,0,0
183221,-105.263157894737,4,2,22,5,0,0
183328,-105.263157894737,4,2,22,60,0,0
183649,-285.714285714287,4,2,22,25,0,0
185895,-86.9565217391304,4,2,22,85,0,1
186136,-86.9565217391304,4,2,22,5,0,1
186216,-86.9565217391304,4,2,22,85,0,1
187419,-86.9565217391304,4,2,22,5,0,1
187499,-86.9565217391304,4,2,22,85,0,1
191269,-86.9565217391304,4,2,22,5,0,1
191349,-86.9565217391304,4,2,22,85,0,1
192553,-86.9565217391304,4,2,22,5,0,1
192633,-86.9565217391304,4,2,22,85,0,1
197686,-86.9565217391304,4,2,22,5,0,1
197766,-86.9565217391304,4,2,22,85,0,1
201537,-86.9565217391304,4,2,22,5,0,1
201617,-86.9565217391304,4,2,22,85,0,1
202820,-86.9565217391304,4,2,22,5,0,1
202900,-86.9565217391304,4,2,22,85,0,1
206430,-105.263157894737,4,2,22,65,0,0

[Colours]
Combo1 : 255,40,40
Combo2 : 0,221,55
Combo3 : 0,225,225
Combo4 : 230,230,0

[HitObjects]
29,378,1404,5,2,0:2:0:0:
8,292,1724,1,2,0:2:0:0:
94,271,2045,1,2,0:2:0:0:
115,357,2366,1,2,0:2:0:0:
115,357,2687,5,2,0:2:0:0:
94,271,3008,1,2,0:2:0:0:
8,292,3329,1,2,0:2:0:0:
29,378,3649,1,2,0:2:0:0:
35,381,3970,6,0,B|81:382|116:359|99:347|140:325|188:329,1,165.749992412568,2|0,0:2|0:2,0:0:0:0:
291,377,4612,2,0,P|265:386|238:384,1,55.2499974708558,2|0,0:2|0:2,0:0:0:0:
341,281,4933,2,0,P|368:278|393:288,1,55.2499974708558,2|0,0:2|0:2,0:0:0:0:
258,306,5254,2,0,P|261:278|263:251,1,55.2499974708558,2|0,0:2|0:2,0:0:0:0:
319,133,5575,2,0,P|316:160|313:188,1,55.2499974708558,2|0,0:2|0:2,0:0:0:0:
188,269,5895,1,2,0:2:0:0:
188,269,6537,5,2,0:2:0:0:
154,187,6858,1,2,0:2:0:0:
208,117,7179,1,2,0:2:0:0:
154,46,7500,1,2,0:2:0:0:
154,46,7821,5,2,0:2:0:0:
208,117,8141,1,2,0:2:0:0:
154,187,8462,1,2,0:2:0:0:
188,269,8783,1,2,0:0:0:0:
188,269,9104,6,0,P|160:267|132:265,1,55.2499974708558,2|0,0:2|0:2,0:0:0:0:
224,339,9425,2,0,P|251:336|279:335,1,55.2499974708558,2|0,0:2|0:2,0:0:0:0:
370,276,9746,2,0,P|386:224|360:176,1,110.499994941712,2|2,0:2|0:2,0:0:0:0:
364,65,10387,6,0,B|303:57|271:107|271:107|231:68|175:85,1,210.374993579865,2|0,0:2|0:2,0:0:0:0:
94,38,11350,6,0,P|104:104|114:170,1,133.874995914459,6|0,1:2|0:2,0:0:0:0:
91,249,11670,2,0,P|48:265|-3:249,1,89.2499972763062,10|0,0:2|0:2,0:0:0:0:
178,85,11991,2,0,P|221:75|262:91,1,89.2499972763062,2|2,1:2|0:2,0:0:0:0:
94,38,12312,5,10,0:2:0:0:
200,246,12472,2,0,P|205:201|212:157,1,89.2499972763062,2|2,1:2|0:2,0:0:0:0:
141,316,12793,1,2,1:2:0:0:
341,98,12954,2,0,P|346:143|353:187,1,89.2499972763062,10|0,0:2|1:2,0:0:0:0:
281,45,13275,1,2,0:2:0:0:
424,132,13435,1,0,1:2:0:0:
306,261,13595,2,0,B|258:221|206:238|206:238|184:274|137:272,1,178.499994552612,10|0,0:2|1:2,0:0:0:0:
260,336,14077,5,2,0:2:0:0:
133,191,14237,2,0,L|143:102,1,89.2499972763062,10|2,0:2|0:2,0:0:0:0:
67,261,14558,1,2,1:2:0:0:
218,156,14718,1,2,1:2:0:0:
41,84,14879,1,10,0:2:0:0:
160,287,15039,6,0,P|229:234|318:263,1,178.499994552612,2|2,1:2|1:2,0:0:0:0:
133,191,15521,1,10,0:2:0:0:
226,56,15681,2,0,P|254:89|254:136,1,89.2499972763062,2|0,1:2|0:2,0:0:0:0:
133,191,16002,1,2,1:2:0:0:
298,13,16162,2,0,P|342:19|386:24,1,89.2499972763062,10|0,0:2|0:2,0:0:0:0:
182,116,16483,6,0,P|116:106|49:97,1,133.874995914459,6|0,1:2|0:2,0:0:0:0:
1,162,16804,2,0,B|-16:204|-16:204|-1:245,1,89.2499972763062,10|0,0:2|0:2,0:0:0:0:
57,354,17125,1,2,1:2:0:0:
149,225,17285,1,2,1:2:0:0:
287,369,17446,2,0,P|242:362|198:358,1,89.2499972763062,10|0,0:2|1:2,0:0:0:0:
323,224,17767,6,0,P|368:231|412:235,1,89.2499972763062,2|0,0:2|1:2,0:0:0:0:
280,146,18087,1,10,0:2:0:0:
364,310,18248,1,0,1:2:0:0:
500,148,18408,2,0,P|458:133|416:146,1,89.2499972763062,2|2,0:2|1:2,0:0:0:0:
509,244,18729,1,10,0:2:0:0:
382,7,18890,1,2,0:2:0:0:
375,12,18970,1,2,0:2:0:0:
368,16,19050,6,0,P|359:59|351:103,1,89.2499972763062,0|2,1:2|0:2,0:0:0:0:
207,203,19371,2,0,P|185:164|192:121,1,89.2499972763062,10|2,0:2|0:2,0:0:0:0:
334,194,19692,1,2,1:2:0:0:
210,323,19852,1,2,1:2:0:0:
334,194,20013,1,10,0:2:0:0:
112,45,20173,6,0,P|118:66|121:88,1,44.6249986381531,2|0,1:3|0:2,0:0:0:0:
210,323,20494,2,0,P|212:300|219:279,1,44.6249986381531,2|0,1:3|0:2,0:0:0:0:
43,84,20815,2,0,L|-1:92,1,44.6249986381531,2|0,1:3|0:2,0:0:0:0:
289,317,21136,2,0,L|333:325,1,44.6249986381531,2|0,1:3|0:2,0:0:0:0:
448,356,21296,1,10,0:2:0:0:
510,280,21456,1,10,0:2:0:0:
488,183,21617,6,0,P|438:138|363:150,1,133.874995914459,6|0,1:2|0:2,0:0:0:0:
302,108,21938,2,0,P|291:154|313:196,1,89.2499972763062,10|0,0:2|0:2,0:0:0:0:
229,68,22259,1,2,1:2:0:0:
375,142,22419,1,2,1:2:0:0:
256,336,22579,2,0,P|250:291|243:247,1,89.2499972763062,10|2,0:2|1:2,0:0:0:0:
339,274,22900,6,0,P|383:280|427:286,1,89.2499972763062,2|2,0:2|1:2,0:0:0:0:
189,384,23221,2,0,P|144:377|100:371,1,89.2499972763062,10|0,0:2|1:2,0:0:0:0:
8,332,23542,1,2,0:2:0:0:
118,267,23702,1,2,1:2:0:0:
81,85,23863,2,0,P|17:142|29:227,1,178.499994552612,10|0,0:2|1:2,0:0:0:0:
104,175,24344,5,2,0:2:0:0:
213,87,24505,2,0,P|205:43|200:0,1,89.2499972763062,10|0,0:2|0:2,0:0:0:0:
118,267,24825,1,2,1:2:0:0:
265,182,24986,1,2,1:2:0:0:
112,86,25146,1,10,0:2:0:0:
243,307,25307,6,0,B|295:256|366:278|366:278|348:297|341:326,1,178.499994552612,2|2,1:2|1:2,0:0:0:0:
265,182,25788,1,10,0:2:0:0:
365,77,25948,2,0,P|370:121|376:165,1,89.2499972763062,2|0,1:2|0:2,0:0:0:0:
455,109,26269,1,2,1:2:0:0:
313,6,26430,2,0,P|271:-9|229:2,1,89.2499972763062,10|0,0:2|0:2,0:0:0:0:
35,122,26751,6,0,B|120:106|120:106|134:127|159:134,1,133.874995914459,6|0,1:2|0:2,0:0:0:0:
243,104,27071,2,0,B|255:148|255:148|234:192,1,89.2499972763062,10|0,0:2|0:2,0:0:0:0:
181,60,27392,1,2,1:2:0:0:
330,152,27553,1,2,1:2:0:0:
178,300,27713,2,0,P|169:256|161:212,1,89.2499972763062,10|2,0:2|1:2,0:0:0:0:
268,263,28034,6,0,P|311:271|355:279,1,89.2499972763062,2|2,0:2|1:2,0:0:0:0:
131,384,28355,2,0,P|87:375|43:367,1,89.2499972763062,10|0,0:2|1:2,0:0:0:0:
294,359,28676,1,2,0:2:0:0:
162,213,28836,1,2,1:2:0:0:
305,89,28997,2,0,B|288:173|288:173|283:178|283:178|267:264,1,178.499994552612,10|0,0:2|1:2,0:0:0:0:
267,262,29478,5,2,0:2:0:0:
96,146,29638,2,0,P|139:136|182:126,1,89.2499972763062,10|2,0:2|0:2,0:0:0:0:
397,200,29959,1,2,1:2:0:0:
220,36,30120,1,2,1:2:0:0:
410,51,30280,1,10,0:2:0:0:
256,252,30440,6,0,L|249:207,1,44.6249986381531,2|0,1:3|0:3,0:3:0:0:
465,376,30761,2,0,L|471:331,1,44.6249986381531,2|0,1:3|0:3,0:3:0:0:
186,162,31082,2,0,P|168:159|179:173,1,44.6249986381531,2|0,1:3|0:3,0:3:0:0:
249,207,31243,1,8,0:2:0:0:
82,383,31403,2,0,L|74:339,1,44.6249986381531,2|0,1:3|0:3,0:3:0:0:
1,299,31563,1,2,1:2:0:0:
16,219,31724,1,2,1:2:0:0:
33,140,31884,6,0,P|72:114|114:123,1,80.7499978437424,6|0,1:2|0:2,0:0:0:0:
234,276,32205,2,0,P|191:255|178:214,1,80.7499978437424,2|0,1:2|0:2,0:0:0:0:
254,34,32526,2,0,P|257:80|228:112,1,80.7499978437424,2|0,1:2|0:2,0:0:0:0:
177,150,32847,1,2,1:2:0:0:
177,150,33007,1,0,0:2:0:0:
329,195,33168,5,2,1:2:0:0:
352,104,33328,1,2,0:2:0:0:
443,0,33489,5,2,1:2:0:0:
466,91,33649,1,2,0:2:0:0:
359,11,33809,1,2,1:2:0:0:
359,11,33970,1,2,0:2:0:0:
421,158,34130,2,0,P|409:196|398:235,1,80.7499978437424,2|2,1:2|0:2,0:0:0:0:
209,353,34451,6,0,P|197:314|186:275,1,80.7499978437424,2|0,1:2|0:2,0:0:0:0:
29,356,34772,2,0,P|68:365|107:375,1,80.7499978437424,2|0,1:2|0:2,0:0:0:0:
123,181,35093,2,0,P|95:210|67:239,1,80.7499978437424,2|0,1:2|0:2,0:0:0:0:
119,300,35414,1,2,1:2:0:0:
119,300,35574,1,2,0:2:0:0:
217,138,35735,5,2,1:2:0:0:
117,74,35895,1,2,0:2:0:0:
23,245,36055,5,2,1:2:0:0:
123,181,36215,1,2,0:2:0:0:
25,77,36376,1,2,1:2:0:0:
25,77,36537,1,0,0:2:0:0:
221,30,36697,2,0,P|210:68|201:108,1,80.7499978437424,0|0,1:2|0:0,0:0:0:0:
82,16,37018,6,0,P|44:-2|3:1,1,80.7499978437424,2|0,1:2|0:2,0:0:0:0:
242,179,37339,2,0,P|281:181|317:162,1,80.7499978437424,2|0,1:2|0:2,0:0:0:0:
103,102,37660,2,0,P|113:140|122:180,1,80.7499978437424,2|0,1:2|0:2,0:0:0:0:
290,326,37981,1,2,1:2:0:0:
146,303,38141,5,2,0:2:0:0:
141,296,38221,1,2,0:0:0:0:
141,288,38301,2,0,P|178:269|220:273,1,80.7499978437424,2|0,1:2|0:2,0:0:0:0:
416,182,38622,2,0,P|376:184|340:165,1,80.7499978437424,2|0,1:2|0:2,0:0:0:0:
221,30,38943,1,2,1:2:0:0:
231,41,39264,6,0,P|221:80|213:119,1,80.7499978437424,2|0,1:2|0:0,0:0:0:0:
139,190,39585,2,0,P|120:154|120:114,1,80.7499978437424,2|0,1:2|0:2,0:0:0:0:
306,0,39906,2,0,P|324:35|324:75,1,80.7499978437424,2|0,1:2|0:2,0:0:0:0:
269,187,40227,1,2,1:2:0:0:
269,187,40387,1,0,0:2:0:0:
359,157,40547,1,2,1:2:0:0:
359,157,40707,1,0,0:2:0:0:
233,263,40868,6,0,P|222:274|224:257,1,40.3749989218712,2|0,1:3|0:3,0:3:0:0:
401,86,41189,2,0,P|405:70|391:81,1,40.3749989218712,2|0,1:3|0:3,0:3:0:0:
359,157,41510,1,8,0:1:0:0:
359,157,41831,1,8,0:1:0:0:
71,147,42152,6,0,B|61:185|61:185|63:188|63:188|53:226,1,80.7499978437424,6|0,1:2|0:2,0:0:0:0:
241,272,42472,2,0,B|212:244|212:244|209:244|209:244|181:216,1,80.7499978437424,10|0,0:2|0:2,0:0:0:0:
47,372,42793,2,0,B|84:360|84:360|86:358|86:358|124:348,1,80.7499978437424,2|0,1:2|0:2,0:0:0:0:
123,271,43114,1,10,0:2:0:0:
123,271,43275,1,2,0:2:0:0:
186,99,43435,5,2,1:2:0:0:
215,200,43595,1,2,0:2:0:0:
300,346,43756,5,10,0:2:0:0:
329,245,43916,1,2,0:2:0:0:
128,174,44077,1,2,1:2:0:0:
292,33,44237,1,2,0:2:0:0:
288,40,44317,1,2,0:0:0:0:
284,47,44398,2,0,P|276:86|270:126,1,80.7499978437424,10|2,0:2|0:2,0:0:0:0:
202,68,44718,6,0,P|170:46|127:45,1,80.7499978437424,2|0,1:2|0:2,0:0:0:0:
352,98,45039,2,0,P|387:81|408:44,1,80.7499978437424,10|0,0:2|0:2,0:0:0:0:
251,212,45360,2,0,P|247:250|269:287,1,80.7499978437424,2|0,1:2|0:2,0:0:0:0:
269,126,45681,1,10,0:2:0:0:
269,126,45841,1,2,0:2:0:0:
363,265,46002,5,2,1:2:0:0:
325,371,46162,1,2,0:2:0:0:
460,293,46323,5,10,0:2:0:0:
422,187,46483,1,2,0:2:0:0:
281,291,46644,1,2,1:2:0:0:
181,127,46804,1,2,0:2:0:0:
185,133,46884,1,2,0:0:0:0:
189,139,46964,2,0,P|228:133|268:125,1,80.7499978437424,8|0,0:2|0:0,0:0:0:0:
405,33,47285,6,0,P|365:25|325:19,1,80.7499978437424,2|0,1:2|0:2,0:0:0:0:
259,207,47606,2,0,P|298:214|338:220,1,80.7499978437424,10|0,0:2|0:2,0:0:0:0:
194,374,47927,2,0,P|175:340|179:300,1,80.7499978437424,2|0,1:2|0:2,0:0:0:0:
273,384,48248,1,10,0:2:0:0:
124,245,48408,5,2,0:2:0:0:
119,251,48489,1,2,0:0:0:0:
114,257,48569,2,0,P|74:263|34:269,1,80.7499978437424,2|0,1:2|0:2,0:0:0:0:
87,343,48890,1,10,0:2:0:0:
192,201,49050,1,2,0:2:0:0:
196,207,49130,1,2,0:0:0:0:
200,213,49210,1,2,1:2:0:0:
92,84,49371,1,2,0:2:0:0:
84,87,49451,1,2,0:0:0:0:
79,93,49531,2,0,P|58:126|60:165,1,80.7499978437424,10|0,0:2|0:0,0:0:0:0:
217,62,49852,6,0,B|299:44|299:44|339:62|322:113,1,161.499995687485,2|10,1:2|0:2,0:0:0:0:
323,109,50333,1,2,0:2:0:0:
284,271,50494,1,2,1:2:0:0:
229,159,50654,1,10,0:2:0:0:
388,210,50815,1,10,0:2:0:0:
393,220,50895,1,8,0:2:0:0:
398,230,50975,1,10,0:3:0:0:
191,247,51136,5,10,0:2:0:0:
438,130,51456,6,0,P|443:90|451:51,1,80.7499978437424,10|0,0:2|0:0,0:0:0:0:
451,51,51777,1,2,0:2:0:0:
361,78,51938,1,0,1:2:0:0:
483,209,52098,2,0,P|441:174|377:176,1,121.124996765614,10|0,1:2|0:2,0:0:0:0:
321,254,52419,6,0,B|266:231|216:259|234:284|197:315|144:299,2,191.250007295609,6|2|2,0:2|0:2|0:2,0:0:0:0:
0,195,53702,2,0,P|13:287|25:384,2,191.250007295609,6|2|2,1:2|0:2|1:2,0:0:0:0:
294,39,54986,2,0,P|246:72|171:52,1,127.500004863739,6|0,1:2|0:0,0:0:0:0:
130,120,55467,2,0,P|96:68|116:10,1,127.500004863739,2|0,0:2|0:0,0:0:0:0:
138,128,55948,2,0,P|132:159|126:190,1,63.7500024318696,2|0,0:2|0:0,0:0:0:0:
176,302,56269,6,0,B|114:303|133:261|54:264,1,127.500004863739,6|2,1:2|0:2,0:0:0:0:
57,264,56751,1,2,0:2:0:0:
133,375,56911,1,8,0:2:0:0:
156,354,56991,1,8,0:2:0:0:
186,343,57071,1,0,1:2:0:0:
218,344,57151,1,0,1:2:0:0:
247,357,57231,1,10,0:2:0:0:
254,368,57553,6,0,P|259:323|266:279,1,89.2499972763062,6|0,1:2|0:2,0:0:0:0:
405,259,57874,1,10,0:2:0:0:
310,157,58034,1,2,0:2:0:0:
364,356,58194,1,2,1:2:0:0:
416,147,58355,1,2,1:2:0:0:
269,256,58515,1,10,0:2:0:0:
416,147,58676,1,2,0:2:0:0:
195,30,58836,6,0,P|203:74|211:118,1,89.2499972763062,2|0,1:2|0:2,0:0:0:0:
124,94,59157,1,10,0:2:0:0:
280,47,59317,1,2,0:2:0:0:
126,197,59478,1,2,1:2:0:0:
39,68,59638,1,0,1:2:0:0:
141,213,59799,6,0,P|132:260|124:307,1,95.6250036478044,10|0,0:2|0:2,0:0:0:0:
71,375,60120,6,0,P|140:324|224:344,1,178.499994552612,6|2,1:2|0:2,0:0:0:0:
51,242,60601,1,8,0:2:0:0:
51,242,60761,1,2,0:2:0:0:
208,144,60922,1,0,1:2:0:0:
37,41,61082,2,0,P|45:84|53:128,1,89.2499972763062,10|2,0:2|0:2,0:0:0:0:
184,38,61403,6,0,P|227:46|271:54,1,89.2499972763062,2|0,1:2|0:2,0:0:0:0:
238,251,61724,2,0,P|194:242|150:234,1,89.2499972763062,10|0,0:2|0:2,0:0:0:0:
297,147,62045,1,10,0:2:0:0:
302,139,62125,1,8,0:2:0:0:
309,134,62205,2,0,P|330:128|353:129,1,44.6249986381531,8|8,0:2|0:2,0:0:0:0:
430,27,62366,2,0,P|436:48|434:71,1,44.6249986381531,8|8,1:2|0:2,0:0:0:0:
314,219,62526,2,0,P|336:219|357:213,1,44.6249986381531,8|8,0:2|0:2,0:0:0:0:
432,355,62686,6,0,P|372:314|302:328,1,146.62500279665,6|0,1:2|0:2,0:0:0:0:
240,382,63007,2,0,P|217:341|228:292,1,97.7500018644333,10|0,0:2|0:2,0:0:0:0:
482,167,63328,2,0,P|473:215|465:263,1,97.7500018644333,2|0,1:2|0:2,0:0:0:0:
373,54,63649,2,0,P|324:46|276:37,1,97.7500018644333,10|0,0:2|0:2,0:0:0:0:
22,165,63970,6,0,P|77:121|147:133,1,146.62500279665,2|0,1:2|0:2,0:0:0:0:
200,205,64291,2,0,B|153:221|153:221|107:205,1,97.7500018644333,10|0,0:2|0:2,0:0:0:0:
313,122,64612,2,0,P|304:170|296:218,1,97.7500018644333,2|0,1:2|0:2,0:0:0:0:
122,384,64932,2,0,P|114:335|105:287,1,97.7500018644333,10|0,0:2|0:0,0:0:0:0:
302,375,65253,6,0,B|351:326|412:344|412:344|436:376|475:378,1,195.500003728867,2|8,1:2|0:2,0:0:0:0:
327,252,65735,1,2,0:2:0:0:
471,130,65895,2,0,P|498:167|498:220,1,97.7500018644333,2|0,1:2|0:2,0:0:0:0:
334,105,66216,2,0,P|285:100|236:93,1,97.7500018644333,10|0,0:2|0:2,0:0:0:0:
106,242,66537,6,0,P|153:249|196:226,1,97.7500018644333,6|0,1:3|0:2,0:0:0:0:
266,14,66858,2,0,P|218:6|175:29,1,97.7500018644333,10|0,0:2|0:2,0:0:0:0:
376,284,67178,2,0,B|386:226|400:156|400:156|377:182|344:188,1,195.500003728867,2|8,1:2|0:2,0:0:0:0:
407,384,67660,1,0,0:2:0:0:
344,187,67820,6,0,P|424:210|477:171,1,146.62500279665,6|0,1:2|0:2,0:0:0:0:
512,86,68141,2,0,P|463:78|415:68,1,97.7500018644333,10|0,0:2|0:2,0:0:0:0:
512,287,68462,2,0,P|463:294|415:304,1,97.7500018644333,2|0,1:2|0:2,0:0:0:0:
266,237,68783,2,0,P|244:194|258:149,1,97.7500018644333,10|0,0:2|0:2,0:0:0:0:
216,369,69104,6,0,P|158:332|86:352,1,146.62500279665,2|0,1:2|0:2,0:0:0:0:
0,290,69424,2,0,P|47:278|94:266,1,97.7500018644333,10|0,0:2|0:2,0:0:0:0:
351,95,69745,2,0,P|339:142|327:189,1,97.7500018644333,2|0,1:2|0:2,0:0:0:0:
257,121,70066,1,10,0:2:0:0:
389,252,70227,1,2,0:2:0:0:
257,121,70387,6,0,B|156:97|156:97|127:141|72:137,1,195.500003728867,2|8,1:2|0:2,0:0:0:0:
257,121,70868,1,2,0:2:0:0:
141,342,71029,2,0,B|116:297|116:297|134:249,1,97.7500018644333,2|0,1:2|0:2,0:0:0:0:
217,383,71350,1,8,0:2:0:0:
38,300,71510,1,2,0:2:0:0:
226,192,71670,6,0,P|217:240|209:288,1,97.7500018644333,2|0,1:2|0:2,0:0:0:0:
62,40,71991,2,0,P|70:88|78:136,1,97.7500018644333,10|0,0:2|0:2,0:0:0:0:
297,255,72312,2,0,P|373:200|463:226,1,195.500003728867,6|8,1:2|0:2,0:0:0:0:
463,226,72954,5,6,1:2:0:0:
361,68,73114,1,2,0:2:0:0:
297,255,73275,1,10,0:2:0:0:
442,81,73435,1,2,0:2:0:0:
286,22,73595,5,2,1:2:0:0:
392,148,73755,1,2,0:2:0:0:
196,253,73916,1,10,0:2:0:0:
296,121,74077,1,2,0:2:0:0:
267,370,74237,6,0,P|197:347|125:335,1,146.62500279665,2|0,1:2|0:2,0:0:0:0:
65,272,74558,2,0,P|53:225|79:185,1,97.7500018644333,10|2,0:2|0:2,0:0:0:0:
301,236,74879,1,2,1:2:0:0:
199,84,75039,1,2,0:2:0:0:
377,7,75200,1,10,0:2:0:0:
250,157,75360,1,2,0:2:0:0:
143,0,75521,5,2,1:2:0:0:
390,115,75681,1,2,0:2:0:0:
129,0,75841,1,10,0:2:0:0:
404,114,76001,1,2,0:2:0:0:
189,237,76162,5,2,1:2:0:0:
297,21,76322,1,2,0:2:0:0:
189,251,76482,1,10,0:2:0:0:
296,7,76644,1,2,0:2:0:0:
85,165,76804,6,0,P|76:213|68:262,1,97.7500018644333,2|0,1:2|0:2,0:0:0:0:
290,320,77125,2,0,P|281:273|272:223,1,97.7500018644333,10|0,0:2|0:2,0:0:0:0:
497,143,77446,2,0,P|457:170|403:165,1,97.7500018644333,2|0,1:2|0:2,0:0:0:0:
136,55,77767,2,0,P|175:28|223:30,1,97.7500018644333,8|0,0:2|0:2,0:0:0:0:
198,277,78087,6,0,P|174:209|215:152,1,146.62500279665,6|0,1:2|0:2,0:0:0:0:
271,223,78408,2,0,P|319:211|367:203,1,97.7500018644333,10|0,0:2|0:2,0:0:0:0:
145,359,78729,2,0,P|96:350|49:339,1,97.7500018644333,2|0,1:2|0:2,0:0:0:0:
334,289,79050,2,0,P|359:325|351:377,1,97.7500018644333,10|0,0:2|0:2,0:0:0:0:
213,152,79371,6,0,B|223:83|223:83|227:78|227:78|239:8,1,146.62500279665,2|0,1:2|0:2,0:0:0:0:
306,104,79692,2,0,P|342:79|394:87,1,97.7500018644333,10|0,0:2|0:2,0:0:0:0:
184,226,80013,2,0,P|143:251|96:243,1,97.7500018644333,2|0,1:2|0:2,0:0:0:0:
480,56,80333,2,0,P|467:103|457:151,1,97.7500018644333,10|0,0:2|0:2,0:0:0:0:
350,375,80654,6,0,P|308:293|362:217,1,195.500003728867,2|8,1:2|0:2,0:0:0:0:
403,303,81136,1,2,0:2:0:0:
308,129,81296,2,0,P|260:141|213:151,1,97.7500018644333,2|0,1:2|0:2,0:0:0:0:
141,377,81617,2,0,P|164:336|153:289,1,97.7500018644333,14|0,0:2|0:2,0:0:0:0:
77,330,81938,1,2,1:2:0:0:
227,239,82098,1,8,0:2:0:0:
73,99,82259,5,8,0:2:0:0:
77,132,82339,1,8,0:2:0:0:
82,166,82419,1,8,0:2:0:0:
86,200,82499,1,8,0:2:0:0:
91,234,82579,1,2,1:2:0:0:
77,330,82740,1,8,0:3:0:0:
152,288,82900,2,0,P|175:247|164:200,1,97.7500018644333,6|0,1:3|0:2,0:0:0:0:
337,218,83221,6,0,P|393:177|462:192,1,144.500002756119,6|0,1:2|0:2,0:0:0:0:
462,192,83702,1,0,1:2:0:0:
495,290,83863,2,0,P|460:284|423:281,1,72.2500013780594,8|0,0:2|0:2,0:0:0:0:
441,104,84184,2,0,P|476:110|512:112,1,72.2500013780594,0|0,1:2|0:2,0:0:0:0:
337,218,84505,5,0,1:2:0:0:
325,226,84825,2,0,P|342:177|314:133,1,108.375002067089,8|0,0:2|0:2,0:0:0:0:
246,81,85146,2,0,P|239:116|233:152,1,72.2500013780594,0|0,1:2|0:2,0:0:0:0:
78,165,85467,2,0,P|84:200|90:236,1,72.2500013780594,0|0,0:2|1:2,0:0:0:0:
140,369,85788,5,8,0:2:0:0:
153,365,86109,2,0,B|178:315|178:315|156:258,1,108.375002067089,0|0,1:2|0:0,0:0:0:0:
99,312,86430,2,0,P|63:316|27:320,1,72.2500013780594,8|0,0:2|0:2,0:0:0:0:
204,197,86751,2,0,P|239:201|275:205,1,72.2500013780594,8|0,0:2|0:2,0:0:0:0:
326,361,87071,6,0,P|312:328|317:292,1,72.2500013780594,0|0,1:2|0:0,0:0:0:0:
396,323,87392,1,0,0:2:0:0:
463,228,87553,1,0,1:2:0:0:
388,154,87713,2,0,P|380:189|376:225,1,72.2500013780594,8|0,0:2|0:2,0:0:0:0:
240,52,88034,2,0,P|247:87|251:123,1,72.2500013780594,0|0,1:2|0:2,0:0:0:0:
422,15,88355,5,0,1:2:0:0:
413,26,88676,2,0,P|355:38|311:9,1,108.375002067089,8|0,0:2|0:2,0:0:0:0:
240,52,88997,2,0,P|247:87|251:123,1,72.2500013780594,0|0,1:2|0:2,0:0:0:0:
171,91,89317,1,0,0:2:0:0:
91,186,89478,1,0,1:2:0:0:
167,306,89638,6,0,B|191:255|191:255|169:207,1,108.375002067089,8|0,0:2|0:0,0:0:0:0:
91,186,89959,2,0,P|95:222|99:258,1,72.2500013780594,0|0,1:2|0:2,0:0:0:0:
232,348,90280,1,0,1:2:0:0:
262,205,90440,1,8,0:2:0:0:
29,374,90601,1,8,0:2:0:0:
12,355,90681,1,8,0:2:0:0:
3,331,90761,1,8,0:2:0:0:
2,306,90841,1,8,0:2:0:0:
10,282,90922,6,0,P|50:286|90:286,1,80.7499978437424,6|0,1:2|0:2,0:0:0:0:
169,206,91243,2,0,P|182:169|168:132,1,80.7499978437424,10|0,0:2|0:2,0:0:0:0:
83,37,91563,2,0,P|76:76|70:116,1,80.7499978437424,2|0,1:2|0:2,0:0:0:0:
82,205,91884,1,0,1:2:0:0:
171,48,92045,6,0,P|210:41|250:35,1,80.7499978437424,10|0,0:2|0:2,0:0:0:0:
387,185,92366,1,2,1:2:0:0:
293,110,92526,1,8,0:2:0:0:
391,58,92686,1,0,1:2:0:0:
285,201,92847,2,0,P|244:196|204:192,1,80.7499978437424,2|10,1:2|0:2,0:0:0:0:
302,339,93168,1,2,1:2:0:0:
387,185,93328,1,8,0:2:0:0:
431,383,93489,6,0,P|415:347|422:308,1,80.7499978437424,2|0,1:2|1:2,0:0:0:0:
464,141,93809,2,0,P|480:177|473:216,1,80.7499978437424,2|8,1:2|0:2,0:0:0:0:
302,339,94130,2,0,P|262:333|221:328,1,80.7499978437424,2|0,0:2|1:2,0:0:0:0:
387,185,94451,1,8,0:2:0:0:
223,105,94612,1,2,1:2:0:0:
274,240,94772,5,8,0:2:0:0:
278,233,94852,1,8,0:2:0:0:
282,226,94932,2,0,L|295:177,1,40.3749989218712,10|0,0:2|0:0,0:0:0:0:
139,171,95093,1,8,0:2:0:0:
135,164,95173,1,8,0:2:0:0:
131,157,95253,2,0,L|118:108,1,40.3749989218712,8|0,0:2|0:0,0:0:0:0:
93,341,95414,1,10,0:2:0:0:
100,337,95494,1,10,0:2:0:0:
107,333,95574,2,0,L|156:320,1,40.3749989218712,10|0,0:2|0:2,0:0:0:0:
190,241,95735,1,10,0:2:0:0:
17,150,95895,5,8,0:2:0:0:
22,156,95975,1,8,0:2:0:0:
27,162,96055,2,0,P|21:202|14:241,1,80.7499978437424,6|0,1:2|0:2,0:0:0:0:
210,25,96376,2,0,P|216:65|222:104,1,80.7499978437424,10|0,0:2|0:2,0:0:0:0:
429,88,96697,2,0,P|374:32|297:48,1,161.499995687485,2|0,1:2|1:2,0:0:0:0:
202,196,97178,2,0,P|241:186|281:179,1,80.7499978437424,10|0,0:2|0:2,0:0:0:0:
222,104,97499,5,2,1:2:0:0:
143,268,97660,1,8,0:2:0:0:
303,93,97820,1,2,1:2:0:0:
374,284,97981,2,0,P|334:274|294:267,1,80.7499978437424,2|10,1:2|0:2,0:0:0:0:
355,193,98301,1,2,1:2:0:0:
235,341,98462,1,8,0:2:0:0:
443,217,98622,6,0,P|458:172|447:138,1,80.7499978437424,2|0,1:2|1:2,0:0:0:0:
317,13,98943,2,0,P|309:52|302:92,1,80.7499978437424,10|0,0:2|0:2,0:0:0:0:
105,186,99264,2,0,P|150:147|209:151,1,121.124996765614,2|0,1:2|0:2,0:0:0:0:
230,173,99585,1,8,0:2:0:0:
196,339,99745,2,0,P|188:299|181:259,1,80.7499978437424,2|0,1:2|1:2,0:0:0:0:
320,171,100066,5,10,0:2:0:0:
394,260,100227,1,8,0:2:0:0:
279,279,100387,1,0,1:2:0:0:
417,130,100547,6,0,L|409:169,1,40.3749989218712,2|0,1:3|0:3,0:3:0:0:
222,35,100868,2,0,L|229:74,1,40.3749989218712,2|0,1:3|0:3,0:3:0:0:
377,354,101189,6,0,P|408:310|393:259,2,110.499994941712,6|10|2,1:2|0:1|0:2,0:0:0:0:
377,354,102152,2,0,P|349:349|322:347,1,55.2499974708558,10|2,0:1|0:2,0:0:0:0:
279,279,102472,2,0,P|251:283|224:285,1,55.2499974708558,2|0,0:2|0:2,0:0:0:0:
147,326,102793,2,0,P|138:300|139:272,1,55.2499974708558,10|0,0:1|0:2,0:0:0:0:
194,203,103114,1,2,0:2:0:0:
194,203,103275,1,10,0:1:0:0:
130,147,103435,2,0,L|76:159,1,55.2499974708558,10|2,0:1|0:2,0:0:0:0:
0,114,103756,6,0,P|-14:62|16:19,2,110.499994941712,2|10|2,0:2|0:1|0:2,0:0:0:0:
0,114,104718,2,0,L|59:104,1,55.2499974708558,10|2,0:1|0:2,0:0:0:0:
114,48,105039,2,0,L|173:58,1,55.2499974708558,2|2,0:2|0:2,0:0:0:0:
239,103,105360,2,0,P|253:78|255:51,1,55.2499974708558,10|2,0:1|0:2,0:0:0:0:
166,137,105681,2,0,P|175:191|183:246,1,110.499994941712,2|8,0:2|0:1,0:0:0:0:
183,246,106323,6,0,P|206:231|233:228,1,55.2499974708558,2|0,0:2|0:2,0:0:0:0:
245,150,106644,2,0,P|271:155|293:172,1,55.2499974708558,10|0,0:1|0:2,0:0:0:0:
372,210,106964,2,0,P|361:264|352:318,1,110.499994941712,2|10,0:2|0:1,0:0:0:0:
352,318,107606,2,0,P|329:303|302:300,1,55.2499974708558,2|0,0:2|0:2,0:0:0:0:
290,222,107927,2,0,P|263:227|241:244,1,55.2499974708558,10|0,0:1|0:2,0:0:0:0:
164,275,108248,2,0,P|174:329|183:383,1,110.499994941712,2|10,0:2|0:1,0:0:0:0:
183,383,108890,6,0,P|155:377|128:374,1,55.2499974708558,2|0,0:2|0:0,0:0:0:0:
81,300,109210,2,0,P|84:272|89:245,1,55.2499974708558,10|0,0:1|0:0,0:0:0:0:
163,179,109531,2,0,P|199:217|189:269,1,110.499994941712,2|10,0:0|0:1,0:0:0:0:
282,327,110173,1,2,0:2:0:0:
188,270,110494,1,2,0:2:0:0:
282,327,110815,6,0,B|302:274|302:274|289:219,1,110.499994941712,8|8,0:1|0:1,0:0:0:0:
290,222,111456,6,0,P|264:183|273:141,1,80.7499978437424,6|0,1:2|0:2,0:0:0:0:
426,21,111777,2,0,P|405:64|364:77,1,80.7499978437424,10|0,0:2|0:2,0:0:0:0:
184,1,112098,2,0,P|230:-2|262:27,1,80.7499978437424,2|0,1:2|0:2,0:0:0:0:
303,83,112419,1,10,0:2:0:0:
303,83,112579,1,2,0:2:0:0:
189,204,112740,5,2,1:2:0:0:
146,96,112900,1,2,0:2:0:0:
295,188,113061,5,10,0:2:0:0:
252,296,113221,1,2,0:2:0:0:
229,123,113382,1,2,1:2:0:0:
122,273,113542,1,2,0:2:0:0:
116,278,113622,1,2,0:0:0:0:
109,282,113702,2,0,P|100:243|90:204,1,80.7499978437424,10|2,0:2|0:2,0:0:0:0:
252,296,114023,6,0,P|291:304|330:314,1,80.7499978437424,2|0,1:2|0:2,0:0:0:0:
393,124,114344,2,0,P|365:153|337:183,1,80.7499978437424,10|0,0:2|0:2,0:0:0:0:
470,332,114665,2,0,P|457:293|446:254,1,80.7499978437424,2|0,1:2|0:2,0:0:0:0:
374,252,114986,1,10,0:2:0:0:
374,252,115146,1,2,0:2:0:0:
419,28,115307,5,2,1:2:0:0:
486,167,115467,1,2,0:2:0:0:
341,325,115628,5,10,0:2:0:0:
408,182,115788,1,2,0:2:0:0:
455,361,115948,1,2,1:2:0:0:
322,181,116109,1,2,0:2:0:0:
316,186,116189,1,2,0:0:0:0:
309,192,116269,2,0,P|270:185|230:179,1,80.7499978437424,8|0,0:2|0:0,0:0:0:0:
190,353,116590,6,0,P|208:318|204:279,1,80.7499978437424,2|0,1:2|0:2,0:0:0:0:
88,112,116911,2,0,P|69:147|73:186,1,80.7499978437424,10|0,0:2|0:2,0:0:0:0:
189,74,117232,2,0,P|229:69|269:64,1,80.7499978437424,2|0,1:2|0:2,0:0:0:0:
106,277,117553,2,0,P|65:271|25:267,1,80.7499978437424,10|0,0:2|0:2,0:0:0:0:
271,215,117874,6,0,P|289:250|285:289,1,80.7499978437424,2|0,1:2|0:2,0:0:0:0:
169,175,118194,1,10,0:2:0:0:
363,237,118355,1,2,0:2:0:0:
369,242,118435,1,2,0:0:0:0:
374,248,118515,2,0,P|414:245|454:242,1,80.7499978437424,2|0,1:2|0:0,0:0:0:0:
225,339,118836,2,0,P|207:304|211:265,1,80.7499978437424,10|0,0:2|0:2,0:0:0:0:
295,99,119157,6,0,B|373:79|373:79|419:93|407:142,1,161.499995687485,2|10,1:2|0:2,0:0:0:0:
408,142,119638,1,2,0:2:0:0:
312,15,119799,1,2,1:2:0:0:
231,173,119959,1,10,0:2:0:0:
134,32,120120,1,10,0:2:0:0:
140,42,120200,1,8,0:2:0:0:
146,52,120280,1,2,1:2:0:0:
62,238,120440,5,10,0:2:0:0:
56,254,120761,2,0,P|95:247|135:241,1,80.7499978437424,10|0,0:2|0:2,0:0:0:0:
221,308,121082,1,2,0:2:0:0:
288,244,121243,1,0,1:2:0:0:
383,384,121403,2,0,P|356:332|381:279,1,121.124996765614,14|0,0:2|0:0,0:0:0:0:
479,259,121724,6,0,P|389:260|362:174,2,191.250007295609,6|2|2,1:2|0:2|0:2,0:0:0:0:
269,44,123007,2,0,B|248:117|248:117|263:158|263:158|241:232,2,191.250007295609,6|2|2,1:2|0:2|1:2,0:0:0:0:
85,320,124291,2,0,P|128:277|189:288,1,127.500004863739,6|0,1:2|0:0,0:0:0:0:
348,258,124772,2,0,P|287:269|243:226,1,127.500004863739,2|0,0:2|0:0,0:0:0:0:
367,258,125253,2,0,P|359:289|354:320,1,63.7500024318696,2|0,0:2|0:0,0:0:0:0:
457,287,125574,6,0,P|468:226|425:182,1,127.500004863739,6|0,1:2|0:2,0:0:0:0:
425,182,126055,1,2,0:2:0:0:
361,16,126216,1,8,0:2:0:0:
356,37,126296,1,8,0:2:0:0:
352,59,126376,1,0,1:2:0:0:
348,81,126456,1,0,1:2:0:0:
344,103,126536,1,10,0:2:0:0:
332,110,126858,6,0,P|288:101|244:94,1,89.2499972763062,6|0,1:2|0:2,0:0:0:0:
96,95,127178,1,10,0:2:0:0:
252,7,127339,1,2,0:2:0:0:
224,216,127499,5,2,1:2:0:0:
127,197,127660,1,2,1:2:0:0:
29,178,127820,1,10,0:2:0:0:
29,178,127981,1,2,0:2:0:0:
230,104,128141,5,2,1:2:0:0:
292,303,128301,1,2,0:2:0:0:
206,342,128462,5,10,0:2:0:0:
317,165,128622,1,2,0:2:0:0:
196,356,128783,2,0,L|85:342,1,89.2499972763062,2|0,1:2|1:2,0:0:0:0:
374,240,129104,2,0,P|413:188|401:123,1,133.874995914459,10|0,0:2|0:2,0:0:0:0:
317,165,129424,6,0,P|273:155|229:148,1,89.2499972763062,6|0,1:2|0:0,0:0:0:0:
129,183,129745,1,2,0:2:0:0:
318,321,129906,1,8,0:2:0:0:
196,356,130066,2,0,P|178:314|189:265,1,89.2499972763062,2|0,0:2|1:2,0:0:0:0:
109,380,130387,1,10,0:2:0:0:
287,245,130547,1,2,0:2:0:0:
108,195,130708,6,0,P|63:200|19:204,1,89.2499972763062,2|0,1:2|0:2,0:0:0:0:
212,64,131029,2,0,P|255:56|297:71,1,89.2499972763062,10|0,0:2|0:2,0:0:0:0:
133,101,131350,1,10,0:2:0:0:
305,171,131510,1,8,0:2:0:0:
311,177,131590,1,8,0:2:0:0:
316,183,131670,2,0,P|339:180|369:176,1,44.6249986381531,8|8,0:2|0:2,0:0:0:0:
240,315,131831,2,0,P|216:317|187:322,1,44.6249986381531,8|8,0:2|0:2,0:0:0:0:
0,243,131991,6,0,P|70:246|115:188,1,146.62500279665,6|0,1:2|0:2,0:0:0:0:
52,76,132312,2,0,P|44:124|39:172,1,97.7500018644333,10|0,0:2|0:2,0:0:0:0:
174,82,132633,2,0,P|218:57|268:69,1,97.7500018644333,2|0,1:2|0:2,0:0:0:0:
404,199,132954,2,0,P|356:206|315:182,1,97.7500018644333,10|0,0:2|0:2,0:0:0:0:
216,383,133275,6,0,B|222:318|222:318|228:310|228:310|236:237,1,146.62500279665,2|0,1:2|0:2,0:0:0:0:
307,329,133595,2,0,P|356:320|404:314,1,97.7500018644333,10|0,0:2|0:2,0:0:0:0:
161,190,133916,2,0,P|112:198|64:204,1,97.7500018644333,2|0,1:2|0:2,0:0:0:0:
253,4,134237,2,0,P|283:43|283:93,1,97.7500018644333,10|0,0:2|0:2,0:0:0:0:
507,214,134558,6,0,B|459:166|392:181|392:181|371:215|326:215,1,195.500003728867,2|8,1:2|0:2,0:0:0:0:
306,124,135039,1,2,0:2:0:0:
467,8,135200,2,0,P|457:55|450:104,1,97.7500018644333,2|0,1:2|0:2,0:0:0:0:
275,278,135521,2,0,P|251:236|259:188,1,97.7500018644333,10|0,0:2|0:2,0:0:0:0:
407,362,135841,6,0,P|358:356|309:353,1,97.7500018644333,6|0,1:3|0:2,0:0:0:0:
132,105,136162,2,0,P|180:110|229:113,1,97.7500018644333,10|0,0:2|0:2,0:0:0:0:
151,365,136483,2,0,P|77:308|-11:338,1,195.500003728867,2|8,1:2|0:2,0:0:0:0:
173,261,136964,1,0,0:2:0:0:
36,70,137125,6,0,P|27:143|18:216,1,146.62500279665,6|0,1:2|0:2,0:0:0:0:
105,141,137446,2,0,B|149:120|149:120|197:133,1,97.7500018644333,10|0,0:2|0:2,0:0:0:0:
354,64,137767,2,0,P|306:56|260:42,1,97.7500018644333,2|0,1:2|0:2,0:0:0:0:
201,240,138087,2,0,P|249:248|295:262,1,97.7500018644333,10|0,0:2|0:2,0:0:0:0:
472,384,138408,6,0,P|517:325|490:247,1,146.62500279665,2|0,1:2|0:2,0:0:0:0:
427,201,138729,2,0,P|416:248|407:296,1,97.7500018644333,10|0,0:2|0:2,0:0:0:0:
265,70,139050,2,0,P|275:117|284:165,1,97.7500018644333,2|0,1:2|0:2,0:0:0:0:
190,136,139371,1,10,0:2:0:0:
361,79,139531,1,2,0:2:0:0:
181,156,139692,6,0,B|129:169|83:153|102:118|54:102|-3:110,1,195.500003728867,2|8,1:2|0:2,0:0:0:0:
221,234,140173,1,2,0:2:0:0:
78,340,140333,2,0,P|54:300|65:251,1,97.7500018644333,2|0,1:2|0:2,0:0:0:0:
317,208,140654,2,0,P|306:255|296:303,1,97.7500018644333,8|2,0:2|0:2,0:0:0:0:
438,196,140975,6,0,P|462:156|451:107,1,97.7500018644333,2|0,1:2|0:2,0:0:0:0:
221,234,141296,2,0,P|173:223|125:213,1,97.7500018644333,10|0,0:2|0:2,0:0:0:0:
316,6,141617,2,0,B|366:84|366:84|333:181,1,195.500003728867,6|8,1:2|0:2,0:0:0:0:
332,181,142259,5,6,1:2:0:0:
454,71,142419,1,2,0:2:0:0:
286,0,142579,1,10,0:2:0:0:
438,196,142740,1,2,0:2:0:0:
288,384,142900,5,2,1:2:0:0:
380,254,143061,1,2,0:2:0:0:
433,382,143221,1,10,0:2:0:0:
251,226,143382,1,2,0:2:0:0:
197,375,143542,6,0,P|126:359|53:360,1,146.62500279665,2|0,1:2|0:2,0:0:0:0:
4,300,143863,2,0,P|-15:257|-2:212,1,97.7500018644333,10|2,0:2|0:2,0:0:0:0:
153,239,144184,1,2,1:2:0:0:
43,13,144344,1,2,0:2:0:0:
188,45,144505,1,10,0:2:0:0:
0,211,144665,1,2,0:2:0:0:
179,371,144825,5,2,1:2:0:0:
92,132,144986,1,2,0:2:0:0:
189,382,145146,1,10,0:2:0:0:
79,123,145307,1,2,0:2:0:0:
23,323,145467,5,2,1:2:0:0:
262,236,145628,1,2,0:2:0:0:
12,333,145788,1,10,0:2:0:0:
271,223,145949,1,2,0:2:0:0:
9,71,146109,6,0,P|4:119|0:168,1,97.7500018644333,2|0,1:2|0:2,0:0:0:0:
212,133,146430,2,0,P|255:110|309:123,1,97.7500018644333,10|0,0:2|0:2,0:0:0:0:
104,369,146751,2,0,P|99:320|94:271,1,97.7500018644333,2|0,1:2|0:2,0:0:0:0:
251,328,147071,2,0,P|297:351|345:338,1,97.7500018644333,8|0,0:2|0:2,0:0:0:0:
512,162,147392,6,0,B|450:167|450:167|425:185|425:185|366:192,1,146.62500279665,6|0,1:2|0:2,0:0:0:0:
302,249,147713,2,0,B|283:204|283:204|294:157,1,97.7500018644333,10|0,0:2|0:2,0:0:0:0:
436,0,148034,2,0,P|426:48|418:96,1,97.7500018644333,2|0,1:2|0:2,0:0:0:0:
209,209,148355,2,0,P|165:185|115:194,1,97.7500018644333,10|0,0:2|0:2,0:0:0:0:
0,61,148676,6,0,P|70:71|126:26,1,146.62500279665,2|0,1:2|0:2,0:0:0:0:
210,0,148997,2,0,P|200:47|192:96,1,97.7500018644333,10|0,0:2|0:2,0:0:0:0:
41,260,149317,2,0,P|13:220|23:173,1,97.7500018644333,2|0,1:2|0:2,0:0:0:0:
137,362,149638,2,0,P|176:334|223:344,1,97.7500018644333,10|0,0:2|0:2,0:0:0:0:
408,324,149959,6,0,B|356:328|312:301|335:280|293:247|233:257,1,195.500003728867,2|8,1:2|0:2,0:0:0:0:
392,237,150440,1,2,0:2:0:0:
293,80,150601,2,0,P|283:129|274:176,1,97.7500018644333,2|0,1:2|0:2,0:0:0:0:
419,86,150922,2,0,P|465:67|513:76,1,97.7500018644333,14|0,0:2|0:2,0:0:0:0:
392,237,151243,5,2,1:2:0:0:
293,80,151403,1,10,0:2:0:0:
263,162,151563,1,2,1:2:0:0:
233,244,151724,1,8,0:2:0:0:
10,326,151884,5,2,1:2:0:0:
65,249,152045,1,8,0:3:0:0:
142,285,152205,2,0,L|120:382,1,97.7500018644333,4|2,1:3|0:2,0:0:0:0:
0,192,152526,6,0,P|-13:127|31:76,1,127.500004863739,6|2,1:2|0:2,0:0:0:0:
86,10,153007,2,0,P|148:21|211:32,1,127.500004863739,2|0,0:2|1:2,0:0:0:0:
283,106,153489,1,2,0:2:0:0:
291,120,153809,2,0,P|328:62|309:-2,1,127.500004863739,2|0,1:2|0:2,0:0:0:0:
205,110,154291,2,0,L|214:173,1,63.7500024318696,2|0,0:2|0:2,0:0:0:0:
236,274,154612,1,0,0:0:0:0:
311,222,154772,1,2,0:2:0:0:
323,217,155093,6,0,P|309:279|299:342,1,127.500004863739,2|2,1:2|0:2,0:0:0:0:
213,376,155574,2,0,P|181:363|150:362,1,63.7500024318696,2|0,0:2|0:0,0:0:0:0:
45,229,155895,1,0,1:2:0:0:
33,313,156055,2,0,P|64:311|93:298,1,63.7500024318696,2|0,0:2|0:2,0:0:0:0:
207,202,156376,6,0,P|163:158|101:165,1,127.500004863739,2|2,1:2|0:2,0:0:0:0:
201,292,156858,1,2,1:2:0:0:
209,303,157018,2,0,P|241:297|272:294,1,63.7500024318696,0|0,0:0|0:2,0:0:0:0:
304,186,157339,2,0,P|336:192|367:195,1,63.7500024318696,0|0,0:2|0:0,0:0:0:0:
464,258,157660,6,0,P|456:321|447:384,1,127.500004863739,2|2,1:2|0:2,0:0:0:0:
447,384,158141,1,2,0:2:0:0:
375,307,158301,2,0,P|343:313|312:316,1,63.7500024318696,0|0,0:2|1:2,0:0:0:0:
215,378,158622,1,2,0:2:0:0:
203,384,158943,6,0,B|182:325|182:325|203:263,1,127.500004863739,2|2,1:2|0:2,0:0:0:0:
102,134,159424,2,0,P|111:197|120:260,1,127.500004863739,2|0,0:2|1:2,0:0:0:0:
204,159,159906,1,2,0:2:0:0:
216,170,160227,6,0,B|285:156|283:197|340:186,1,127.500004863739,2|0,1:2|0:2,0:0:0:0:
339,186,160708,1,2,0:2:0:0:
437,146,160868,2,0,P|425:208|416:271,1,127.500004863739,2|0,0:2|0:2,0:0:0:0:
416,271,161349,1,2,0:2:0:0:
369,113,161510,6,0,P|345:56|382:7,1,127.500004863739,2|0,1:2|0:2,0:0:0:0:
382,7,161991,1,0,0:2:0:0:
339,186,162152,2,0,P|305:179|276:175,1,63.7500024318696,2|0,1:2|0:2,0:0:0:0:
254,89,162472,2,0,P|220:95|191:99,1,63.7500024318696,0|0,1:2|0:2,0:0:0:0:
105,31,162793,6,0,B|78:90|78:90|98:149,1,127.500004863739,2|0,1:2|0:0,0:0:0:0:
12,155,163275,1,0,1:2:0:0:
161,238,163435,2,0,P|175:207|173:175,1,63.7500024318696,10|0,0:2|0:2,0:0:0:0:
68,319,163756,2,0,P|54:288|55:256,1,63.7500024318696,2|8,0:2|0:2,0:0:0:0:
149,358,164077,5,2,0:2:0:0:
220,306,164237,1,8,0:2:0:0:
305,371,164398,1,0,1:2:0:0:
317,382,164718,2,0,L|326:318,1,63.7500024318696,10|0,0:2|0:0,0:0:0:0:
397,263,165039,1,2,0:2:0:0:
388,168,165200,1,8,0:2:0:0:
379,171,165280,1,8,0:2:0:0:
370,176,165360,6,0,B|317:181|317:181|297:196|297:196|247:201,1,127.500004863739,2|8,1:2|0:2,0:0:0:0:
247,200,166002,1,2,0:2:0:0:
191,157,166162,1,0,1:2:0:0:
157,86,166323,1,8,0:2:0:0:
160,80,166403,1,8,0:2:0:0:
163,74,166483,2,0,L|180:19,1,31.8750012159348,8|0,0:2|0:0,0:0:0:0:
106,171,166644,5,8,0:2:0:0:
109,176,166724,1,0,1:2:0:0:
111,182,166804,2,0,L|128:237,1,31.8750012159348,0|0,1:2|1:2,0:0:0:0:
185,264,166964,1,0,1:2:0:0:
180,285,167044,1,0,1:2:0:0:
176,307,167125,1,4,1:2:0:0:
172,329,167205,1,0,1:2:0:0:
168,351,167284,5,2,1:2:0:0:
254,321,167446,1,0,1:2:0:0:
330,384,167606,2,0,P|362:379|393:376,1,63.7500024318696,10|0,0:2|1:2,0:0:0:0:
512,276,167927,6,0,P|448:267|385:257,1,127.500004863739,14|8,0:2|0:2,0:0:0:0:
314,203,168408,1,8,0:2:0:0:
369,132,168569,1,0,1:2:0:0:
372,137,168649,1,0,1:2:0:0:
375,142,168729,1,0,1:2:0:0:
269,280,168890,1,2,1:2:0:0:
266,274,168970,1,0,1:2:0:0:
263,268,169050,2,0,L|250:299,1,31.8750012159348,0|0,1:2|1:2,0:0:0:0:
189,370,169210,6,0,P|154:318|172:259,1,127.500004863739,6|8,1:2|0:2,0:0:0:0:
230,188,169692,1,8,0:2:0:0:
142,165,169852,1,0,1:2:0:0:
144,170,169932,1,0,1:2:0:0:
146,175,170013,1,0,1:2:0:0:
282,120,170173,1,10,0:2:0:0:
293,101,170253,1,0,1:2:0:0:
299,79,170333,1,0,1:2:0:0:
296,57,170413,1,0,1:2:0:0:
286,37,170494,6,0,B|234:42|234:42|219:52|219:52|166:59,1,121.124996765614,6|0,1:2|0:2,0:0:0:0:
154,54,170815,1,8,0:2:0:0:
63,193,170975,1,0,1:2:0:0:
219,164,171136,1,8,0:2:0:0:
33,78,171296,1,0,1:2:0:0:
3,298,171456,5,8,0:2:0:0:
90,281,171617,1,0,1:2:0:0:
177,264,171777,6,0,P|168:303|160:342,1,80.7499978437424,0|0,1:2|1:2,0:0:0:0:
90,281,172098,1,8,0:2:0:0:
240,384,172259,1,0,1:2:0:0:
80,384,172419,1,8,0:2:0:0:
262,266,172579,1,0,1:2:0:0:
143,91,172740,1,8,0:2:0:0:
137,118,172820,1,8,0:2:0:0:
132,146,172900,1,8,0:2:0:0:
126,174,172980,1,8,0:2:0:0:
121,201,173060,5,6,1:2:0:0:
49,122,173221,1,2,0:2:0:0:
225,42,173382,2,0,P|227:83|231:123,1,80.7499978437424,2|2,1:2|0:2,0:0:0:0:
49,122,173702,1,2,1:2:0:0:
143,91,173863,1,2,0:2:0:0:
24,280,174023,2,0,P|6:244|13:205,1,80.7499978437424,2|2,1:2|0:2,0:0:0:0:
188,274,174344,6,0,P|227:280|267:289,1,80.7499978437424,2|2,1:2|0:2,0:0:0:0:
110,384,174665,2,0,P|102:344|120:309,1,80.7499978437424,2|0,1:2|0:2,0:0:0:0:
246,202,174986,1,2,1:2:0:0:
213,357,175146,1,2,0:2:0:0:
260,181,175307,2,0,P|257:140|256:100,1,80.7499978437424,2|0,1:2|1:2,0:0:0:0:
302,263,175628,5,10,0:2:0:0:
174,148,175788,1,2,0:2:0:0:
350,50,175948,2,0,P|344:89|339:130,1,80.7499978437424,2|2,1:2|0:2,0:0:0:0:
188,274,176269,1,2,1:2:0:0:
260,181,176430,1,2,0:2:0:0:
89,124,176590,2,0,P|94:163|99:204,1,80.7499978437424,2|2,1:2|0:2,0:0:0:0:
61,314,176911,5,2,1:2:0:0:
0,219,177071,1,2,0:2:0:0:
127,369,177232,1,2,1:2:0:0:
188,274,177392,1,0,0:2:0:0:
287,371,177553,1,2,1:2:0:0:
376,265,177713,1,2,0:2:0:0:
512,375,177874,2,0,P|472:369|431:364,1,80.7499978437424,2|0,1:2|1:2,0:0:0:0:
292,263,178194,5,10,0:2:0:0:
293,255,178275,1,8,0:2:0:0:
294,247,178355,2,0,L|301:207,1,40.3749989218712,10|0,0:2|0:2,0:0:0:0:
352,121,178515,1,10,0:2:0:0:
288,46,178676,1,2,0:2:0:0:
379,32,178836,5,10,0:2:0:0:
256,133,178997,1,2,1:2:0:0:
394,28,179157,1,10,0:2:0:0:
203,47,179317,5,2,0:2:0:0:
195,50,179398,1,2,0:2:0:0:
188,53,179478,2,0,L|173:111,1,40.3749989218712,10|0,0:2|0:2,0:0:0:0:
90,181,179638,1,8,0:2:0:0:
96,176,179719,1,8,0:2:0:0:
102,171,179799,2,0,L|117:229,1,40.3749989218712,10|0,0:2|0:2,0:0:0:0:
98,291,179959,1,2,0:2:0:0:
9,366,180120,5,10,0:2:0:0:
98,291,180280,1,2,0:2:0:0:
217,384,180440,2,0,P|177:377|136:373,1,80.7499978437424,10|0,0:2|0:2,0:0:0:0:
215,272,180761,5,10,0:2:0:0:
245,262,180841,1,0,1:2:0:0:
277,262,180922,1,2,1:2:0:0:
308,272,181001,1,0,1:2:0:0:
334,291,181081,1,10,0:2:0:0:
357,314,181162,1,0,1:2:0:0:
382,334,181242,1,2,1:2:0:0:
412,344,181322,1,0,1:2:0:0:
445,345,181403,6,0,P|449:318|455:288,1,40.3749989218712,10|0,0:2|1:2,0:0:0:0:
383,155,181563,2,0,P|378:181|373:212,1,40.3749989218712,2|0,1:2|1:2,0:0:0:0:
274,336,181724,1,10,0:2:0:0:
255,314,181804,1,0,1:2:0:0:
230,301,181884,1,2,1:2:0:0:
202,299,181964,1,0,1:2:0:0:
173,307,182045,6,0,P|166:332|160:358,1,53.8333318958283,10|0,0:2|0:2,0:0:0:0:
9,172,182259,2,0,P|17:197|25:223,1,53.8333318958283,10|0,0:2|0:2,0:0:0:0:
194,79,182472,2,0,P|185:104|176:129,1,53.8333318958283,10|0,0:2|0:2,0:0:0:0:
219,201,182686,6,0,P|231:217|228:197,1,53.8333318958283,2|0,1:2|0:2,0:0:0:0:
95,76,182900,2,0,P|87:57|102:70,1,53.8333318958283,2|0,1:2|0:2,0:0:0:0:
265,32,183114,2,0,P|277:16|274:36,1,53.8333318958283,2|0,1:2|0:2,0:0:0:0:
273,36,183649,6,0,B|300:39|300:39|303:42|303:42|341:47,2,59.4999981842042,0|0|0,0:2|0:2|0:2,0:0:0:0:
101,69,184612,2,0,B|74:72|74:72|71:75|71:75|33:80,3,59.4999981842042,0|0|0|0,0:2|0:2|0:2|0:0,0:0:0:0:
233,212,185895,6,0,B|277:184|325:189|325:189|339:214|365:222,1,146.62500279665,6|0,1:2|0:2,0:0:0:0:
458,195,186216,2,0,P|447:242|436:290,1,97.7500018644333,10|0,0:2|0:2,0:0:0:0:
416,102,186537,2,0,P|377:76|329:78,1,97.7500018644333,2|0,1:2|0:2,0:0:0:0:
168,271,186858,2,0,P|207:297|255:295,1,97.7500018644333,10|0,0:2|0:2,0:0:0:0:
206,93,187178,6,0,P|133:106|61:119,1,146.62500279665,2|0,1:2|0:2,0:0:0:0:
17,25,187499,2,0,P|64:15|108:34,1,97.7500018644333,10|0,0:2|0:2,0:0:0:0:
101,204,187820,2,0,P|54:214|10:195,1,97.7500018644333,2|0,1:2|0:2,0:0:0:0:
167,333,188141,2,0,P|215:325|263:319,1,97.7500018644333,10|0,0:2|0:2,0:0:0:0:
479,196,188462,6,0,B|375:164|375:164|328:186|353:243,1,195.500003728867,2|8,1:2|0:2,0:0:0:0:
232,63,188943,1,2,0:2:0:0:
310,0,189104,2,0,P|317:48|325:96,1,97.7500018644333,2|0,1:2|0:2,0:0:0:0:
455,104,189424,2,0,P|448:56|440:7,1,97.7500018644333,10|0,0:2|0:2,0:0:0:0:
226,163,189745,6,0,P|177:155|129:147,1,97.7500018644333,6|0,1:3|0:2,0:0:0:0:
263,335,190066,2,0,P|286:292|281:245,1,97.7500018644333,10|0,0:2|0:2,0:0:0:0:
25,83,190387,2,0,P|43:178|60:275,1,195.500003728867,2|8,1:2|0:2,0:0:0:0:
136,154,190868,1,0,0:2:0:0:
262,372,191029,6,0,B|315:365|315:365|341:338|341:338|401:334,1,146.62500279665,6|0,1:2|0:2,0:0:0:0:
469,384,191349,2,0,P|487:339|474:294,1,97.7500018644333,10|0,0:2|0:2,0:0:0:0:
281,245,191670,2,0,P|232:251|184:258,1,97.7500018644333,2|0,1:2|0:2,0:0:0:0:
389,58,191991,2,0,P|395:106|402:154,1,97.7500018644333,10|0,0:2|0:2,0:0:0:0:
144,184,192312,6,0,P|122:116|165:60,1,146.62500279665,2|0,1:2|0:2,0:0:0:0:
252,27,192633,2,0,P|242:74|234:123,1,97.7500018644333,10|0,0:2|0:2,0:0:0:0:
106,311,192954,2,0,P|64:292|14:297,1,97.7500018644333,2|0,1:2|0:2,0:0:0:0:
234,123,193275,1,10,0:2:0:0:
44,92,193435,1,2,0:2:0:0:
239,269,193595,6,0,B|289:221|350:238|350:238|374:273|417:273,1,195.500003728867,2|8,1:2|0:2,0:0:0:0:
261,147,194077,1,2,0:2:0:0:
396,32,194237,2,0,P|425:70|425:118,1,97.7500018644333,2|0,1:2|0:2,0:0:0:0:
273,26,194558,1,8,0:2:0:0:
445,199,194718,1,2,0:2:0:0:
248,366,194879,6,0,P|243:317|238:268,1,97.7500018644333,2|0,1:2|0:2,0:0:0:0:
354,321,195200,2,0,P|402:325|451:330,1,97.7500018644333,10|0,0:2|0:2,0:0:0:0:
214,153,195521,2,0,P|138:209|138:304,1,195.500003728867,6|8,1:2|0:2,0:0:0:0:
138,304,196162,5,6,1:2:0:0:
40,162,196323,1,2,0:2:0:0:
214,153,196483,1,10,0:2:0:0:
6,309,196644,1,2,0:2:0:0:
37,25,196804,5,2,1:2:0:0:
132,210,196964,1,2,0:2:0:0:
209,25,197125,1,10,0:2:0:0:
24,195,197285,1,2,0:2:0:0:
199,384,197446,6,0,P|213:312|230:240,1,146.62500279665,2|0,1:2|0:2,0:0:0:0:
272,170,197767,2,0,P|311:199|313:248,1,97.7500018644333,10|2,0:2|0:2,0:0:0:0:
154,92,198087,1,2,1:2:0:0:
455,50,198248,1,2,0:2:0:0:
269,0,198408,1,10,0:2:0:0:
428,220,198569,1,2,0:2:0:0:
246,312,198729,5,2,1:2:0:0:
397,114,198890,1,2,0:2:0:0:
230,312,199050,1,10,0:2:0:0:
415,117,199211,1,2,0:2:0:0:
181,176,199371,5,2,1:2:0:0:
368,347,199531,1,2,0:2:0:0:
178,194,199692,1,10,0:2:0:0:
368,331,199853,1,2,0:2:0:0:
512,193,200013,6,0,P|464:203|416:211,1,97.7500018644333,2|0,1:2|0:2,0:0:0:0:
222,336,200333,2,0,P|174:328|127:318,1,97.7500018644333,10|0,0:2|0:2,0:0:0:0:
331,59,200654,2,0,P|360:96|359:144,1,97.7500018644333,2|0,1:2|0:2,0:0:0:0:
58,99,200975,2,0,P|28:61|29:13,1,97.7500018644333,8|0,0:2|0:2,0:0:0:0:
180,209,201296,6,0,P|117:174|48:195,1,146.62500279665,6|0,1:2|0:2,0:0:0:0:
11,287,201617,2,0,B|57:276|57:276|61:277|61:277|106:267,1,97.7500018644333,10|0,0:2|0:2,0:0:0:0:
285,384,201938,2,0,P|261:342|269:294,1,97.7500018644333,2|0,1:2|0:2,0:0:0:0:
496,105,202259,2,0,P|485:152|475:200,1,97.7500018644333,10|0,0:2|0:2,0:0:0:0:
331,59,202579,6,0,B|275:44|275:44|241:84|190:78,1,146.62500279665,2|0,1:2|0:2,0:0:0:0:
130,143,202900,2,0,P|103:102|106:54,1,97.7500018644333,10|0,0:2|0:2,0:0:0:0:
95,308,203221,2,0,P|54:334|6:331,1,97.7500018644333,2|0,1:2|0:2,0:0:0:0:
256,256,203542,2,0,P|304:260|353:266,1,97.7500018644333,10|0,0:2|0:2,0:0:0:0:
512,68,203863,6,0,B|404:88|404:88|376:137|431:166,1,195.500003728867,2|8,1:2|0:2,0:0:0:0:
197,114,204344,1,2,0:2:0:0:
262,0,204505,2,0,P|273:47|284:95,1,97.7500018644333,0|0,1:2|0:2,0:0:0:0:
182,294,204825,2,0,B|158:251|158:251|177:206,1,97.7500018644333,14|0,0:2|0:2,0:0:0:0:
115,342,205146,1,2,1:2:0:0:
247,247,205307,1,8,0:2:0:0:
67,92,205467,5,10,0:2:0:0:
72,125,205547,1,8,0:2:0:0:
77,159,205627,1,8,0:2:0:0:
83,193,205707,1,8,0:2:0:0:
88,227,205787,1,2,1:2:0:0:
0,178,205948,1,8,0:3:0:0:
137,52,206109,2,0,P|185:59|233:65,1,97.7500018644333,4|0,0:3|0:2,0:0:0:0:
393,175,206430,5,6,1:2:0:0:
427,93,206590,1,2,0:2:0:0:
461,10,206751,1,2,1:2:0:0:
320,209,206911,5,10,0:2:0:0:
310,219,207232,1,2,0:2:0:0:
241,163,207392,1,2,1:2:0:0:
154,186,207553,1,2,0:2:0:0:
246,151,207713,1,2,1:2:0:0:
111,270,207874,5,10,0:2:0:0:
104,282,208194,1,2,0:2:0:0:
38,221,208355,1,2,1:2:0:0:
73,139,208515,1,10,0:2:0:0:
26,308,208676,1,0,1:2:0:0:
24,315,208756,1,0,1:2:0:0:
22,323,208836,1,0,1:2:0:0:
20,331,208916,1,0,1:2:0:0:
18,339,208997,5,2,1:2:0:0:
104,282,209157,1,2,0:2:0:0:
242,323,209317,1,2,1:2:0:0:
156,380,209477,5,10,0:2:0:0:
145,375,209799,5,2,0:2:0:0:
231,316,209959,1,2,1:2:0:0:
323,367,210120,1,2,0:2:0:0:
407,304,210280,1,2,1:2:0:0:
233,201,210440,5,10,0:2:0:0:
233,201,210761,5,2,1:2:0:0:
142,70,210922,5,10,0:2:0:0:
168,357,211082,1,10,0:2:0:0:
404,191,211243,1,10,0:2:0:0:
61,214,211403,5,10,0:2:0:0:
