osu file format v14

[General]
AudioFilename: audio.mp3
AudioLeadIn: 0
PreviewTime: 131911
Countdown: 0
SampleSet: Soft
StackLeniency: 0.7
Mode: 0
LetterboxInBreaks: 0
WidescreenStoryboard: 1

[Editor]
DistanceSpacing: 1
BeatDivisor: 4
GridSize: 8
TimelineZoom: 1.4

[Metadata]
Title:Acchi Muite
TitleUnicode:あっちむいて
Artist:Swimy
ArtistUnicode:Swimy
Creator:FuJu
Version:Normal
Source:銀魂゜
Tags:japanese pop jpop j-pop rock jrock j-rock Gintama° gintama ending ed full ver version season 4 male vocals anime kowari kudosu soop so0p
BeatmapID:2501799
BeatmapSetID:1141606

[Difficulty]
HPDrainRate:3
CircleSize:3
OverallDifficulty:4
ApproachRate:5
SliderMultiplier:1
SliderTickRate:1

[Events]
//Background and Video events
0,0,"bg.jpg",0,0
//Break Periods
2,101389,110256
2,152726,161593
//Storyboard Layer 0 (Background)
//Storyboard Layer 1 (Fail)
//Storyboard Layer 2 (Pass)
//Storyboard Layer 3 (Foreground)
//Storyboard Layer 4 (Overlay)
//Storyboard Sound Samples

[TimingPoints]
1404,320.855614973262,4,2,22,35,1,0
11350,320.855614973262,4,2,22,75,1,0
11350,-95.2380952380954,4,2,22,75,0,0
31884,-95.2380952380954,4,2,22,60,0,0
41510,-95.2380952380954,4,2,22,65,0,0
52419,-95.2380952380954,4,2,22,50,0,0
57553,-95.2380952380954,4,2,22,65,0,0
59798,-95.2380952380954,4,2,22,50,0,0
60120,-95.2380952380954,4,2,22,75,0,0
62686,-95.2380952380952,4,2,22,85,0,1
83221,-95.2380952380952,4,2,22,55,0,0
90922,-95.2380952380952,4,2,22,60,0,0
101189,-95.2380952380952,4,2,22,45,0,0
111456,-95.2380952380952,4,2,22,60,0,0
121724,-95.2380952380952,4,2,22,50,0,0
126858,-95.2380952380952,4,2,22,75,0,0
131991,-95.2380952380952,4,2,22,85,0,1
152526,-95.2380952380952,4,2,22,50,0,0
170494,-95.2380952380952,4,2,22,60,0,0
170654,-95.2380952380952,4,2,22,75,0,0
170815,-95.2380952380952,4,2,22,60,0,0
185895,-95.2380952380952,4,2,22,85,0,1
206430,-95.2380952380952,4,2,22,65,0,0

[Colours]
Combo1 : 255,40,40
Combo2 : 0,221,55
Combo3 : 0,225,225
Combo4 : 230,230,0

[HitObjects]
0,352,11350,6,0,P|41:322|93:321,1,104.999996795654,6|10,1:2|0:2,0:0:0:0:
183,267,11991,2,0,P|224:297|276:299,1,104.999996795654,2|10,1:2|0:2,0:0:0:0:
329,283,12472,1,2,1:2:0:0:
329,283,12633,2,0,L|343:178,1,104.999996795654,2|10,0:2|0:2,0:0:0:0:
380,80,13275,2,0,P|354:73|329:67,1,52.4999983978272,2|0,0:2|1:2,0:0:0:0:
291,31,13595,2,0,P|239:41|187:49,1,104.999996795654,10|0,0:2|1:2,0:0:0:0:
91,94,14237,6,0,P|67:139|76:189,1,104.999996795654,10|2,0:2|1:2,0:0:0:0:
151,272,14879,1,10,0:2:0:0:
151,272,15039,2,0,P|202:263|255:258,1,104.999996795654,2|2,1:2|1:2,0:0:0:0:
311,256,15521,1,10,0:2:0:0:
311,256,15681,2,0,B|285:302|285:302|305:349,1,104.999996795654,2|2,1:2|1:2,0:0:0:0:
349,379,16162,1,10,0:2:0:0:
446,338,16483,6,0,P|450:286|456:234,1,104.999996795654,6|10,1:2|0:2,0:0:0:0:
443,128,17125,2,0,P|469:124|494:132,2,52.4999983978272,2|2|10,1:2|1:2|0:2,0:0:0:0:
401,159,17606,1,0,1:2:0:0:
401,159,17767,2,0,L|296:145,1,104.999996795654,2|10,0:2|0:2,0:0:0:0:
201,101,18408,2,0,L|208:49,1,52.4999983978272,2|2,0:2|1:2,0:0:0:0:
161,24,18729,2,0,B|106:19|116:56|44:49,1,104.999996795654,10|0,0:2|1:2,0:0:0:0:
2,137,19371,6,0,L|15:241,1,104.999996795654,10|2,0:2|1:2,0:0:0:0:
63,261,19852,2,0,L|55:312,1,52.4999983978272,2|10,1:2|0:2,0:0:0:0:
71,364,20173,1,2,1:3:0:0:
156,302,20494,1,2,1:3:0:0:
227,379,20815,1,2,1:3:0:0:
290,301,21136,1,2,1:3:0:0:
290,301,21296,2,0,P|316:302|342:305,1,52.4999983978272,10|10,0:2|0:2,0:0:0:0:
389,325,21617,6,0,P|414:279|404:229,1,104.999996795654,6|10,1:2|0:2,0:0:0:0:
433,127,22259,2,0,L|484:136,2,52.4999983978272,2|2|10,1:2|1:2|0:2,0:0:0:0:
400,93,22740,1,2,1:2:0:0:
400,93,22900,2,0,P|355:66|303:71,1,104.999996795654,2|10,0:2|0:2,0:0:0:0:
251,161,23542,2,0,L|264:221,1,52.4999983978272,2|2,0:2|1:2,0:0:0:0:
264,264,23863,2,0,P|212:254|160:248,1,104.999996795654,10|0,0:2|1:2,0:0:0:0:
60,281,24505,6,0,P|41:234|60:187,1,104.999996795654,10|2,0:2|1:2,0:0:0:0:
85,141,24986,1,2,1:2:0:0:
85,141,25146,2,0,L|96:74,1,52.4999983978272,10|2,0:2|1:2,0:0:0:0:
158,6,25628,2,0,L|210:13,1,52.4999983978272,2|10,1:2|0:2,0:0:0:0:
236,57,25948,2,0,L|340:49,1,104.999996795654,2|2,1:2|1:2,0:0:0:0:
393,55,26430,1,10,0:2:0:0:
469,127,26751,6,0,B|493:175|493:175|476:223,1,104.999996795654,6|10,1:2|0:2,0:0:0:0:
442,323,27392,2,0,P|468:318|495:317,2,52.4999983978272,2|2|10,1:2|1:2|0:2,0:0:0:0:
402,357,27874,1,2,1:2:0:0:
402,357,28034,2,0,B|357:331|357:331|305:344,1,104.999996795654,2|10,0:2|0:2,0:0:0:0:
205,384,28676,2,0,L|197:332,1,52.4999983978272,2|2,0:2|1:2,0:0:0:0:
151,305,28997,2,0,L|167:201,1,104.999996795654,10|0,0:2|1:2,0:0:0:0:
167,96,29638,2,0,P|121:70|70:77,1,104.999996795654,10|2,0:2|1:2,0:0:0:0:
22,98,30120,2,0,P|25:125|27:151,1,52.4999983978272,2|10,1:2|0:2,0:0:0:0:
24,202,30440,5,2,1:3:0:0:
48,304,30761,1,2,1:3:0:0:
150,328,31082,1,2,1:3:0:0:
225,254,31403,1,2,1:3:0:0:
225,254,31563,2,0,L|277:260,1,52.4999983978272,2|2,1:2|1:2,0:0:0:0:
329,258,31884,6,0,B|303:304|303:304|318:353,2,104.999996795654,6|2|2,1:2|1:2|1:2,0:0:0:0:
412,321,32847,1,2,1:2:0:0:
487,247,33168,2,0,P|504:199|486:151,1,104.999996795654,2|2,1:2|1:2,0:0:0:0:
418,69,33809,2,0,P|392:74|366:78,1,52.4999983978272,2|2,1:2|0:2,0:0:0:0:
344,126,34130,2,0,P|318:120|292:116,1,52.4999983978272,2|2,1:2|0:2,0:0:0:0:
240,123,34451,6,0,P|216:78|235:30,2,104.999996795654,2|2|2,1:2|1:2|1:2,0:0:0:0:
303,206,35414,1,2,1:2:0:0:
302,311,35735,2,0,L|250:318,1,52.4999983978272,2|2,1:2|0:2,0:0:0:0:
217,359,36055,2,0,L|165:351,1,52.4999983978272,2|2,1:2|0:2,0:0:0:0:
119,378,36376,2,0,L|15:364,1,104.999996795654,2|0,1:2|1:2,0:0:0:0:
12,258,37018,6,0,B|17:212|17:212|23:203|23:203|27:155,2,104.999996795654,2|2|2,1:2|1:2|1:2,0:0:0:0:
120,253,37981,1,2,1:2:0:0:
150,151,38301,2,0,P|164:102|142:56,2,104.999996795654,2|2|2,1:2|1:2|1:2,0:0:0:0:
120,253,39264,1,2,1:2:0:0:
180,338,39585,6,0,L|284:323,1,104.999996795654,2|2,1:2|1:2,0:0:0:0:
312,222,40227,2,0,L|415:238,1,104.999996795654,2|2,1:2|1:2,0:0:0:0:
471,149,40868,1,2,1:3:0:0:
423,55,41189,1,2,1:3:0:0:
318,50,41510,2,0,B|261:43|267:81|198:70,1,104.999996795654,8|8,0:1|0:1,0:0:0:0:
130,131,42152,6,0,P|105:86|122:38,2,104.999996795654,6|10|2,1:2|0:2|1:2,0:0:0:0:
230,161,43114,1,10,0:2:0:0:
274,256,43435,2,0,L|378:243,1,104.999996795654,2|10,1:2|0:2,0:0:0:0:
395,346,44077,2,0,L|342:353,1,52.4999983978272,2|2,1:2|0:2,0:0:0:0:
295,375,44398,2,0,L|242:367,1,52.4999983978272,10|2,0:2|0:2,0:0:0:0:
204,331,44718,6,0,P|176:288|192:240,2,104.999996795654,2|10|2,1:2|0:2|1:2,0:0:0:0:
108,374,45681,1,10,0:2:0:0:
23,311,46002,2,0,L|38:207,1,104.999996795654,2|10,1:2|0:2,0:0:0:0:
2,107,46644,2,0,L|19:3,1,104.999996795654,2|8,1:2|0:2,0:0:0:0:
123,14,47285,5,2,1:2:0:0:
103,117,47606,1,10,0:2:0:0:
186,180,47927,2,0,P|238:171|290:165,1,104.999996795654,2|10,1:2|0:2,0:0:0:0:
385,120,48569,1,2,1:2:0:0:
464,187,48890,1,10,0:2:0:0:
424,284,49210,2,0,P|373:273|321:267,1,104.999996795654,2|10,1:2|0:2,0:0:0:0:
250,345,49852,5,2,1:2:0:0:
145,338,50173,2,0,L|137:286,1,52.4999983978272,10|2,0:2|0:2,0:0:0:0:
108,241,50494,2,0,L|117:181,1,52.4999983978272,2|10,1:2|0:2,0:0:0:0:
148,147,50815,2,0,B|138:97|138:97|141:93|141:93|131:44,1,104.999996795654,10|10,0:2|0:2,0:0:0:0:
235,31,51456,2,0,P|278:5|345:22,1,104.999996795654,10|2,0:2|0:2,0:0:0:0:
376,47,51938,1,0,1:2:0:0:
376,47,52098,1,10,1:2:0:0:
438,131,52419,6,0,L|410:286,1,157.499995193482,6|2,0:2|0:2,0:0:0:0:
284,380,53382,1,2,0:2:0:0:
183,350,53702,2,0,P|146:287|183:204,1,157.499995193482,6|2,1:2|0:2,0:0:0:0:
19,175,54665,1,2,1:2:0:0:
14,70,54986,2,0,B|60:80|90:64|76:51|113:22|178:35,1,157.499995193482,6|2,1:2|0:2,0:0:0:0:
314,0,55948,1,2,0:2:0:0:
413,33,56269,6,0,L|392:136,1,104.999996795654,6|2,1:2|0:2,0:0:0:0:
381,190,56751,1,2,0:2:0:0:
381,190,56911,2,0,P|340:160|289:160,1,104.999996795654,8|10,0:2|0:2,0:0:0:0:
187,193,57553,2,0,L|173:297,1,104.999996795654,6|10,1:2|0:2,0:0:0:0:
84,354,58194,2,0,P|70:324|77:293,1,52.4999983978272,2|2,1:2|1:2,0:0:0:0:
38,264,58515,2,0,P|48:234|67:216,1,52.4999983978272,10|2,0:2|0:2,0:0:0:0:
77,168,58836,6,0,P|113:132|164:135,1,104.999996795654,2|10,1:2|0:2,0:0:0:0:
265,106,59478,2,0,L|276:54,2,52.4999983978272,2|0|10,1:2|1:2|0:2,0:0:0:0:
340,180,60120,2,0,P|375:216|372:267,1,104.999996795654,6|2,1:2|0:2,0:0:0:0:
343,313,60601,1,8,0:2:0:0:
343,313,60761,2,0,L|275:301,1,52.4999983978272,2|0,0:2|1:2,0:0:0:0:
248,273,61082,2,0,L|179:285,1,52.4999983978272,10|2,0:2|0:2,0:0:0:0:
153,312,61403,5,2,1:2:0:0:
77,239,61724,1,10,0:2:0:0:
138,152,62045,2,0,P|142:100|149:48,1,104.999996795654,10|8,0:2|1:2,0:0:0:0:
243,1,62686,6,0,P|294:9|346:14,1,104.999996795654,6|10,1:2|0:2,0:0:0:0:
452,9,63328,1,2,1:2:0:0:
510,96,63649,1,10,0:2:0:0:
478,196,63970,2,0,P|463:246|452:297,1,104.999996795654,2|10,1:2|0:2,0:0:0:0:
349,276,64612,1,2,1:2:0:0:
281,355,64932,1,10,0:2:0:0:
186,310,65253,6,0,B|171:258|171:258|199:193,1,104.999996795654,2|8,1:2|0:2,0:0:0:0:
236,182,65735,1,2,0:2:0:0:
236,182,65895,2,0,L|227:130,1,52.4999983978272,2|0,1:2|0:2,0:0:0:0:
232,77,66216,1,10,0:2:0:0:
137,31,66537,2,0,B|83:30|82:64|18:55,2,104.999996795654,6|10|2,1:3|0:2|1:2,0:0:0:0:
137,136,67499,1,8,0:2:0:0:
212,208,67820,6,0,P|255:236|315:225,1,104.999996795654,6|10,1:2|0:2,0:0:0:0:
409,207,68462,1,2,1:2:0:0:
423,310,68783,1,10,0:2:0:0:
334,363,69104,2,0,P|282:353|230:349,1,104.999996795654,2|10,1:2|0:2,0:0:0:0:
125,340,69745,1,2,1:2:0:0:
62,255,70066,2,0,L|67:202,1,52.4999983978272,10|2,0:2|0:2,0:0:0:0:
58,150,70387,6,0,P|98:116|149:115,1,104.999996795654,2|8,1:2|0:2,0:0:0:0:
203,131,70868,1,2,0:2:0:0:
203,131,71029,2,0,P|244:165|295:167,1,104.999996795654,2|8,1:2|0:2,0:0:0:0:
389,127,71670,2,0,B|410:78|410:78|386:32,2,104.999996795654,2|10|6,1:2|0:2|1:2,0:0:0:0:
293,167,72633,1,8,0:2:0:0:
354,252,72954,6,0,L|342:303,1,52.4999983978272,6|2,1:2|0:2,0:0:0:0:
320,351,73275,2,0,L|268:339,1,52.4999983978272,10|2,0:2|0:2,0:0:0:0:
218,326,73595,2,0,L|225:378,2,52.4999983978272,2|2|10,1:2|0:2|0:2,0:0:0:0:
147,247,74237,2,0,P|124:201|147:156,1,104.999996795654,2|10,1:2|0:2,0:0:0:0:
244,117,74879,2,0,L|247:169,1,52.4999983978272,2|2,1:2|0:2,0:0:0:0:
290,199,75200,2,0,L|285:251,1,52.4999983978272,10|2,0:2|0:2,0:0:0:0:
324,286,75521,6,0,P|348:276|374:276,2,52.4999983978272,2|2|10,1:2|0:2|0:2,0:0:0:0:
254,365,76162,2,0,P|227:366|202:360,2,52.4999983978272,2|2|10,1:2|0:2|0:2,0:0:0:0:
358,379,76804,1,2,1:2:0:0:
454,336,77125,1,10,0:2:0:0:
454,230,77446,2,0,P|451:177|459:124,1,104.999996795654,2|8,1:2|0:2,0:0:0:0:
468,21,78087,6,0,P|417:10|374:37,1,104.999996795654,6|10,1:2|0:2,0:0:0:0:
285,93,78729,1,2,1:2:0:0:
184,62,79050,1,10,0:2:0:0:
111,137,79371,2,0,P|120:189|126:241,1,104.999996795654,2|10,1:2|0:2,0:0:0:0:
146,345,80013,1,2,1:2:0:0:
238,295,80333,1,10,0:2:0:0:
319,361,80654,6,0,P|345:316|339:266,1,104.999996795654,2|8,1:2|0:2,0:0:0:0:
314,224,81136,1,2,0:2:0:0:
314,224,81296,1,2,1:2:0:0:
355,127,81617,1,14,0:2:0:0:
281,51,81938,2,0,P|229:59|176:64,1,104.999996795654,2|8,1:2|0:2,0:0:0:0:
137,97,82419,1,8,0:2:0:0:
137,97,82579,2,0,P|112:86|86:87,1,52.4999983978272,2|8,1:2|0:3,0:0:0:0:
43,115,82900,1,6,1:3:0:0:
38,219,83221,6,0,B|85:228|85:228|93:236|93:236|138:244,1,104.999996795654,6|0,1:2|0:2,0:0:0:0:
193,261,83702,1,0,1:2:0:0:
193,261,83863,1,8,0:2:0:0:
298,259,84184,2,0,P|288:310|281:362,2,104.999996795654,0|0|8,1:2|1:2|0:2,0:0:0:0:
389,208,85146,2,0,P|413:163|396:115,1,104.999996795654,0|0,1:2|0:2,0:0:0:0:
360,84,85628,1,0,1:2:0:0:
360,84,85788,5,8,0:2:0:0:
258,112,86109,2,0,P|239:65|262:20,2,104.999996795654,0|8|8,1:2|0:2|0:2,0:0:0:0:
254,217,87071,2,0,B|207:209|207:209|199:214|199:214|152:205,1,104.999996795654,0|0,1:2|0:2,0:0:0:0:
103,202,87553,1,0,1:2:0:0:
103,202,87713,1,8,0:2:0:0:
10,252,88034,2,0,P|17:303|25:355,2,104.999996795654,0|0|8,1:2|1:2|0:2,0:0:0:0:
5,146,88997,6,0,B|-10:99|-10:99|14:49,1,104.999996795654,0|0,1:2|0:2,0:0:0:0:
58,18,89478,1,0,1:2:0:0:
58,18,89638,1,8,0:2:0:0:
128,96,89959,2,0,P|117:147|111:199,1,104.999996795654,0|0,1:2|1:2,0:0:0:0:
112,256,90440,1,8,0:2:0:0:
112,256,90601,2,0,L|163:246,1,52.4999983978272,8|8,0:2|0:2,0:0:0:0:
208,218,90922,5,6,1:2:0:0:
298,271,91243,1,10,0:2:0:0:
364,188,91563,2,0,P|382:141|362:93,1,104.999996795654,2|0,1:2|1:2,0:0:0:0:
322,59,92045,2,0,L|270:66,1,52.4999983978272,10|0,0:2|0:2,0:0:0:0:
219,82,92366,2,0,L|167:72,1,52.4999983978272,2|8,1:2|0:2,0:0:0:0:
70,114,92847,2,0,L|80:165,1,52.4999983978272,2|10,1:2|0:2,0:0:0:0:
102,213,93168,2,0,L|89:286,1,52.4999983978272,2|8,1:2|0:2,0:0:0:0:
81,316,93489,5,2,1:2:0:0:
163,380,93809,1,2,1:2:0:0:
232,300,94130,2,0,P|281:286|328:306,1,104.999996795654,2|8,0:2|0:2,0:0:0:0:
372,337,94612,2,0,P|389:317|395:291,1,52.4999983978272,2|8,1:2|0:2,0:0:0:0:
426,249,94932,2,0,P|422:224|409:201,1,52.4999983978272,10|8,0:2|0:2,0:0:0:0:
388,98,95414,2,0,L|335:105,1,52.4999983978272,10|10,0:2|0:2,0:0:0:0:
302,145,95735,2,0,L|250:137,1,52.4999983978272,10|8,0:2|0:2,0:0:0:0:
197,135,96055,5,6,1:2:0:0:
118,65,96376,1,10,0:2:0:0:
44,140,96697,2,0,B|22:190|22:190|39:237,1,104.999996795654,2|0,1:2|1:2,0:0:0:0:
71,278,97178,2,0,P|95:266|121:263,1,52.4999983978272,10|0,0:2|0:2,0:0:0:0:
165,289,97499,2,0,P|189:301|215:304,1,52.4999983978272,2|8,1:2|0:2,0:0:0:0:
307,353,97981,2,0,P|317:328|318:302,1,52.4999983978272,2|10,1:2|0:2,0:0:0:0:
350,260,98301,2,0,P|350:233|343:208,1,52.4999983978272,2|8,1:2|0:2,0:0:0:0:
316,163,98622,5,2,1:2:0:0:
394,93,98943,1,10,0:2:0:0:
479,154,99264,2,0,P|469:205|462:257,1,104.999996795654,2|8,1:2|0:2,0:0:0:0:
448,308,99745,2,0,L|396:316,1,52.4999983978272,2|0,1:2|1:2,0:0:0:0:
357,351,100066,2,0,L|305:342,1,52.4999983978272,10|8,0:2|0:2,0:0:0:0:
205,375,100547,1,2,1:3:0:0:
173,274,100868,1,2,1:3:0:0:
144,172,101189,5,6,1:2:0:0:
140,42,111456,6,0,P|97:16|46:23,2,104.999996795654,6|10|2,1:2|0:2|1:2,0:0:0:0:
191,135,112419,1,10,0:2:0:0:
95,179,112740,2,0,L|107:283,1,104.999996795654,2|10,1:2|0:2,0:0:0:0:
185,353,113382,2,0,P|207:340|233:337,1,52.4999983978272,2|2,1:2|0:2,0:0:0:0:
263,293,113702,2,0,P|289:291|313:299,1,52.4999983978272,10|2,0:2|0:2,0:0:0:0:
350,262,114023,6,0,P|403:258|455:251,2,104.999996795654,2|10|2,1:2|0:2|1:2,0:0:0:0:
285,178,114986,1,10,0:2:0:0:
356,102,115307,2,0,P|363:76|356:51,1,52.4999983978272,2|2,1:2|0:2,0:0:0:0:
334,3,115628,2,0,P|308:-3|283:3,1,52.4999983978272,10|2,0:2|0:2,0:0:0:0:
238,29,115948,2,0,P|195:58|143:55,1,104.999996795654,2|8,1:2|0:2,0:0:0:0:
44,91,116590,5,2,1:2:0:0:
12,191,116911,1,10,0:2:0:0:
57,285,117232,2,0,P|107:272|159:265,1,104.999996795654,2|10,1:2|0:2,0:0:0:0:
264,255,117874,1,2,1:2:0:0:
327,338,118194,1,10,0:2:0:0:
416,282,118515,2,0,P|439:237|426:187,1,104.999996795654,2|10,1:2|0:2,0:0:0:0:
353,112,119157,5,2,1:2:0:0:
282,33,119478,2,0,L|230:41,1,52.4999983978272,10|2,0:2|0:2,0:0:0:0:
197,83,119799,2,0,L|145:73,1,52.4999983978272,2|10,1:2|0:2,0:0:0:0:
93,65,120120,2,0,P|78:115|67:166,1,104.999996795654,10|10,0:2|0:2,0:0:0:0:
97,268,120761,2,0,P|138:237|189:240,1,104.999996795654,10|2,0:2|0:2,0:0:0:0:
235,276,121243,1,0,1:2:0:0:
235,276,121403,1,14,0:2:0:0:
302,195,121724,6,0,B|295:129|295:129|275:113|275:113|267:47,1,157.499995193482,6|2,1:2|0:2,0:0:0:0:
417,94,122686,1,2,0:2:0:0:
476,180,123007,2,0,P|463:257|452:335,1,157.499995193482,6|2,1:2|0:2,0:0:0:0:
295,315,123970,1,2,1:2:0:0:
204,368,124291,6,0,B|157:383|132:363|140:346|106:320|48:335,1,157.499995193482,6|2,1:2|0:2,0:0:0:0:
181,234,125253,1,2,0:2:0:0:
285,228,125574,2,0,P|278:176|274:124,1,104.999996795654,6|0,1:2|0:2,0:0:0:0:
280,75,126055,1,2,0:2:0:0:
280,75,126216,2,0,P|322:104|373:103,1,104.999996795654,8|10,0:2|0:2,0:0:0:0:
479,103,126858,6,0,P|468:155|461:207,1,104.999996795654,6|10,1:2|0:2,0:0:0:0:
357,221,127499,2,0,L|365:272,1,52.4999983978272,2|2,1:2|1:2,0:0:0:0:
333,315,127820,2,0,L|280:308,1,52.4999983978272,10|2,0:2|0:2,0:0:0:0:
232,288,128141,2,0,L|128:304,1,104.999996795654,2|10,1:2|0:2,0:0:0:0:
27,273,128783,2,0,P|16:298|17:330,2,52.4999983978272,2|0|10,1:2|1:2|0:2,0:0:0:0:
95,192,129424,6,0,P|89:140|83:88,1,104.999996795654,6|2,1:2|0:2,0:0:0:0:
78,39,129906,1,8,0:2:0:0:
78,39,130066,2,0,P|102:49|128:49,1,52.4999983978272,2|0,0:2|1:2,0:0:0:0:
173,76,130387,2,0,P|199:75|224:68,1,52.4999983978272,10|2,0:2|0:2,0:0:0:0:
268,39,130708,1,2,1:2:0:0:
365,78,131029,1,10,0:2:0:0:
386,180,131350,2,0,P|375:231|367:283,1,104.999996795654,10|8,0:2|0:2,0:0:0:0:
283,346,131991,6,0,P|253:304|266:255,1,104.999996795654,6|10,1:2|0:2,0:0:0:0:
297,154,132633,1,2,1:2:0:0:
216,86,132954,1,10,0:2:0:0:
123,135,133275,2,0,P|113:186|102:237,1,104.999996795654,2|10,1:2|0:2,0:0:0:0:
100,342,133916,1,2,1:2:0:0:
197,381,134237,1,10,0:2:0:0:
270,305,134558,6,0,B|320:313|320:313|325:320|325:320|389:331,1,104.999996795654,2|8,1:2|0:2,0:0:0:0:
423,313,135039,1,2,0:2:0:0:
423,313,135200,2,0,L|415:250,1,52.4999983978272,2|0,1:2|0:2,0:0:0:0:
376,225,135521,1,10,0:2:0:0:
415,127,135841,2,0,P|457:92|512:99,2,104.999996795654,6|10|2,1:3|0:2|1:2,0:0:0:0:
376,225,136804,1,8,0:2:0:0:
303,148,137125,6,0,B|257:119|257:119|207:129,1,104.999996795654,6|10,1:2|0:2,0:0:0:0:
113,80,137767,1,2,1:2:0:0:
24,135,138087,1,10,0:2:0:0:
61,233,138408,2,0,P|49:284|43:336,1,104.999996795654,2|10,1:2|0:2,0:0:0:0:
144,309,139050,1,2,1:2:0:0:
229,369,139371,2,0,P|252:382|278:384,1,52.4999983978272,10|2,0:2|0:2,0:0:0:0:
322,356,139692,6,0,P|325:303|330:251,1,104.999996795654,2|8,1:2|0:2,0:0:0:0:
347,205,140173,1,2,0:2:0:0:
346,205,140333,2,0,P|392:181|442:190,1,104.999996795654,2|8,1:2|0:2,0:0:0:0:
510,270,140975,2,0,P|500:321|491:373,2,104.999996795654,2|10|6,1:2|0:2|1:2,0:0:0:0:
442,190,141938,1,8,0:2:0:0:
468,88,142259,6,0,L|416:79,1,52.4999983978272,6|2,1:2|0:2,0:0:0:0:
378,42,142579,2,0,L|306:54,1,52.4999983978272,10|2,0:2|0:2,0:0:0:0:
273,54,142900,2,0,P|261:30|261:4,2,52.4999983978272,2|2|10,1:2|0:2|0:2,0:0:0:0:
291,157,143542,2,0,L|274:261,1,104.999996795654,2|10,1:2|0:2,0:0:0:0:
206,341,144184,2,0,L|154:332,1,52.4999983978272,2|2,1:2|0:2,0:0:0:0:
111,302,144504,2,0,L|102:250,1,52.4999983978272,10|2,0:2|0:2,0:0:0:0:
122,201,144825,6,0,L|180:211,2,52.4999983978272,2|2|10,1:2|0:2|0:2,0:0:0:0:
70,109,145467,2,0,P|45:100|18:100,2,52.4999983978272,2|2|10,1:2|0:2|0:2,0:0:0:0:
140,29,146109,1,2,1:2:0:0:
246,16,146430,1,10,0:2:0:0:
309,99,146751,2,0,B|296:146|296:146|300:156|300:156|287:211,1,104.999996795654,2|8,1:2|0:2,0:0:0:0:
359,277,147392,6,0,P|392:237|388:186,1,104.999996795654,6|10,1:2|0:2,0:0:0:0:
482,137,148034,1,2,1:2:0:0:
435,42,148355,1,10,0:2:0:0:
331,63,148676,2,0,P|280:72|228:76,1,104.999996795654,2|10,1:2|0:2,0:0:0:0:
123,70,149317,1,2,1:2:0:0:
40,134,149638,1,10,0:2:0:0:
40,239,149959,6,0,B|21:290|21:290|41:336,1,104.999996795654,2|8,1:2|0:2,0:0:0:0:
81,379,150440,1,2,0:2:0:0:
81,379,150601,1,2,1:2:0:0:
140,292,150922,1,14,0:2:0:0:
219,360,151243,2,0,B|323:351,1,104.999996795654,2|2,1:2|1:2,0:0:0:0:
379,365,151724,1,8,0:2:0:0:
378,365,151884,2,0,P|392:342|397:317,1,52.4999983978272,2|8,1:2|0:3,0:0:0:0:
424,270,152205,2,0,P|419:245|404:223,1,52.4999983978272,4|2,1:3|0:2,0:0:0:0:
363,190,152526,5,6,1:2:0:0:
15,9,162793,6,0,L|32:112,1,104.999996795654,2|0,1:2|0:0,0:0:0:0:
124,163,163435,2,0,L|106:266,1,104.999996795654,10|2,0:2|0:2,0:0:0:0:
152,361,164077,2,0,P|194:330|245:336,1,104.999996795654,2|0,0:2|1:2,0:0:0:0:
340,381,164718,1,10,0:2:0:0:
440,349,165039,1,2,0:2:0:0:
470,248,165360,6,0,L|459:143,1,104.999996795654,2|8,1:2|0:2,0:0:0:0:
474,39,166002,2,0,L|421:45,1,52.4999983978272,2|0,0:2|1:2,0:0:0:0:
380,78,166323,2,0,L|275:66,1,104.999996795654,8|8,0:2|0:2,0:0:0:0:
179,24,166964,1,0,1:2:0:0:
92,83,167285,2,0,L|83:134,1,52.4999983978272,2|0,1:2|1:2,0:0:0:0:
58,181,167606,2,0,L|67:232,1,52.4999983978272,10|0,0:2|1:2,0:0:0:0:
73,283,167927,6,0,P|115:254|166:259,1,104.999996795654,14|8,0:2|0:2,0:0:0:0:
204,295,168408,2,0,P|244:327|295:327,1,104.999996795654,8|0,0:2|1:2,0:0:0:0:
343,304,168890,1,2,1:2:0:0:
444,277,169210,2,0,B|470:231|470:231|449:183,1,104.999996795654,6|8,1:2|0:2,0:0:0:0:
421,145,169692,1,8,0:2:0:0:
421,145,169852,1,0,1:2:0:0:
394,43,170173,1,10,0:2:0:0:
292,70,170494,6,0,L|240:59,1,52.4999983978272,6|0,1:2|0:0,0:0:0:0:
187,60,170815,1,8,0:2:0:0:
86,89,171136,1,8,0:2:0:0:
62,190,171456,1,8,0:2:0:0:
119,278,171777,2,0,L|170:269,1,52.4999983978272,0|0,1:2|1:2,0:0:0:0:
212,238,172098,1,8,0:2:0:0:
219,342,172419,1,8,0:2:0:0:
318,374,172740,1,8,0:2:0:0:
417,341,173061,6,0,P|435:292|408:237,1,104.999996795654,6|2,1:2|1:2,0:0:0:0:
483,164,173702,2,0,P|466:110|413:89,1,104.999996795654,2|2,1:2|1:2,0:0:0:0:
336,32,174344,1,2,1:2:0:0:
267,111,174665,1,2,1:2:0:0:
169,72,174986,2,0,L|159:20,2,52.4999983978272,2|2|2,1:2|0:2|1:2,0:0:0:0:
202,171,175628,6,0,P|194:222|187:274,1,104.999996795654,10|2,0:2|1:2,0:0:0:0:
102,337,176269,2,0,P|78:290|89:240,1,104.999996795654,2|2,1:2|1:2,0:0:0:0:
106,136,176911,1,2,1:2:0:0:
204,172,177232,1,2,1:2:0:0:
274,93,177553,2,0,L|266:40,2,52.4999983978272,2|2|2,1:2|0:2|1:2,0:0:0:0:
366,142,178194,6,0,P|399:181|401:233,1,104.999996795654,10|10,0:2|0:2,0:0:0:0:
344,321,178836,2,0,P|303:289|252:292,1,104.999996795654,10|10,0:2|0:2,0:0:0:0:
165,352,179478,2,0,L|113:344,1,52.4999983978272,10|8,0:2|0:2,0:0:0:0:
64,323,179799,2,0,P|60:297|66:271,1,52.4999983978272,10|2,0:2|0:2,0:0:0:0:
93,226,180120,2,0,P|94:199|88:174,1,52.4999983978272,10|2,0:2|0:2,0:0:0:0:
57,131,180440,1,10,0:2:0:0:
119,46,180761,6,0,B|167:52|167:52|173:59|173:59|219:66,1,104.999996795654,10|10,0:2|0:2,0:0:0:0:
317,27,181403,2,0,P|347:68|333:125,1,104.999996795654,10|10,0:2|0:2,0:0:0:0:
249,175,182045,6,0,L|266:257,2,69.9999978637696,10|10|10,0:2|0:2|0:2,0:0:0:0:
204,134,182686,2,0,L|226:38,2,69.9999978637696,2|2|2,1:2|1:2|1:2,0:0:0:0:
0,373,185895,6,0,B|44:345|44:345|95:356,1,104.999996795654,6|10,1:2|0:2,0:0:0:0:
197,382,186537,1,2,1:2:0:0:
281,319,186858,1,10,0:2:0:0:
251,217,187178,2,0,P|269:170|245:125,1,104.999996795654,2|10,1:2|0:2,0:0:0:0:
242,19,187820,1,2,1:2:0:0:
346,10,188141,1,10,0:2:0:0:
419,86,188462,6,0,L|400:189,1,104.999996795654,2|8,1:2|0:2,0:0:0:0:
370,233,188943,1,2,0:2:0:0:
370,233,189104,2,0,L|318:221,1,52.4999983978272,2|0,1:2|0:2,0:0:0:0:
266,224,189424,1,10,0:2:0:0:
163,247,189745,2,0,B|141:295|141:295|155:344,2,104.999996795654,6|10|2,1:3|0:2|1:2,0:0:0:0:
58,236,190708,1,8,0:2:0:0:
3,146,191029,6,0,B|-16:116|-16:116|20:51,1,104.999996795654,6|10,1:2|0:2,0:0:0:0:
108,1,191670,1,2,1:2:0:0:
209,26,191991,1,10,0:2:0:0:
265,114,192312,2,0,P|316:105|369:101,1,104.999996795654,2|10,1:2|0:2,0:0:0:0:
472,83,192954,1,2,1:2:0:0:
489,186,193275,2,0,L|480:237,1,52.4999983978272,10|2,0:2|0:2,0:0:0:0:
460,286,193595,6,0,B|402:283|409:318|344:311,1,104.999996795654,2|8,1:2|0:2,0:0:0:0:
318,289,194077,1,2,0:2:0:0:
318,289,194237,2,0,P|297:243|312:194,1,104.999996795654,2|8,1:2|0:2,0:0:0:0:
360,99,194879,2,0,B|417:96|410:123|480:122,2,104.999996795654,2|10|6,1:2|0:2|1:2,0:0:0:0:
284,25,195841,1,8,0:2:0:0:
213,103,196162,6,0,L|142:96,1,52.4999983978272,6|2,1:2|0:2,0:0:0:0:
123,60,196483,2,0,L|53:67,1,52.4999983978272,10|2,0:2|0:2,0:0:0:0:
19,76,196804,2,0,P|10:52|15:27,2,52.4999983978272,2|2|10,1:2|0:2|0:2,0:0:0:0:
72,166,197446,2,0,P|62:217|55:269,1,104.999996795654,2|10,1:2|0:2,0:0:0:0:
114,356,198087,2,0,P|139:348|165:346,1,52.4999983978272,2|2,1:2|0:2,0:0:0:0:
194,302,198408,2,0,P|218:310|244:314,1,52.4999983978272,10|2,0:2|0:2,0:0:0:0:
295,299,198729,6,0,L|289:246,2,52.4999983978272,2|2|10,1:2|0:2|0:2,0:0:0:0:
395,331,199371,2,0,L|390:383,2,52.4999983978272,2|2|10,1:2|0:2|0:2,0:0:0:0:
482,272,200013,1,2,1:2:0:0:
465,168,200333,1,10,0:2:0:0:
438,67,200654,2,0,B|384:56|384:56|340:83,1,104.999996795654,2|8,1:2|0:2,0:0:0:0:
246,126,201296,6,0,P|228:78|252:33,1,104.999996795654,6|10,1:2|0:2,0:0:0:0:
150,9,201938,1,2,1:2:0:0:
71,79,202259,1,10,0:2:0:0:
106,177,202579,2,0,P|95:228|87:280,1,104.999996795654,2|10,1:2|0:2,0:0:0:0:
79,376,203221,1,2,1:2:0:0:
167,318,203542,1,10,0:2:0:0:
252,378,203863,6,0,B|274:331|274:331|258:280,1,104.999996795654,2|8,1:2|0:2,0:0:0:0:
230,242,204344,1,2,0:2:0:0:
230,242,204505,1,0,1:2:0:0:
211,138,204825,1,14,0:2:0:0:
299,81,205146,2,0,L|366:93,1,52.4999983978272,2|8,1:2|0:2,0:0:0:0:
382,132,205467,2,0,L|448:145,1,52.4999983978272,10|8,0:2|0:2,0:0:0:0:
479,166,205788,2,0,B|495:218|495:218|462:276,1,104.999996795654,2|4,1:2|0:3,0:0:0:0:
376,311,206430,6,0,L|361:256,2,52.4999983978272,6|2|2,1:2|0:2|1:2,0:0:0:0:
367,362,206911,1,10,0:2:0:0:
266,360,207232,1,2,0:2:0:0:
266,360,207392,2,0,L|251:309,1,52.4999983978272,2|2,1:2|0:2,0:0:0:0:
203,286,207713,2,0,L|188:235,1,52.4999983978272,2|10,1:2|0:2,0:0:0:0:
99,179,208194,2,0,P|84:200|82:226,2,52.4999983978272,2|2|10,0:2|1:2|0:2,0:0:0:0:
143,150,208676,1,0,1:2:0:0:
228,87,208997,6,0,P|279:98|331:106,1,104.999996795654,2|2,1:2|1:2,0:0:0:0:
371,139,209478,1,10,0:2:0:0:
465,93,209799,2,0,P|472:66|464:28,2,52.4999983978272,2|2|2,0:2|1:2|0:2,0:0:0:0:
455,144,210280,2,0,L|463:203,1,52.4999983978272,2|10,1:2|0:2,0:0:0:0:
427,297,210761,1,2,1:2:0:0:
427,297,210922,2,0,P|401:291|375:287,1,52.4999983978272,10|10,0:2|0:2,0:0:0:0:
328,263,211243,1,10,0:2:0:0:
328,263,211403,1,10,0:2:0:0:
