osu file format v14

[General]
AudioFilename: audio.mp3
AudioLeadIn: 0
PreviewTime: 598
Countdown: 0
SampleSet: Soft
StackLeniency: 0.7
Mode: 0
LetterboxInBreaks: 0
WidescreenStoryboard: 0

[Editor]
DistanceSpacing: 1
BeatDivisor: 4
GridSize: 4
TimelineZoom: 1

[Metadata]
Title:Acchi Muite
TitleUnicode:あっちむいて
Artist:Swimy
ArtistUnicode:Swimy
Creator:Atrue
Version:Normal
Source:銀魂゜
Tags:Maboyu AliomLoung Pata-Mon tutuhaha TVsize gintoki 2015 ending Gintama Shogun Assassination Arc
BeatmapID:1122882
BeatmapSetID:529551

[Difficulty]
HPDrainRate:5
CircleSize:3.5
OverallDifficulty:4
ApproachRate:5
SliderMultiplier:1.2
SliderTickRate:1

[Events]
//Background and Video events
Video,0,"acchi.avi"
0,0,"34676_gintama.jpg",0,0
//Break Periods
//Storyboard Layer 0 (Background)
//Storyboard Layer 1 (Fail)
//Storyboard Layer 2 (Pass)
//Storyboard Layer 3 (Foreground)
//Storyboard Sound Samples

[TimingPoints]
919,320.855614973262,4,2,23,70,1,0
919,-100,4,2,23,70,0,0
9902,-100,4,2,0,70,0,0
10865,320.855614973262,4,2,0,80,1,1
10865,-100,4,2,0,80,0,1
31399,-100,4,2,0,70,0,0
51613,-100,4,2,0,75,0,0
57068,-100,4,2,0,75,0,0
62201,-100,4,2,0,80,0,1
82736,-100,4,2,0,70,0,0

[Colours]
Combo1 : 255,66,66
Combo2 : 207,207,207
Combo3 : 64,128,128

[HitObjects]
256,120,919,6,0,L|380:96,1,120,0|0,0:0|0:0,0:0:0:0:
484,48,1560,2,0,P|492:104|464:180,1,120,0|0,0:0|0:0,0:0:0:0:
364,212,2202,2,0,L|244:236,1,120,0|0,0:0|0:0,0:0:0:0:
136,284,2844,2,0,P|128:228|152:164,1,120,0|0,0:0|0:0,0:0:0:0:
256,120,3485,6,0,P|216:68|108:60,1,180,0|0,0:0|0:0,0:0:0:0:
56,92,4127,1,0,0:0:0:0:
148,169,4448,1,0,0:0:0:0:
36,212,4769,2,0,L|12:340,2,120,0|0|0,0:0|0:0|0:0,0:0:0:0:
276,236,6052,6,0,L|256:356,1,120,0|0,0:0|0:0,0:0:0:0:
368,304,6694,2,0,P|392:236|368:168,1,120
288,116,7336,2,0,P|241:121|184:168,1,120
172,280,7977,2,0,L|32:256,1,120,0|0,0:0|0:0,0:0:0:0:
40,140,8619,6,0,L|28:20,2,120,0|0|0,0:0|0:0|0:0,0:0:0:0:
53,259,9582,1,0,0:0:0:0:
152,192,9902,1,0,0:0:0:0:
152,192,10865,6,0,P|216:176|279:183,1,120,6|0,0:0|1:0,0:0:0:0:
376,236,11506,2,0,L|452:220,2,60,0|0|0,0:0|2:0|1:0,0:0:0:0:
284,312,12148,2,0,P|220:328|157:321,1,120,2|0,0:0|1:0,0:0:0:0:
60,268,12789,2,0,L|-16:284,2,60,0|0|0,0:0|0:0|1:0,0:0:0:0:
152,192,13431,5,0,0:0:0:0:
148,132,13592,2,0,L|144:64,2,60,2|0|0,0:0|1:0|0:0,0:0:0:0:
204,160,14073,2,0,L|264:116,2,60,2|0|0,0:0|0:0|1:0,0:0:0:0:
152,192,14554,2,0,P|204:264|244:280,1,120,2|0,0:0|0:0,0:0:0:0:
292,276,15036,1,0,1:0:0:0:
352,276,15196,2,0,P|401:243|430:191,1,120,2|0,0:0|0:0,0:0:0:0:
440,132,15677,1,0,1:0:0:0:
464,16,15998,6,0,P|420:12|348:56,1,120,2|0,0:0|1:0,0:0:0:0:
320,160,16640,2,0,L|256:124,2,60,0|0|0,0:0|0:0|1:0,0:0:0:0:
364,272,17282,2,0,P|284:276|248:260,1,120,2|0,0:0|1:0,0:0:0:0:
140,208,17923,2,0,L|76:172,2,60,0|0|0,0:0|0:0|1:0,0:0:0:0:
253,167,18565,5,0,0:0:0:0:
305,139,18725,2,0,L|361:119,2,60,2|0|0,0:0|1:0|0:0,0:0:0:0:
301,199,19207,2,0,L|357:219,2,60,2|0|0,0:0|0:0|1:0,0:0:0:0:
253,167,19688,2,0,L|206:286,2,120,2|2|2,0:0|0:0|0:0,0:0:0:0:
188,68,20651,2,0,L|212:4,2,60,2|0|0,0:0|1:0|1:0,0:0:0:0:
128,72,21132,6,0,P|64:56|1:63,1,120,6|0,0:0|1:0,0:0:0:0:
24,180,21773,2,0,L|8:256,2,60,0|0|0,0:0|0:0|1:0,0:0:0:0:
116,256,22415,2,0,P|180:272|243:265,1,120,2|0,0:0|1:0,0:0:0:0:
268,152,23057,2,0,L|280:84,2,60,0|0|0,0:0|0:0|1:0,0:0:0:0:
376,204,23698,5,0,0:0:0:0:
380,144,23859,2,0,L|392:76,2,60,2|0|0,0:0|1:0|0:0,0:0:0:0:
428,176,24340,2,0,L|488:132,2,60,2|0|0,0:0|0:0|1:0,0:0:0:0:
376,204,24822,2,0,P|328:272|284:292,1,120,2|0,0:0|0:0,0:0:0:0:
236,288,25303,1,0,1:0:0:0:
176,288,25463,2,0,P|127:255|98:203,1,120,2|0,0:0|0:0,0:0:0:0:
88,144,25944,1,0,1:0:0:0:
64,28,26265,6,0,P|108:24|180:68,1,120,2|0,0:0|1:0,0:0:0:0:
208,172,26907,2,0,L|272:136,2,60,0|0|0,0:0|0:0|1:0,0:0:0:0:
160,284,27549,2,0,P|240:288|276:272,1,120,2|0,0:0|1:0,0:0:0:0:
384,224,28191,2,0,L|448:188,2,60,0|0|0,0:0|0:0|1:0,0:0:0:0:
275,272,28832,5,0,0:0:0:0:
300,324,28993,2,0,L|320:380,2,60,2|0|0,0:0|1:0|0:0,0:0:0:0:
240,320,29474,2,0,L|220:376,2,60,2|0|0,0:0|0:0|1:0,0:0:0:0:
275,272,29955,1,2,0:0:0:0:
336,168,30276,1,2,0:0:0:0:
216,172,30597,1,2,0:0:0:0:
272,68,30918,2,0,L|272:-4,2,60,4|4|0,0:3|2:3|0:0,0:0:0:0:
320,104,31399,6,0,P|384:80|448:88,1,120,2|2,0:0|0:0,0:0:0:0:
396,200,32041,1,10,0:0:0:0:
420,316,32362,1,0,0:0:0:0:
308,276,32683,2,0,B|256:316|256:316|192:328,1,120,0|8,0:0|0:0,0:0:0:0:
100,264,33324,2,0,B|152:224|152:224|216:212,1,120,0|8,0:0|0:0,0:0:0:0:
204,92,33966,6,0,B|144:80|144:80|84:40,2,120,2|2|10,0:0|0:0|0:0,0:0:0:0:
304,28,34929,1,0,0:0:0:0:
420,52,35250,2,0,L|460:172,1,120,0|8,0:0|0:0,0:0:0:0:
460,288,35891,1,0,0:0:0:0:
460,288,36212,1,8,0:0:0:0:
341,261,36533,6,0,L|204:280,1,120,2|2,0:0|0:0,0:0:0:0:
108,308,37175,2,0,L|12:388,2,120,10|0|0,0:0|0:0|0:0,0:0:0:0:
140,192,38137,2,0,L|112:76,2,120,8|0|10,0:0|0:0|0:0,0:0:0:0:
222,277,39100,6,0,L|341:261,1,120,2|2,0:0|0:0,0:0:0:0:
380,148,39742,2,0,L|236:168,1,120,2|10,0:0|0:0,0:0:0:0:
308,52,40383,1,2,0:0:0:0:
428,36,40704,1,2,0:0:0:0:
380,148,41025,1,8,0:0:0:0:
456,240,41346,1,8,0:0:0:0:
341,261,41667,6,0,P|380:336|440:356,2,120,4|0|0,0:0|1:0|0:0,0:0:0:0:
379,147,42629,1,0,1:2:0:0:
264,172,42950,2,0,L|148:140,1,120,0|0,0:0|1:0,0:0:0:0:
188,24,43592,2,0,L|312:56,1,120,0|0,0:0|1:0,0:0:0:0:
379,147,44233,6,0,P|420:88|424:24,2,120,0|0|0,0:0|1:0|0:0,0:0:0:0:
264,172,45196,1,0,1:0:0:0:
144,192,45517,2,0,P|103:251|99:315,1,120,0|0,0:0|1:0,0:0:0:0:
216,288,46159,2,0,L|280:300,2,60,0|0|0,0:0|0:0|1:0,0:0:0:0:
264,172,46800,6,0,B|248:116|248:116|260:56,2,120,0|0|0,0:0|1:0|0:0,0:0:0:0:
372,124,47763,2,0,B|388:180|388:180|376:240,2,120,0|0|0,1:0|0:0|1:0,0:0:0:0:
264,172,48725,2,0,L|144:196,1,120,0|0,0:0|1:0,0:0:0:0:
142,78,49367,6,0,L|262:54,1,120,0|0,0:0|1:0,0:0:0:0:
316,32,49848,1,0,0:0:0:0:
368,12,50009,2,0,L|444:0,2,60,0|0|4,0:0|1:0|0:3,0:0:0:0:
448,104,50651,2,0,P|440:180|456:228,1,120,0|0,1:0|1:0,0:0:0:0:
496,332,51292,1,0,0:0:0:0:
376,312,51613,1,0,1:0:0:0:
272,260,51934,6,0,P|164:280|104:356,2,180,0|0|0,1:0|0:0|0:0,0:0:0:0:
248,144,53217,2,0,P|176:60|80:46,2,180,0|0|0,1:0|0:0|0:0,0:0:0:0:
368,152,54501,6,0,B|428:144|428:144|500:104,1,120,0|0,1:0|0:0,0:0:0:0:
464,56,54982,2,0,B|403:63|403:63|332:104,1,120,0|0,0:0|0:0,0:0:0:0:
320,144,55463,1,0,0:0:0:0:
272,260,55784,2,0,L|152:244,1,120,0|0,1:0|0:0,0:0:0:0:
92,236,56266,1,0,0:0:0:0:
72,180,56426,2,0,L|36:56,1,120,0|0,1:0|1:0,0:0:0:0:
156,88,57068,6,0,L|288:108,1,120,0|0,0:0|1:0,0:0:0:0:
320,144,57549,1,0,0:0:0:0:
360,188,57709,2,0,L|432:204,2,60,0|0|0,0:0|0:0|1:0,0:0:0:0:
300,196,58191,1,0,0:0:0:0:
240,200,58351,2,0,P|204:256|204:312,1,120,0|0,0:0|1:0,0:0:0:0:
323,295,58993,2,0,P|359:239|359:183,1,120,0|0,0:0|1:0,0:0:0:0:
274,105,59635,5,4,0:0:0:0:
389,73,59955,2,0,L|453:57,2,60,0|0|0,0:0|1:0|0:0,0:0:0:0:
359,187,60597,1,0,1:0:0:0:
274,105,60918,2,0,L|136:136,1,120,4|0,0:0|1:0,0:0:0:0:
40,104,61560,2,0,P|44:180|80:228,1,120,0|0,1:0|1:0,0:0:0:0:
184,248,62201,5,4,0:0:0:0:
156,131,62522,1,0,1:0:0:0:
228,32,62843,2,0,P|188:12|152:4,2,60,0|0|0,0:0|0:0|1:0,0:0:0:0:
336,88,63485,1,0,0:0:0:0:
364,205,63806,1,0,1:0:0:0:
292,304,64127,2,0,P|332:324|368:332,2,60,0|0|0,0:0|0:0|1:0,0:0:0:0:
364,205,64768,6,0,P|272:184|184:240,1,180,0|0,0:0|0:0,0:0:0:0:
156,260,65410,1,0,0:0:0:0:
124,144,65731,1,0,1:0:0:0:
92,28,66052,1,0,0:0:0:0:
208,60,66373,1,0,1:0:0:0:
124,144,66693,2,0,P|64:184|40:228,1,120,0|0,0:0|1:0,0:0:0:0:
156,260,67335,5,0,0:0:0:0:
260,208,67656,1,0,1:0:0:0:
372,160,67977,2,0,L|440:148,2,60,0|0|0,0:0|0:0|1:0,0:0:0:0:
356,280,68619,1,0,0:0:0:0:
260,208,68940,1,0,1:0:0:0:
160,140,69261,2,0,L|92:128,2,60,0|0|0,0:0|0:0|1:0,0:0:0:0:
204,100,69742,1,0,0:0:0:0:
248,56,69902,6,0,P|316:8|376:0,1,120,0|0,0:0|1:0,0:0:0:0:
408,12,70383,1,0,0:0:0:0:
460,40,70544,2,0,P|488:100|488:172,1,120,0|0,0:0|1:0,0:0:0:0:
484,212,71025,1,0,0:0:0:0:
428,232,71185,1,0,0:0:0:0:
364,132,71506,1,0,1:0:0:0:
308,236,71827,2,0,B|248:256|248:256|184:244,1,120,0|0,0:0|1:0,0:0:0:0:
240,136,72469,6,0,L|100:104,1,120,0|0,0:0|1:0,0:0:0:0:
68,88,72950,1,0,0:0:0:0:
20,124,73110,2,0,P|8:156|12:208,2,60,0|0|0,0:0|0:0|1:0,0:0:0:0:
124,60,73752,2,0,L|264:28,1,120,0|0,0:0|1:0,0:0:0:0:
296,12,74233,1,0,0:0:0:0:
344,48,74394,2,0,P|356:80|352:132,2,60,0|0|0,0:0|0:0|1:0,0:0:0:0:
456,88,75036,6,0,P|436:172|392:200,1,120,0|0,0:0|1:0,0:0:0:0:
292,176,75677,2,0,L|164:196,1,120,0|0,0:0|1:0,0:0:0:0:
56,220,76319,1,0,0:0:0:0:
96,108,76640,1,0,1:0:0:0:
173,194,76961,1,0,0:0:0:0:
260,276,77282,1,0,1:0:0:0:
360,212,77602,6,0,P|416:192|484:208,1,120,0|0,0:0|1:0,0:0:0:0:
428,312,78244,2,0,L|436:372,2,60,0|0|0,0:0|0:0|1:0,0:0:0:0:
320,364,78886,2,0,P|264:384|196:368,1,120,0|0,0:0|1:0,0:0:0:0:
260,264,79528,2,0,L|252:204,2,60,0|0|0,0:0|0:0|1:0,0:0:0:0:
140,288,80169,6,0,L|124:152,1,120,0|0,0:0|1:0,0:0:0:0:
116,108,80651,1,0,0:0:0:0:
108,48,80811,2,0,B|164:28|164:28|256:24,1,120,0|4,0:0|1:2,0:0:0:0:
312,108,81453,2,0,L|432:84,2,120,0|0|0,0:0|1:0|1:0,0:0:0:0:
252,216,82415,1,0,0:0:0:0:
140,172,82736,6,0,L|136:96,1,60,0|0,0:0|0:0,0:0:0:0:
84,88,83057,2,0,L|80:8,1,60,0|0,0:0|1:0,0:0:0:0:
200,28,83538,1,0,0:0:0:0:
260,24,83699,2,0,L|332:20,1,60,0|0,0:0|0:0,0:0:0:0:
340,76,84020,2,0,L|424:72,1,60,0|0,0:0|1:0,0:0:0:0:
496,144,84501,1,0,0:0:0:0:
484,200,84661,2,0,L|472:284,1,60,0|0,0:0|1:0,0:0:0:0:
416,264,84982,2,0,L|404:348,1,60,0|0,1:0|1:0,0:0:0:0:
348,332,85303,6,0,P|296:364|232:352,1,120
184,332,85784,1,0,1:0:0:0:
100,244,86105,1,0,0:0:0:0:
96,184,86266,2,0,L|88:104,1,60,0|0,0:0|0:0,0:0:0:0:
148,116,86586,2,0,L|140:44,1,60,0|0,0:0|1:0,0:0:0:0:
260,68,87068,1,0,0:0:0:0:
320,60,87228,2,0,L|408:48,1,60,0|0,1:0|1:0,0:0:0:0:
416,100,87549,2,0,L|504:88,1,60,0|0,1:0|1:0,0:0:0:0:
