osu file format v14

[General]
AudioFilename: audio.mp3
AudioLeadIn: 0
PreviewTime: 55828
Countdown: 0
SampleSet: None
StackLeniency: 0.7
Mode: 0
LetterboxInBreaks: 0
WidescreenStoryboard: 0

[Editor]
Bookmarks: 61245,87578
DistanceSpacing: 1
BeatDivisor: 4
GridSize: 16
TimelineZoom: 3.599999

[Metadata]
Title:back into my world(TV size)
TitleUnicode:back into my world(TV size)
Artist:Sweety
ArtistUnicode:Sweety
Creator:Livia
Version:Four Leaves
Source:戦国コレクション
Tags:anime op
BeatmapID:1707091
BeatmapSetID:813956

[Difficulty]
HPDrainRate:6
CircleSize:4
OverallDifficulty:8
ApproachRate:9.5
SliderMultiplier:1.9
SliderTickRate:1

[Events]
//Background and Video events
0,0,"68826693_p0_master1200.jpg",0,0
//Break Periods
//Storyboard Layer 0 (Background)
//Storyboard Layer 1 (Fail)
//Storyboard Layer 2 (Pass)
//Storyboard Layer 3 (Foreground)
//Storyboard Sound Samples

[TimingPoints]
579,333.333333333333,4,1,0,60,1,0
579,-100,4,1,0,60,0,0
2912,-200,4,1,0,60,0,0
3412,-100,4,1,0,60,0,0
3912,-133.333333333333,4,1,0,60,0,0
6233,-80,4,1,0,60,0,0
7729,-133.333333333333,4,1,0,60,0,0
10224,-100,4,1,0,60,0,0
11388,-133.333333333333,4,1,0,60,0,0
11720,-100,4,1,0,60,0,0
14381,-200,4,1,0,60,0,0
15545,-100,4,1,0,60,0,0
15878,-133.333333333333,4,1,0,60,0,0
16543,-100,4,1,0,60,0,0
18539,-133.333333333333,4,1,0,60,0,0
19703,-100,4,1,0,60,0,0
22363,-133.333333333333,4,1,0,60,0,0
23912,-100,4,1,0,60,0,0
25856,-100,4,1,0,60,0,0
28184,-100,4,1,0,60,0,0
29182,-80,4,1,0,60,0,0
29680,-133.333333333333,4,1,0,60,0,0
30346,-100,4,1,0,60,0,0
33006,-80,4,1,0,60,0,0
33339,-133.333333333333,4,1,0,60,0,0
33672,-200,4,1,0,60,0,0
34171,-100,4,1,0,60,0,0
39825,-80,4,1,0,60,0,0
40324,-100,4,1,0,60,0,0
40989,-133.333333333333,4,1,0,60,0,0
41654,-133.333333333333,4,1,0,60,0,0
48412,-80,4,1,0,60,0,0
48745,-66.6666666666667,4,1,0,60,0,0
49078,-100,4,1,0,60,0,0
54412,-80,4,1,0,60,0,0
55912,-80,4,1,0,60,0,1
58245,-100,4,1,0,60,0,1
58578,-80,4,1,0,60,0,1
59912,-100,4,1,0,60,0,1
60245,-80,4,1,0,60,0,1
61245,-100,4,1,0,60,0,1
62245,-80,4,1,0,60,0,1
65078,-133.333333333333,4,1,0,60,0,1
65412,-80,4,1,0,60,0,1
71912,-100,4,1,0,60,0,1
73745,-133.333333333333,4,1,0,60,0,1
74078,-100,4,1,0,60,0,1
74412,-80,4,1,0,60,0,1
76912,-66.6666666666667,4,1,0,60,0,1
77245,-133.333333333333,4,1,0,60,0,1
77412,-66.6666666666667,4,1,0,60,0,1
77745,-133.333333333333,4,1,0,60,0,1
77912,-66.6666666666667,4,1,0,60,0,1
78245,-133.333333333333,4,1,0,60,0,1
78412,-66.6666666666667,4,1,0,60,0,1
78745,-133.333333333333,4,1,0,60,0,1
78912,-66.6666666666667,4,1,0,60,0,1
84745,-80,4,1,0,60,0,1
85578,-100,4,1,0,60,0,1
86078,-80,4,1,0,60,0,1
86912,-66.6666666666667,4,1,0,60,0,1
87578,-66.6666666666667,4,1,0,60,0,0

[HitObjects]
311,121,579,5,0,0:0:0:0:
448,63,745,1,0,0:0:0:0:
446,86,829,1,0,0:0:0:0:
445,110,912,1,0,0:0:0:0:
443,134,995,1,0,0:0:0:0:
442,157,1079,1,0,0:0:0:0:
440,181,1162,1,0,0:0:0:0:
439,205,1245,5,0,0:0:0:0:
311,121,1412,1,0,0:0:0:0:
135,226,1579,1,0,0:0:0:0:
306,340,1745,2,0,L|296:233,1,95
232,47,2079,1,0,0:0:0:0:
135,226,2245,1,0,0:0:0:0:
0,137,2412,2,0,P|51:118|101:137,1,95
135,226,2745,1,0,0:0:0:0:
224,141,2912,2,0,L|233:33,1,95
262,25,3412,5,0,0:0:0:0:
264,56,3495,1,0,0:0:0:0:
267,88,3579,1,0,0:0:0:0:
269,119,3662,1,0,0:0:0:0:
272,151,3745,1,0,0:0:0:0:
275,182,3829,1,0,0:0:0:0:
277,214,3912,6,0,P|228:317|98:235,1,285.000010871888
96,106,4745,1,0,0:0:0:0:
189,238,4912,1,0,0:0:0:0:
311,123,5078,2,0,L|397:126,1,71.2500027179719
512,224,5412,2,0,L|426:227,1,71.2500027179719
290,306,5745,2,0,L|286:356,2,35.625001358986
354,203,6078,1,0,0:0:0:0:
402,316,6245,2,0,P|337:326|264:277,1,118.75
116,148,6578,6,0,P|206:182|164:262,1,178.125
168,258,6912,1,0,0:0:0:0:
15,226,7078,1,0,0:0:0:0:
437,74,7412,1,0,0:0:0:0:
163,329,7745,2,0,L|169:232,1,71.2500027179719
229,114,8078,1,0,0:0:0:0:
292,282,8245,1,0,0:0:0:0:
15,226,8412,1,0,0:0:0:0:
437,160,8745,1,0,0:0:0:0:
256,49,8912,5,0,0:0:0:0:
238,79,8995,1,0,0:0:0:0:
229,114,9079,1,0,0:0:0:0:
229,149,9162,1,0,0:0:0:0:
239,183,9245,2,0,L|331:188,1,71.2500027179719
437,160,9579,1,0,0:0:0:0:
340,105,9745,5,0,0:0:0:0:
340,105,9829,1,0,0:0:0:0:
340,105,9912,1,0,0:0:0:0:
367,306,10079,1,0,0:0:0:0:
410,58,10245,2,0,P|353:18|271:46,1,142.5
270,54,10579,5,0,0:0:0:0:
329,199,10745,1,0,0:0:0:0:
201,328,10912,2,0,L|193:215,1,95
55,272,11245,1,0,0:0:0:0:
372,305,11412,2,0,L|461:298,1,71.2500027179719
181,169,11745,2,0,B|106:168|106:168|52:185|52:185|-43:182,1,190
117,32,12245,5,0,0:0:0:0:
55,272,12412,1,0,0:0:0:0:
245,60,12579,1,0,0:0:0:0:
247,331,12745,1,0,0:0:0:0:
375,53,12912,1,0,0:0:0:0:
456,342,13079,1,0,0:0:0:0:
149,218,13245,6,0,L|159:110,1,95
245,60,13579,1,0,0:0:0:0:
226,266,13745,2,0,P|194:300|127:303,1,95
86,84,14079,2,0,P|118:50|185:47,1,95
381,162,14412,5,0,0:0:0:0:
380,173,14495,1,0,0:0:0:0:
379,185,14579,1,0,0:0:0:0:
326,294,14745,1,0,0:0:0:0:
267,155,14912,1,0,0:0:0:0:
229,247,15079,1,0,0:0:0:0:
155,165,15245,5,0,0:0:0:0:
137,181,15329,1,0,0:0:0:0:
125,201,15412,1,0,0:0:0:0:
117,223,15495,1,0,0:0:0:0:
114,247,15579,2,0,L|128:347,1,95
226,381,15912,6,0,L|216:315,1,35.625001358986
229,247,16079,1,0,0:0:0:0:
229,247,16162,1,0,0:0:0:0:
229,247,16245,2,0,P|275:220|345:245,1,106.875004076958
380,313,16578,1,0,0:0:0:0:
316,128,16745,1,0,0:0:0:0:
460,0,16912,1,0,0:0:0:0:
512,188,17078,6,0,P|463:201|407:183,1,95
212,23,17412,1,0,0:0:0:0:
143,294,17578,1,0,0:0:0:0:
325,195,17745,1,0,0:0:0:0:
325,195,17828,1,0,0:0:0:0:
325,195,17912,2,0,L|442:190,1,95
252,107,18245,1,0,0:0:0:0:
230,289,18412,1,0,0:0:0:0:
13,204,18578,6,0,P|64:179|101:184,1,71.2500027179719
252,107,18912,2,0,P|201:82|164:87,1,71.2500027179719
155,85,19162,1,0,0:0:0:0:
137,111,19245,2,0,L|132:193,1,71.2500027179719
171,336,19578,1,0,0:0:0:0:
377,281,19745,2,0,P|332:261|273:267,1,95
171,336,20078,1,0,0:0:0:0:
315,349,20245,6,0,P|325:301|296:241,1,95
293,243,20495,1,0,0:0:0:0:
270,236,20578,1,0,0:0:0:0:
171,336,20745,1,0,0:0:0:0:
404,276,20912,1,0,0:0:0:0:
232,114,21078,1,0,0:0:0:0:
271,374,21245,5,0,0:0:0:0:
466,169,21412,1,0,0:0:0:0:
466,169,21495,1,0,0:0:0:0:
466,169,21578,1,0,0:0:0:0:
188,235,21745,2,0,L|88:226,1,95
0,134,22078,1,0,0:0:0:0:
35,324,22245,1,0,0:0:0:0:
150,135,22412,6,0,B|160:107|160:107|155:36,1,71.2500027179719
155,46,22662,1,0,0:0:0:0:
153,27,22745,1,0,0:0:0:0:
71,181,22912,2,0,L|79:268,1,71.2500027179719
144,364,23245,5,0,0:0:0:0:
164,221,23412,1,0,0:0:0:0:
299,352,23578,1,0,0:0:0:0:
275,164,23745,1,0,0:0:0:0:
463,312,23912,6,0,P|416:315|370:274,1,95
366,180,24245,2,0,P|392:219|380:279,1,95
379,289,24495,1,0,0:0:0:0:
368,311,24578,2,0,B|303:315|303:315|265:295,1,95
69,211,24912,2,0,B|134:207|134:207|172:227,1,95
124,380,25245,6,0,P|105:331|123:268,1,95
355,238,25578,2,0,P|322:278|258:294,1,95
259,295,25828,1,0,0:0:0:0:
234,291,25912,2,0,B|230:226|230:226|250:188,1,95
394,61,26245,2,0,B|386:125|386:125|360:159,1,95
228,237,26578,6,0,P|279:212|328:225,1,95
355,238,26828,1,0,0:0:0:0:
355,238,26912,2,0,P|348:191|371:146,1,95
512,75,27245,1,0,0:0:0:0:
434,204,27412,1,0,0:0:0:0:
458,319,27578,1,0,0:0:0:0:
308,278,27745,2,0,L|208:286,1,95
88,359,28078,5,0,0:0:0:0:
88,359,28162,1,0,0:0:0:0:
88,359,28245,2,0,P|115:311|101:239,1,95
0,112,28578,1,0,0:0:0:0:
35,291,28745,1,0,0:0:0:0:
173,99,28912,2,0,B|183:35|183:35|163:-15,1,95
126,189,29245,6,0,B|169:217|224:197|199:193|252:170|310:200,1,178.125
319,209,29578,1,0,0:0:0:0:
103,290,29745,2,0,P|67:299|18:278,1,71.2500027179719
173,99,30078,1,0,0:0:0:0:
252,356,30245,1,0,0:0:0:0:
442,260,30412,6,0,P|390:237|323:254,1,95
339,249,30662,1,0,0:0:0:0:
329,262,30745,1,0,0:0:0:0:
376,356,30912,1,0,0:0:0:0:
411,192,31078,2,0,L|403:107,2,47.5
329,262,31412,1,0,0:0:0:0:
145,188,31578,2,0,P|188:165|261:188,1,95
201,306,31912,6,0,B|207:277|201:241|201:241|206:264|222:283,1,95
46,275,32245,1,0,0:0:0:0:
289,235,32412,1,0,0:0:0:0:
289,235,32495,1,0,0:0:0:0:
289,235,32578,2,0,P|312:279|306:344,1,95
452,201,32912,1,0,0:0:0:0:
388,24,33079,6,0,L|374:175,1,118.75
282,164,33412,2,0,L|291:264,1,71.2500027179719
354,345,33745,2,0,L|360:278,1,47.5
425,192,34079,1,0,0:0:0:0:
272,315,34245,2,0,P|226:319|176:279,1,95
114,94,34579,6,0,P|140:131|130:195,1,95
0,338,34912,2,0,B|-5:275|-5:275|25:222,1,95
82,300,35162,1,0,0:0:0:0:
82,300,35245,2,0,P|127:316|176:301,1,95
255,209,35579,1,0,0:0:0:0:
193,22,35745,6,0,L|189:149,1,95
182,141,35995,1,0,0:0:0:0:
174,163,36079,1,0,0:0:0:0:
37,80,36245,1,0,0:0:0:0:
279,121,36412,2,0,B|318:139|318:139|392:132,1,95
416,4,36745,1,0,0:0:0:0:
342,218,36912,2,0,L|337:325,1,95
405,161,37245,6,0,P|359:134|299:146,1,95
230,339,37579,1,0,0:0:0:0:
342,218,37745,1,0,0:0:0:0:
181,181,37912,1,0,0:0:0:0:
320,311,38079,1,0,0:0:0:0:
272,153,38245,1,0,0:0:0:0:
160,274,38412,1,0,0:0:0:0:
160,274,38495,1,0,0:0:0:0:
160,274,38579,2,0,P|212:271|262:232,1,95
233,1,38912,5,0,0:0:0:0:
272,153,39079,1,0,0:0:0:0:
385,47,39245,2,0,P|335:46|282:93,1,95
272,322,39579,2,0,P|297:279|283:210,1,95
145,187,39912,6,0,B|100:184|100:184|65:197|65:197|9:193,1,118.75
9,196,40162,1,0,0:0:0:0:
9,196,40245,1,0,0:0:0:0:
384,120,40412,2,0,L|506:129,1,95
272,322,40745,5,0,0:0:0:0:
235,178,40912,1,0,0:0:0:0:
378,258,41079,2,0,B|389:313|389:313|381:358,2,71.2500027179719
272,322,41579,1,0,0:0:0:0:
347,179,41745,2,0,P|387:172|429:187,1,71.2500027179719
382,352,42079,1,0,0:0:0:0:
258,219,42245,1,0,0:0:0:0:
112,352,42412,6,0,B|128:293|128:293|117:195,1,142.500005435944
36,62,42912,1,0,0:0:0:0:
9,183,43079,1,0,0:0:0:0:
244,47,43245,1,0,0:0:0:0:
250,315,43412,1,0,0:0:0:0:
158,231,43579,1,0,0:0:0:0:
440,294,43745,6,0,L|533:283,1,71.2500027179719
357,88,44079,1,0,0:0:0:0:
250,348,44245,1,0,0:0:0:0:
98,37,44412,1,0,0:0:0:0:
167,276,45245,6,0,B|200:242|189:193|189:193|195:228|236:252,1,142.500005435944
269,175,45745,1,0,0:0:0:0:
69,168,45912,2,0,P|92:207|139:223,1,71.2500027179719
335,161,46245,2,0,P|289:161|252:194,1,71.2500027179719
231,313,46578,6,0,B|243:267|291:252|291:252|258:264|217:241,1,142.500005435944
268,174,47078,1,0,0:0:0:0:
374,343,47245,2,0,P|328:342|291:309,1,71.2500027179719
247,110,47578,2,0,P|269:149|259:198,1,71.2500027179719
125,234,47912,6,0,L|34:230,1,71.2500027179719
187,173,48245,1,0,0:0:0:0:
187,173,48328,1,0,0:0:0:0:
187,173,48412,2,0,B|221:209|208:257|208:257|219:304,1,118.75
402,293,48745,2,0,P|356:242|280:278,1,142.500005435944
388,207,49078,6,0,B|386:152|386:152|400:107|400:107|400:57|400:57|373:123,1,190
290,212,49578,2,0,L|293:292,1,47.5
339,313,49745,1,0,0:0:0:0:
339,313,49828,1,0,0:0:0:0:
339,313,49912,2,0,P|288:298|239:326,1,95
61,355,50245,2,0,P|104:370|148:355,1,95
196,236,50495,1,0,0:0:0:0:
196,236,50578,6,0,L|188:124,1,95
37,23,50912,2,0,L|30:117,1,95
103,292,51245,1,0,0:0:0:0:
189,141,51412,1,0,0:0:0:0:
170,346,51578,2,0,P|132:372|52:362,1,95
61,367,51828,1,0,0:0:0:0:
42,352,51912,5,0,0:0:0:0:
189,160,52078,1,0,0:0:0:0:
344,319,52245,2,0,L|460:312,1,95
463,313,52495,1,0,0:0:0:0:
487,313,52578,5,0,0:0:0:0:
354,149,52745,1,0,0:0:0:0:
283,378,52912,1,0,0:0:0:0:
54,307,53078,1,0,0:0:0:0:
125,78,53245,5,0,0:0:0:0:
237,284,53412,1,0,0:0:0:0:
176,225,53578,2,0,B|222:203|222:203|295:212,1,95
253,0,53912,5,0,0:0:0:0:
237,284,54079,1,0,0:0:0:0:
215,159,54245,1,0,0:0:0:0:
512,261,54412,6,0,B|466:283|466:283|380:271,1,118.75
248,24,54745,1,0,0:0:0:0:
453,202,54912,1,0,0:0:0:0:
33,127,55078,1,0,0:0:0:0:
286,296,55912,6,0,B|292:245|292:245|276:168,1,118.75
44,251,56245,2,0,P|95:294|165:275,1,118.75
170,278,56495,1,0,0:0:0:0:
191,258,56578,1,0,0:0:0:0:
159,61,56745,1,0,0:0:0:0:
115,213,56912,2,0,L|124:332,1,118.75
201,188,57245,6,0,P|172:141|83:133,1,118.75
123,351,57578,2,0,B|185:362|185:362|281:344,1,118.75
267,346,57828,1,0,0:0:0:0:
296,340,57912,1,0,0:0:0:0:
196,217,58078,1,0,0:0:0:0:
371,50,58245,2,0,B|380:99|380:99|367:152,1,95
325,274,58578,6,0,P|403:230|476:300,1,178.125
476,305,58912,2,0,P|490:248|457:191,1,118.75
435,189,59162,1,0,0:0:0:0:
406,188,59245,1,0,0:0:0:0:
173,320,59412,1,0,0:0:0:0:
491,249,59578,2,0,P|518:198|499:140,1,118.75
313,40,59912,6,0,B|298:96|331:139|331:139|316:165|321:201,1,142.5
372,294,60245,2,0,P|327:258|247:273,1,118.75
247,281,60495,1,0,0:0:0:0:
230,305,60578,1,0,0:0:0:0:
404,189,60745,1,0,0:0:0:0:
72,79,60912,2,0,B|59:139|59:139|78:216,1,118.75
138,382,61245,6,0,B|151:322|151:322|132:245,1,118.75
337,350,61578,2,0,P|389:361|434:336,1,95
438,325,61828,1,0,0:0:0:0:
448,304,61912,1,0,0:0:0:0:
233,252,62078,1,0,0:0:0:0:
376,171,62245,2,0,B|396:104|356:116|381:39,1,118.75
504,23,62578,2,0,P|476:72|414:75,1,118.75
397,68,62828,1,0,0:0:0:0:
377,55,62912,5,0,0:0:0:0:
483,117,63078,1,0,0:0:0:0:
305,143,63245,1,0,0:0:0:0:
512,268,63412,2,0,P|477:226|406:225,1,118.75
273,311,63745,1,0,0:0:0:0:
80,207,63912,5,0,0:0:0:0:
274,285,64078,1,0,0:0:0:0:
343,0,64245,2,0,P|294:46|306:128,1,118.75
299,120,64495,1,0,0:0:0:0:
309,144,64578,1,0,0:0:0:0:
511,253,64745,1,0,0:0:0:0:
372,79,64912,1,0,0:0:0:0:
225,334,65078,6,0,B|220:303|220:303|232:241,1,71.2500027179719
408,162,65412,2,0,L|399:225,1,59.375
316,368,65578,2,0,L|307:305,1,59.375
212,100,65745,2,0,L|203:162,1,59.375
92,348,65912,5,0,0:0:0:0:
36,327,65995,1,0,0:0:0:0:
25,269,66078,1,0,0:0:0:0:
71,231,66162,1,0,0:0:0:0:
127,251,66245,1,0,0:0:0:0:
161,278,66328,1,0,0:0:0:0:
204,289,66411,1,0,0:0:0:0:
248,284,66494,1,0,0:0:0:0:
286,261,66578,6,0,P|321:215|311:150,1,118.75
105,12,66912,2,0,B|88:87|88:87|97:146,1,118.75
106,155,67162,1,0,0:0:0:0:
120,180,67245,1,0,0:0:0:0:
336,17,67412,1,0,0:0:0:0:
159,265,67578,2,0,P|99:272|43:230,1,118.75
232,78,67912,6,0,B|245:163|245:163|237:213,1,118.75
59,359,68245,2,0,B|46:274|46:274|54:224,1,118.75
59,215,68495,1,0,0:0:0:0:
72,191,68578,1,0,0:0:0:0:
360,211,68745,1,0,0:0:0:0:
159,265,68912,1,0,0:0:0:0:
277,335,69079,1,0,0:0:0:0:
419,220,69245,6,0,L|351:210,1,59.375
233,264,69412,1,0,0:0:0:0:
233,264,69495,1,0,0:0:0:0:
233,264,69578,1,0,0:0:0:0:
512,193,69745,1,0,0:0:0:0:
55,106,70078,1,0,0:0:0:0:
424,0,70412,2,0,B|448:47|430:89|430:89|406:110|404:150|404:150|440:188|427:255,1,237.5
227,360,70912,6,0,P|219:330|225:281,1,59.375
341,214,71078,2,0,B|348:267|325:308|325:308|290:327,1,118.75
8,158,71412,2,0,P|40:143|79:142,1,59.375
190,172,71578,1,0,0:0:0:0:
189,201,71661,1,0,0:0:0:0:
188,231,71744,1,0,0:0:0:0:
187,261,71827,1,0,0:0:0:0:
167,299,71912,6,0,P|208:272|260:281,1,95
433,204,72245,2,0,B|392:219|392:219|306:210,1,95
317,212,72495,1,0,0:0:0:0:
293,211,72578,1,0,0:0:0:0:
376,54,72745,1,0,0:0:0:0:
433,204,72912,2,0,L|429:303,1,95
415,318,73162,1,0,0:0:0:0:
401,337,73245,6,0,B|384:300|384:300|387:236,1,95
512,82,73578,1,0,0:0:0:0:
476,284,73745,2,0,L|396:280,1,71.2500027179719
51,201,74078,2,0,L|155:195,1,95
512,82,74412,2,0,B|447:67|402:105|402:105|396:95|396:95|350:144|261:105,1,237.5
327,22,74912,5,0,0:0:0:0:
476,171,75078,1,0,0:0:0:0:
234,49,75245,5,0,0:0:0:0:
340,277,75411,1,0,0:0:0:0:
137,42,75578,5,0,0:0:0:0:
163,343,75744,1,0,0:0:0:0:
48,2,75911,5,0,0:0:0:0:
240,55,76078,1,0,0:0:0:0:
240,55,76162,1,0,0:0:0:0:
240,55,76245,1,0,0:0:0:0:
67,145,76412,2,0,L|-38:138,2,59.375
271,236,76745,1,0,0:0:0:0:
300,234,76828,1,0,0:0:0:0:
333,233,76912,2,0,P|364:172|329:85,1,142.500005435944
456,5,77245,6,0,L|446:70,1,35.625001358986
486,197,77412,2,0,P|438:156|360:175,1,142.500005435944
314,302,77745,6,0,L|315:243,1,35.625001358986
266,37,77912,2,0,B|236:61|223:100|239:142|239:142|272:175,1,142.500005435944
418,232,78245,6,0,L|474:231,1,35.625001358986
260,159,78412,2,0,B|222:143|176:161|194:176|144:192|95:174,1,142.500005435944
38,80,78745,6,0,L|44:127,1,35.625001358986
197,306,78912,2,0,B|206:262|206:262|191:159,1,142.500005435944
89,261,79245,5,0,0:0:0:0:
430,131,79412,1,0,0:0:0:0:
430,131,79495,1,0,0:0:0:0:
430,131,79578,2,0,P|368:88|283:135,1,142.500005435944
302,340,79912,5,0,0:0:0:0:
224,79,80078,1,0,0:0:0:0:
358,165,80245,1,0,0:0:0:0:
184,255,80412,5,0,0:0:0:0:
224,79,80578,1,0,0:0:0:0:
297,221,80745,1,0,0:0:0:0:
38,279,80912,5,0,0:0:0:0:
224,79,81078,1,0,0:0:0:0:
216,239,81245,1,0,0:0:0:0:
53,132,81412,5,0,0:0:0:0:
224,79,81578,1,0,0:0:0:0:
137,213,81745,1,0,0:0:0:0:
32,45,81912,5,0,0:0:0:0:
32,62,81995,1,0,0:0:0:0:
32,80,82078,1,0,0:0:0:0:
31,97,82161,1,0,0:0:0:0:
53,132,82245,2,0,P|125:147|189:116,1,142.500005435944
362,14,82578,6,0,P|336:52|341:116,1,71.2500027179719
427,261,82745,2,0,B|431:225|431:225|416:182,1,71.2500027179719
337,209,82912,2,0,B|348:242|348:242|344:278,1,71.2500027179719
80,295,83078,6,0,P|118:269|182:274,1,71.2500027179719
327,360,83245,2,0,B|291:364|291:364|248:349,1,71.2500027179719
275,270,83412,2,0,B|308:281|308:281|344:277,1,71.2500027179719
210,23,83578,6,0,P|184:61|189:125,1,71.2500027179719
275,270,83745,2,0,B|279:234|279:234|264:191,1,71.2500027179719
185,218,83912,2,0,B|196:251|196:251|192:287,1,71.2500027179719
0,246,84078,6,0,L|104:252,1,71.2500027179719
179,113,84245,2,0,L|283:107,1,71.2500027179719
429,287,84412,2,0,L|357:282,1,71.2500027179719
267,200,84578,1,0,0:0:0:0:
402,13,84745,2,0,B|413:51|392:85|392:85|398:96|398:96|380:132|402:182|402:182|412:145|438:129,1,237.5
501,206,85245,5,0,0:0:0:0:
297,31,85412,1,0,0:0:0:0:
115,235,85578,2,0,L|124:339,1,95
199,142,85912,1,0,0:0:0:0:
115,235,86078,2,0,L|49:240,1,59.375
229,278,86245,2,0,L|295:283,1,59.375
174,61,86412,2,0,P|114:147|167:220,1,178.125
288,282,86745,5,0,0:0:0:0:
317,279,86828,1,0,0:0:0:0:
347,277,86912,2,0,B|406:275|452:254|481:175|401:136|401:136|334:195|387:257|429:237|458:265|450:336|450:336|470:266|539:245,1,570.000021743775
