osu file format v14

[General]
AudioFilename: audio.mp3
AudioLeadIn: 0
PreviewTime: 141696
Countdown: 0
SampleSet: Normal
StackLeniency: 0.7
Mode: 1
LetterboxInBreaks: 0
WidescreenStoryboard: 1

[Editor]
Bookmarks: 40855,73124,97326,141696,173965,206233,238502,286916,335319,364552,378166
DistanceSpacing: 1
BeatDivisor: 4
GridSize: 32
TimelineZoom: 1.5

[Metadata]
Title:Noise Is a Social Skill (V.0.8)
TitleUnicode:Noise Is a Social Skill (V.0.8)
Artist:Sweet Trip
ArtistUnicode:Sweet Trip
Creator:Reverie
Version:You and I
Source:
Tags:sukijames renumi ralsei hewwo little darla has a treat for you DRL-143 DRL351-3 shoegaze electronic folktronica experimental indie pop rock glitch idm english marathon
BeatmapID:3912725
BeatmapSetID:1898374

[Difficulty]
HPDrainRate:6
CircleSize:3.6
OverallDifficulty:4
ApproachRate:8.4
SliderMultiplier:1.4
SliderTickRate:1

[Events]
//Background and Video events
0,0,"Noise is a Social Skill.png",0,0
//Break Periods
//Storyboard Layer 0 (Background)
//Storyboard Layer 1 (Fail)
//Storyboard Layer 2 (Pass)
//Storyboard Layer 3 (Foreground)
//Storyboard Layer 4 (Overlay)
//Storyboard Sound Samples

[TimingPoints]
251,555.555555555556,4,1,0,50,1,0
251,-84.0336134453781,4,1,0,50,0,8
806,504.201680672269,4,1,0,50,1,8
806,-90.9090909090909,4,1,0,50,0,8
2318,504.201680672269,4,1,0,50,1,0
2318,-90.9090909090909,4,1,0,50,0,0
6603,458.015267175573,4,1,0,65,1,8
6603,-99.5743386215174,4,1,0,65,0,0
6832,501.672240802676,4,1,0,65,1,8
6832,-90.9090909090909,4,1,0,65,0,0
7082,501.672240802676,4,1,0,65,1,8
7082,-90.9090909090909,4,1,0,65,0,0
7583,-90.9090909090909,4,1,0,75,0,0
8587,504.201680672269,4,1,0,60,1,0
8587,-90.9090909090909,4,1,0,60,0,0
72368,-95.2380952380952,4,1,0,60,0,0
72620,-100,4,1,0,60,0,0
72872,-105.263157894737,4,1,0,60,0,0
73124,-111.111111111111,4,1,0,50,0,0
80939,-90.9090909090909,4,1,0,60,0,0
112200,-111.111111111111,4,1,0,55,0,0
112452,-104.166666666667,4,1,0,50,0,0
112704,-98.0392156862745,4,1,0,55,0,0
112956,-92.5925925925926,4,1,0,60,0,0
113208,-87.719298245614,4,1,0,65,0,0
113460,-83.3333333333333,4,1,0,70,0,0
113965,-90.9090909090909,4,1,0,60,0,0
131612,-90.9090909090909,4,1,0,55,0,0
132116,-92.5214881156149,4,1,0,55,0,0
132620,-94.1921142361961,4,1,0,55,0,0
132872,-95.0502578238243,4,1,0,55,0,0
133124,-95.9242735414954,4,1,0,55,0,0
133629,-97.721238440799,4,1,0,50,0,0
134133,-99.5868143074384,4,1,0,50,0,0
134637,-101.525007132132,4,1,0,50,0,0
134889,-102.522672889109,4,1,0,50,0,0
135141,-103.540140959548,4,1,0,50,0,0
135645,-105.63689009221,4,1,0,45,0,0
136150,-107.820431540495,4,1,0,40,0,0
136654,-110.096025753662,4,1,0,40,0,0
136906,-111.270227536488,4,1,0,40,0,0
137158,-112.469745638423,4,1,0,40,0,0
137662,-114.948077953189,4,1,0,40,0,0
138166,-117.538094096297,4,1,0,40,0,0
138671,-120.247517490001,4,1,0,40,0,0
138923,-121.649617472778,4,1,0,40,0,0
139175,-123.084952003023,4,1,0,40,0,0
139678,-124.90713,4,1,0,40,0,0
140182,-111.04587,4,1,0,45,0,0
140686,-99.95376,4,1,0,50,0,0
140938,-95.199135,4,1,0,60,0,0
141191,-90.859955,4,1,0,70,0,0
141696,-90.9090909090909,4,1,0,50,0,0
171696,557.620817843866,4,1,0,65,1,0
171696,-83.3333333333333,4,1,0,65,0,0
173090,444.444444444444,4,1,0,65,1,8
173756,419.58041958042,4,1,0,65,1,8
173965,504.201680672269,4,1,0,60,1,0
173965,-83.3333333333333,4,1,0,60,0,0
206233,-80,4,1,0,70,0,0
238502,-76.9230769230769,4,1,0,80,0,1
286149,-76.9230769230769,4,1,0,85,0,1
286401,515.021459227468,4,1,0,85,1,9
286401,-75.3070456518842,4,1,0,85,0,1
286916,504.201680672269,4,1,0,90,1,1
286916,-76.9230769230769,4,1,0,90,0,1
335319,495.458298926507,4,1,0,70,1,0
335319,-81.4117646675709,4,1,0,70,0,0
335814,504.201680672269,4,1,0,70,1,8
335814,-80,4,1,0,70,0,0
337326,504.201680672269,4,1,0,70,1,0
337326,-80,4,1,0,70,0,0
337578,-80,4,1,0,65,0,0
340351,-80,4,1,0,60,0,0
340603,-80.3651147895117,4,1,0,60,0,0
340855,-80.7335775793167,4,1,0,60,0,0
341107,-81.1053688509965,4,1,0,60,0,0
341611,-81.8594538664676,4,1,0,60,0,0
341863,-82.2417793173439,4,1,0,60,0,0
342620,-83.3333333333333,4,1,0,55,0,0
342872,-83.8074038812885,4,1,0,55,0,0
343124,-84.2081862146147,4,1,0,55,0,0
343376,-84.6128201960648,4,1,0,55,0,0
343880,-85.4338673519602,4,1,0,55,0,0
344384,-86.2709304061032,4,1,0,55,0,0
344636,-86.6956808211815,4,1,0,55,0,0
345141,-87.5578538519327,4,1,0,55,0,0
345393,-87.9953256882994,4,1,0,55,0,0
345645,-88.4372692340006,4,1,0,55,0,0
345897,-88.8836743799919,4,1,0,55,0,0
346149,-89.3346090315503,4,1,0,55,0,0
346401,-89.7901424789981,4,1,0,55,0,0
346653,-90.2503454331972,4,1,0,55,0,0
346905,-90.7152077695761,4,1,0,55,0,0
347410,-91.6596165144964,4,1,0,50,0,0
351947,-90.90909,4,1,0,45,0,0
352199,-91.51548,4,1,0,45,0,0
352452,-92.130005,4,1,0,45,0,0
352704,-92.752846,4,1,0,45,0,0
352956,-93.384155,4,1,0,45,0,0
353208,-94.02413,4,1,0,45,0,0
353712,-95.33075,4,1,0,45,0,0
353964,-96.00044,4,1,0,45,0,0
354216,-96.676895,4,1,0,45,0,0
354468,-97.36296,4,1,0,45,0,0
354720,-98.05882,4,1,0,40,0,0
354973,-98.76472,4,1,0,40,0,0
355225,-99.48085,4,1,0,40,0,0
355477,-100.20743,4,1,0,40,0,0
355981,-101.69292,4,1,0,40,0,0
356233,-102.45229,4,1,0,40,0,0
356485,-103.22619,4,1,0,40,0,0
356737,-104.00873,4,1,0,40,0,0
356989,-104.80322,4,1,0,40,0,0
357241,-105.609955,4,1,0,35,0,0
357494,-106.42919,4,1,0,35,0,0
357998,-108.10642,4,1,0,35,0,0
358502,-109.83734,4,1,0,35,0,0
358754,-110.723755,4,1,0,35,0,0
359006,-111.628204,4,1,0,35,0,0
359258,-112.543884,4,1,0,35,0,0
359510,-113.47471,4,1,0,35,0,0
360015,-115.38333,4,1,0,30,0,0
360519,-117.357254,4,1,0,30,0,0
360771,-118.36976,4,1,0,30,0,0
361023,-119.39989,4,1,0,30,0,0
361275,-120.44811,4,1,0,30,0,0
361527,-121.51916,4,1,0,30,0,0
361779,-122.60509,4,1,0,30,0,0
362031,-123.710594,4,1,0,25,0,0
362283,-124.836235,4,1,0,25,0,0
362536,-125.98253,4,1,0,25,0,0
362788,-127.15008,4,1,0,25,0,0
363040,-128.33948,4,1,0,25,0,0
363544,-130.78627,4,1,0,20,0,0
364048,-133.33333,4,1,0,20,0,0
368082,-200,4,1,0,15,0,0
370099,-228.571428571429,4,1,0,15,0,0
372115,-266.666666666667,4,1,0,10,0,0
374132,-317.460317460317,4,1,0,10,0,0
376149,-400,4,1,0,5,0,0

[HitObjects]
352,96,251,5,8,0:0:0:0:
160,96,528,1,0,0:0:0:0:
352,96,806,1,8,0:0:0:0:
352,96,1310,1,8,0:0:0:0:
352,96,1814,1,8,0:0:0:0:
352,96,2318,1,8,0:0:0:0:
352,96,2822,1,8,0:0:0:0:
352,96,3326,1,8,0:0:0:0:
160,96,3830,1,0,0:0:0:0:
160,96,3914,1,0,0:0:0:0:
352,96,4334,1,8,0:0:0:0:
160,96,4586,1,0,0:0:0:0:
160,96,4712,1,0,0:0:0:0:
352,96,4839,1,8,0:0:0:0:
352,96,5343,1,8,0:0:0:0:
352,96,5847,1,8,0:0:0:0:
160,96,5973,1,0,0:0:0:0:
352,96,6099,1,8,0:0:0:0:
160,96,6351,1,0,0:0:0:0:
352,96,6603,1,8,0:0:0:0:
160,96,6832,1,0,0:0:0:0:
352,96,7082,1,8,0:0:0:0:
160,96,7332,1,0,0:0:0:0:
352,288,7583,1,12,0:0:0:0:
160,288,7750,1,4,0:0:0:0:
352,288,7918,1,12,0:0:0:0:
352,288,8085,1,12,0:0:0:0:
352,96,8587,1,8,0:0:0:0:
160,96,8839,1,0,0:0:0:0:
352,96,9091,1,8,0:0:0:0:
352,96,9595,1,8,0:0:0:0:
160,96,9847,1,0,0:0:0:0:
352,96,10099,1,8,0:0:0:0:
352,96,10351,1,8,0:0:0:0:
352,96,11108,1,8,0:0:0:0:
352,96,11360,1,8,0:0:0:0:
160,288,11612,1,4,0:0:0:0:
160,288,11864,1,4,0:0:0:0:
352,288,12116,1,12,0:0:0:0:
352,96,12620,1,8,0:0:0:0:
160,96,13124,1,0,0:0:0:0:
352,96,13629,1,8,0:0:0:0:
160,96,13881,1,0,0:0:0:0:
352,96,14133,1,8,0:0:0:0:
352,96,14385,1,8,0:0:0:0:
352,96,14889,1,8,0:0:0:0:
160,96,15141,1,0,0:0:0:0:
352,288,15645,1,12,0:0:0:0:
352,288,15897,1,12,0:0:0:0:
160,288,16150,1,4,0:0:0:0:
352,96,16654,1,8,0:0:0:0:
352,96,16906,1,8,0:0:0:0:
160,96,17158,1,0,0:0:0:0:
160,96,17662,1,0,0:0:0:0:
160,96,17914,1,0,0:0:0:0:
352,96,18166,1,8,0:0:0:0:
352,96,18418,1,8,0:0:0:0:
160,96,18671,1,0,0:0:0:0:
352,96,18923,1,8,0:0:0:0:
160,96,19175,1,0,0:0:0:0:
160,96,19679,1,0,0:0:0:0:
352,96,19931,1,8,0:0:0:0:
160,96,20183,1,0,0:0:0:0:
160,96,20435,1,0,0:0:0:0:
160,96,20939,1,0,0:0:0:0:
352,96,21192,1,8,0:0:0:0:
352,96,21444,1,8,0:0:0:0:
160,288,21696,1,4,0:0:0:0:
160,288,21948,1,4,0:0:0:0:
352,96,22200,1,8,0:0:0:0:
352,96,22452,1,8,0:0:0:0:
352,288,22956,1,12,0:0:0:0:
160,96,23208,1,0,0:0:0:0:
352,96,23460,1,8,0:0:0:0:
160,288,23713,1,4,0:0:0:0:
160,288,23965,1,4,0:0:0:0:
352,288,24217,1,12,0:0:0:0:
352,96,24721,1,8,0:0:0:0:
160,96,24973,1,0,0:0:0:0:
352,96,25225,1,8,0:0:0:0:
160,96,25729,1,0,0:0:0:0:
160,96,25981,1,0,0:0:0:0:
352,288,26234,1,12,0:0:0:0:
352,96,26486,1,8,0:0:0:0:
160,288,26738,1,4,0:0:0:0:
352,96,27242,1,8,0:0:0:0:
160,96,27494,1,0,0:0:0:0:
352,96,27746,1,8,0:0:0:0:
352,96,27998,1,8,0:0:0:0:
160,288,28250,1,4,0:0:0:0:
352,96,28755,1,8,0:0:0:0:
160,96,29259,1,0,0:0:0:0:
160,288,29763,1,4,0:0:0:0:
160,288,30015,1,4,0:0:0:0:
352,96,30267,1,8,0:0:0:0:
352,96,30519,1,8,0:0:0:0:
160,288,30771,1,4,0:0:0:0:
352,96,31023,1,8,0:0:0:0:
352,288,31276,1,12,0:0:0:0:
160,288,31780,1,4,0:0:0:0:
160,288,32032,1,4,0:0:0:0:
352,288,32284,1,12,0:0:0:0:
352,96,32788,1,8,0:0:0:0:
160,96,33040,1,0,0:0:0:0:
160,96,33292,1,0,0:0:0:0:
160,96,33797,1,0,0:0:0:0:
160,96,34049,1,0,0:0:0:0:
352,96,34301,1,8,0:0:0:0:
352,96,34553,1,8,0:0:0:0:
160,96,34805,1,0,0:0:0:0:
352,96,35057,1,8,0:0:0:0:
160,96,35309,1,0,0:0:0:0:
352,96,36065,1,8,0:0:0:0:
160,96,36318,1,0,0:0:0:0:
352,96,36570,1,8,0:0:0:0:
160,96,36822,1,0,0:0:0:0:
160,96,37074,1,0,0:0:0:0:
352,96,37326,1,8,0:0:0:0:
160,96,37578,1,0,0:0:0:0:
160,96,38082,1,0,0:0:0:0:
352,96,38334,1,8,0:0:0:0:
160,96,38587,1,0,0:0:0:0:
352,96,39091,1,8,0:0:0:0:
160,288,39343,1,4,0:0:0:0:
160,288,39847,1,4,0:0:0:0:
160,288,40351,1,4,0:0:0:0:
352,96,40855,1,8,0:0:0:0:
352,96,41108,1,8,0:0:0:0:
160,96,41360,1,0,0:0:0:0:
352,96,41612,1,8,0:0:0:0:
352,96,42116,1,8,0:0:0:0:
160,96,42368,1,0,0:0:0:0:
352,96,42620,1,8,0:0:0:0:
352,96,43124,1,8,0:0:0:0:
160,96,43376,1,0,0:0:0:0:
352,96,43629,1,8,0:0:0:0:
352,96,43881,1,8,0:0:0:0:
160,96,44133,1,0,0:0:0:0:
160,96,44385,1,0,0:0:0:0:
352,96,44637,1,8,0:0:0:0:
352,96,44889,1,8,0:0:0:0:
160,96,45393,1,0,0:0:0:0:
352,96,45645,1,8,0:0:0:0:
160,96,46150,1,0,0:0:0:0:
160,96,46402,1,0,0:0:0:0:
352,96,46654,1,8,0:0:0:0:
160,96,47158,1,0,0:0:0:0:
160,96,47410,1,0,0:0:0:0:
160,96,47662,1,8,0:0:0:0:
160,96,48166,1,0,0:0:0:0:
160,96,48418,1,0,0:0:0:0:
352,96,48671,1,8,0:0:0:0:
352,96,48923,1,8,0:0:0:0:
160,96,49175,1,0,0:0:0:0:
160,96,49427,1,0,0:0:0:0:
352,96,49679,1,8,0:0:0:0:
160,96,50183,1,0,0:0:0:0:
160,96,50435,1,0,0:0:0:0:
352,96,50687,1,8,0:0:0:0:
160,96,51192,1,0,0:0:0:0:
160,96,51444,1,0,0:0:0:0:
352,96,51696,1,8,0:0:0:0:
160,96,52200,1,0,0:0:0:0:
160,96,52452,1,0,0:0:0:0:
352,96,52704,1,8,0:0:0:0:
160,96,52956,1,0,0:0:0:0:
352,96,53208,1,8,0:0:0:0:
160,96,53713,1,0,0:0:0:0:
160,96,53965,1,0,0:0:0:0:
352,96,54217,1,8,0:0:0:0:
352,96,54469,1,8,0:0:0:0:
160,96,54721,1,0,0:0:0:0:
352,96,55225,1,8,0:0:0:0:
352,96,55477,1,8,0:0:0:0:
160,96,55729,1,0,0:0:0:0:
352,96,56234,1,8,0:0:0:0:
352,96,56486,1,8,0:0:0:0:
160,96,56738,1,0,0:0:0:0:
160,96,56990,1,0,0:0:0:0:
352,96,57242,1,8,0:0:0:0:
352,96,57494,1,8,0:0:0:0:
160,96,57746,1,0,0:0:0:0:
352,96,58250,1,8,0:0:0:0:
352,96,58502,1,8,0:0:0:0:
160,96,58755,1,0,0:0:0:0:
352,96,59259,1,8,0:0:0:0:
352,96,59511,1,8,0:0:0:0:
160,96,59763,1,0,0:0:0:0:
352,96,60267,1,8,0:0:0:0:
352,96,60519,1,8,0:0:0:0:
160,96,60771,1,0,0:0:0:0:
352,96,61023,1,8,0:0:0:0:
160,96,61276,1,0,0:0:0:0:
352,96,61528,1,8,0:0:0:0:
352,96,61780,1,8,0:0:0:0:
160,96,62284,1,0,0:0:0:0:
352,96,62536,1,8,0:0:0:0:
352,96,62788,1,8,0:0:0:0:
160,96,63292,1,0,0:0:0:0:
352,96,63544,1,8,0:0:0:0:
352,96,63797,1,8,0:0:0:0:
160,96,64301,1,0,0:0:0:0:
352,96,64553,1,8,0:0:0:0:
352,96,64805,1,8,0:0:0:0:
160,96,65057,1,0,0:0:0:0:
352,96,65309,1,8,0:0:0:0:
160,96,65561,1,0,0:0:0:0:
352,96,65813,1,8,0:0:0:0:
352,96,66318,1,8,0:0:0:0:
160,96,66570,1,0,0:0:0:0:
352,96,66822,1,8,0:0:0:0:
352,96,67326,1,8,0:0:0:0:
160,96,67578,1,0,0:0:0:0:
352,96,67830,1,8,0:0:0:0:
352,96,68334,1,8,0:0:0:0:
160,96,68587,1,0,0:0:0:0:
352,96,68839,1,8,0:0:0:0:
160,96,69091,1,0,0:0:0:0:
352,96,69343,1,8,0:0:0:0:
352,96,69595,1,8,0:0:0:0:
160,96,69847,1,0,0:0:0:0:
352,96,70351,1,8,0:0:0:0:
352,96,70603,1,8,0:0:0:0:
160,96,70855,1,0,0:0:0:0:
352,96,71360,1,8,0:0:0:0:
352,96,71612,1,8,0:0:0:0:
160,96,71864,1,0,0:0:0:0:
352,96,72368,1,8,0:0:0:0:
352,96,72620,1,8,0:0:0:0:
160,96,72872,1,0,0:0:0:0:
352,288,73124,1,12,0:0:0:0:
352,288,73629,1,12,0:0:0:0:
160,96,74133,1,0,0:0:0:0:
160,96,74385,1,0,0:0:0:0:
352,288,74637,1,12,0:0:0:0:
160,96,75141,1,0,0:0:0:0:
352,288,75645,1,12,0:0:0:0:
352,288,76150,1,12,0:0:0:0:
160,96,76402,1,0,0:0:0:0:
160,96,76654,1,0,0:0:0:0:
352,288,77158,1,12,0:0:0:0:
352,96,77662,1,8,0:0:0:0:
352,288,78166,1,12,0:0:0:0:
352,288,78418,1,12,0:0:0:0:
352,288,78671,1,12,0:0:0:0:
160,96,79175,1,0,0:0:0:0:
352,288,79427,1,12,0:0:0:0:
352,96,79679,1,8,0:0:0:0:
160,96,80183,1,0,0:0:0:0:
160,96,80939,1,0,0:0:0:0:
352,288,81192,1,12,0:0:0:0:
352,96,81696,1,8,0:0:0:0:
160,96,82200,1,0,0:0:0:0:
160,96,82452,1,0,0:0:0:0:
352,96,82704,1,8,0:0:0:0:
160,96,83208,1,0,0:0:0:0:
352,96,83713,1,8,0:0:0:0:
352,96,84217,1,8,0:0:0:0:
352,96,84469,1,8,0:0:0:0:
352,96,84721,1,8,0:0:0:0:
352,288,85225,1,12,0:0:0:0:
352,96,85729,1,8,0:0:0:0:
160,96,86234,1,0,0:0:0:0:
160,96,86486,1,0,0:0:0:0:
352,96,86738,1,8,0:0:0:0:
160,96,87242,1,0,0:0:0:0:
352,96,87746,1,8,0:0:0:0:
352,96,88250,1,8,0:0:0:0:
160,96,88502,1,0,0:0:0:0:
352,96,88755,1,8,0:0:0:0:
352,96,89007,1,8,0:0:0:0:
160,96,89259,1,0,0:0:0:0:
160,96,89511,1,0,0:0:0:0:
352,96,90015,1,8,0:0:0:0:
160,96,90519,1,0,0:0:0:0:
352,96,90771,1,8,0:0:0:0:
160,96,91276,1,0,0:0:0:0:
352,96,91780,1,8,0:0:0:0:
352,96,92284,1,8,0:0:0:0:
160,96,92536,1,0,0:0:0:0:
352,96,92788,1,8,0:0:0:0:
160,96,93292,1,0,0:0:0:0:
352,96,93544,1,8,0:0:0:0:
352,96,94301,1,8,0:0:0:0:
352,96,94553,1,8,0:0:0:0:
352,96,94805,1,8,0:0:0:0:
160,96,95309,1,0,0:0:0:0:
352,96,95813,1,8,0:0:0:0:
160,96,96318,1,0,0:0:0:0:
160,96,96570,1,0,0:0:0:0:
160,96,96822,1,0,0:0:0:0:
352,96,97326,1,8,0:0:0:0:
160,96,97578,1,0,0:0:0:0:
352,96,97830,1,8,0:0:0:0:
160,96,98334,1,0,0:0:0:0:
352,96,98587,1,8,0:0:0:0:
352,96,98839,1,8,0:0:0:0:
352,96,99091,1,8,0:0:0:0:
352,96,99847,1,8,0:0:0:0:
352,96,100099,1,8,0:0:0:0:
160,288,100351,1,4,0:0:0:0:
160,288,100729,1,4,0:0:0:0:
160,96,101108,1,0,0:0:0:0:
352,96,101360,1,8,0:0:0:0:
160,96,101864,1,0,0:0:0:0:
352,96,102368,1,8,0:0:0:0:
160,96,102620,1,0,0:0:0:0:
352,96,102872,1,8,0:0:0:0:
352,96,103124,1,8,0:0:0:0:
352,96,103629,1,8,0:0:0:0:
160,96,103881,1,0,0:0:0:0:
160,288,104385,1,0,0:0:0:0:
160,288,104637,1,0,0:0:0:0:
352,288,104889,1,12,0:0:0:0:
352,96,105393,1,8,0:0:0:0:
352,96,105645,1,8,0:0:0:0:
160,96,105897,1,0,0:0:0:0:
160,96,106402,1,0,0:0:0:0:
160,96,106654,1,0,0:0:0:0:
160,96,106906,1,0,0:0:0:0:
352,96,107158,1,8,0:0:0:0:
352,96,107410,1,8,0:0:0:0:
352,96,107662,1,8,0:0:0:0:
160,96,107914,1,0,0:0:0:0:
160,96,108418,1,0,0:0:0:0:
352,96,108671,1,8,0:0:0:0:
160,96,108923,1,0,0:0:0:0:
352,96,109175,1,8,0:0:0:0:
160,96,109427,1,0,0:0:0:0:
352,96,109931,1,8,0:0:0:0:
160,96,110435,1,0,0:0:0:0:
160,96,110687,1,0,0:0:0:0:
352,96,110939,1,8,0:0:0:0:
160,96,111192,1,0,0:0:0:0:
352,288,111444,1,12,0:0:0:0:
352,288,112200,1,12,0:0:0:0:
160,288,112452,1,4,0:0:0:0:
352,288,112704,1,12,0:0:0:0:
352,288,112956,1,12,0:0:0:0:
352,288,113208,1,12,0:0:0:0:
352,288,113460,1,12,0:0:0:0:
352,96,113965,1,8,0:0:0:0:
160,96,114469,1,0,0:0:0:0:
160,96,114721,1,0,0:0:0:0:
352,96,114973,1,8,0:0:0:0:
352,96,115225,1,8,0:0:0:0:
352,96,115981,1,8,0:0:0:0:
160,96,116234,1,0,0:0:0:0:
352,96,116486,1,8,0:0:0:0:
160,96,116738,1,0,0:0:0:0:
352,96,116990,1,8,0:0:0:0:
352,96,117494,1,8,0:0:0:0:
352,96,117746,1,8,0:0:0:0:
160,96,117998,1,0,0:0:0:0:
160,96,118502,1,0,0:0:0:0:
352,96,118755,1,8,0:0:0:0:
352,96,119007,1,8,0:0:0:0:
352,96,119259,1,8,0:0:0:0:
352,96,119763,1,8,0:0:0:0:
160,96,120015,1,0,0:0:0:0:
160,96,120519,1,0,0:0:0:0:
160,96,120771,1,0,0:0:0:0:
352,96,121023,1,8,0:0:0:0:
160,96,121276,1,0,0:0:0:0:
352,96,121528,1,8,0:0:0:0:
352,96,121780,1,8,0:0:0:0:
160,96,122032,1,0,0:0:0:0:
160,96,122536,1,0,0:0:0:0:
160,96,122788,1,0,0:0:0:0:
160,96,123040,1,0,0:0:0:0:
352,96,123292,1,8,0:0:0:0:
352,96,123544,1,8,0:0:0:0:
352,96,123797,1,8,0:0:0:0:
160,96,124049,1,0,0:0:0:0:
352,96,124805,1,8,0:0:0:0:
160,96,125057,1,0,0:0:0:0:
352,96,125309,1,8,0:0:0:0:
160,96,125561,1,0,0:0:0:0:
160,96,125813,1,0,0:0:0:0:
352,96,126065,1,8,0:0:0:0:
352,96,126822,1,8,0:0:0:0:
160,96,127074,1,0,0:0:0:0:
352,96,127326,1,8,0:0:0:0:
160,96,127578,1,0,0:0:0:0:
160,96,127830,1,0,0:0:0:0:
352,96,128082,1,8,0:0:0:0:
352,96,128839,1,8,0:0:0:0:
160,96,129091,1,0,0:0:0:0:
352,96,129343,1,8,0:0:0:0:
160,288,129595,1,4,0:0:0:0:
352,288,130099,1,12,0:0:0:0:
160,288,130603,1,4,0:0:0:0:
160,288,130855,1,4,0:0:0:0:
352,288,131108,1,12,0:0:0:0:
352,96,131360,1,8,0:0:0:0:
160,288,131612,1,4,0:0:0:0:
352,288,132116,1,12,0:0:0:0:
160,288,132620,1,4,0:0:0:0:
160,288,132872,1,4,0:0:0:0:
352,288,133124,1,12,0:0:0:0:
160,288,133629,1,4,0:0:0:0:
352,288,134133,1,12,0:0:0:0:
160,288,134637,1,4,0:0:0:0:
160,288,134889,1,4,0:0:0:0:
352,288,135141,1,12,0:0:0:0:
160,288,135645,1,4,0:0:0:0:
352,288,136150,1,12,0:0:0:0:
160,288,136654,1,4,0:0:0:0:
160,288,136906,1,4,0:0:0:0:
352,288,137158,1,12,0:0:0:0:
160,288,137662,1,4,0:0:0:0:
352,288,138166,1,12,0:0:0:0:
160,288,138671,1,4,0:0:0:0:
160,288,138923,1,4,0:0:0:0:
352,288,139175,1,12,0:0:0:0:
352,288,139679,1,12,0:0:0:0:
352,288,140183,1,12,0:0:0:0:
352,288,140687,1,12,0:0:0:0:
352,288,140939,1,12,0:0:0:0:
352,288,141192,1,12,0:0:0:0:
160,288,141696,1,4,0:0:0:0:
160,96,141948,1,0,0:0:0:0:
352,96,142200,1,8,0:0:0:0:
160,96,142452,1,0,0:0:0:0:
352,96,142704,1,8,0:0:0:0:
160,96,142956,1,0,0:0:0:0:
352,96,143460,1,8,0:0:0:0:
160,96,143965,1,0,0:0:0:0:
352,96,144217,1,8,0:0:0:0:
160,96,144721,1,0,0:0:0:0:
160,96,144973,1,0,0:0:0:0:
352,96,145225,1,8,0:0:0:0:
160,96,145477,1,0,0:0:0:0:
352,288,145729,1,12,0:0:0:0:
352,96,146234,1,8,0:0:0:0:
352,96,146738,1,8,0:0:0:0:
160,96,146990,1,0,0:0:0:0:
160,96,147242,1,0,0:0:0:0:
352,96,147494,1,8,0:0:0:0:
160,96,147998,1,0,0:0:0:0:
352,96,148250,1,8,0:0:0:0:
160,96,148502,1,0,0:0:0:0:
352,96,148755,1,8,0:0:0:0:
160,96,149007,1,0,0:0:0:0:
160,96,149259,1,0,0:0:0:0:
352,96,149511,1,8,0:0:0:0:
352,288,149763,1,12,0:0:0:0:
352,96,150267,1,8,0:0:0:0:
352,96,150771,1,8,0:0:0:0:
160,96,151023,1,0,0:0:0:0:
352,96,151528,1,8,0:0:0:0:
160,96,152032,1,0,0:0:0:0:
352,96,152284,1,8,0:0:0:0:
160,96,152536,1,0,0:0:0:0:
160,96,153040,1,0,0:0:0:0:
352,96,153292,1,8,0:0:0:0:
160,96,153544,1,0,0:0:0:0:
352,96,153797,1,8,0:0:0:0:
352,288,154049,1,12,0:0:0:0:
160,288,154301,1,4,0:0:0:0:
352,96,154805,1,8,0:0:0:0:
160,96,155057,1,0,0:0:0:0:
352,96,155561,1,8,0:0:0:0:
160,96,156065,1,0,0:0:0:0:
352,96,156318,1,8,0:0:0:0:
160,96,156570,1,0,0:0:0:0:
160,96,157074,1,0,0:0:0:0:
352,96,157326,1,8,0:0:0:0:
352,288,157830,1,12,0:0:0:0:
352,96,158334,1,8,0:0:0:0:
352,96,158839,1,8,0:0:0:0:
160,96,159091,1,0,0:0:0:0:
352,96,159595,1,8,0:0:0:0:
160,96,160099,1,0,0:0:0:0:
352,96,160351,1,8,0:0:0:0:
160,96,160855,1,0,0:0:0:0:
160,96,161108,1,0,0:0:0:0:
352,96,161360,1,8,0:0:0:0:
160,96,161612,1,0,0:0:0:0:
352,288,161864,1,12,0:0:0:0:
352,96,162368,1,8,0:0:0:0:
352,96,162872,1,8,0:0:0:0:
160,96,163124,1,0,0:0:0:0:
160,96,163376,1,0,0:0:0:0:
352,96,163629,1,8,0:0:0:0:
160,96,164133,1,0,0:0:0:0:
352,96,164385,1,8,0:0:0:0:
160,96,164637,1,0,0:0:0:0:
352,96,164889,1,8,0:0:0:0:
160,96,165141,1,0,0:0:0:0:
352,96,165393,1,8,0:0:0:0:
352,96,165645,1,8,0:0:0:0:
352,288,165897,1,12,0:0:0:0:
352,96,166402,1,8,0:0:0:0:
352,96,166906,1,8,0:0:0:0:
160,96,167158,1,0,0:0:0:0:
352,96,167662,1,8,0:0:0:0:
160,96,168166,1,0,0:0:0:0:
352,96,168418,1,8,0:0:0:0:
160,96,168671,1,0,0:0:0:0:
160,96,169175,1,0,0:0:0:0:
352,96,169427,1,8,0:0:0:0:
160,96,169679,1,0,0:0:0:0:
352,288,169931,1,12,0:0:0:0:
352,288,170183,1,12,0:0:0:0:
352,96,170435,1,8,0:0:0:0:
352,96,170939,1,8,0:0:0:0:
160,96,171192,1,0,0:0:0:0:
352,96,171696,1,8,0:0:0:0:
160,288,172253,1,4,0:0:0:0:
352,288,172671,1,12,0:0:0:0:
352,288,172950,1,12,0:0:0:0:
160,288,173423,1,4,0:0:0:0:
352,96,173965,1,8,0:0:0:0:
160,96,174217,1,0,0:0:0:0:
352,96,174469,1,8,0:0:0:0:
352,96,174973,1,8,0:0:0:0:
160,96,175225,1,0,0:0:0:0:
160,96,175477,1,0,0:0:0:0:
352,96,175729,1,8,0:0:0:0:
352,96,176233,1,8,0:0:0:0:
352,96,176486,1,8,0:0:0:0:
352,96,176990,1,8,0:0:0:0:
160,96,177242,1,0,0:0:0:0:
352,96,177494,1,8,0:0:0:0:
160,96,177746,1,0,0:0:0:0:
352,96,177998,1,8,0:0:0:0:
352,96,178250,1,8,0:0:0:0:
352,96,178502,1,8,0:0:0:0:
352,96,179007,1,8,0:0:0:0:
160,96,179259,1,0,0:0:0:0:
352,96,179511,1,8,0:0:0:0:
352,96,179763,1,8,0:0:0:0:
352,96,180267,1,8,0:0:0:0:
352,96,180519,1,8,0:0:0:0:
352,96,180771,1,8,0:0:0:0:
352,96,181275,1,8,0:0:0:0:
352,96,181528,1,8,0:0:0:0:
160,96,181780,1,0,0:0:0:0:
352,96,182032,1,8,0:0:0:0:
352,96,182536,1,8,0:0:0:0:
160,96,182788,1,0,0:0:0:0:
352,96,183040,1,8,0:0:0:0:
160,96,183292,1,0,0:0:0:0:
352,96,183796,1,8,0:0:0:0:
160,96,184301,1,0,0:0:0:0:
352,96,184805,1,8,0:0:0:0:
160,96,185057,1,0,0:0:0:0:
352,96,185561,1,8,0:0:0:0:
352,96,186065,1,8,0:0:0:0:
352,96,186317,1,8,0:0:0:0:
160,96,186570,1,0,0:0:0:0:
160,96,186822,1,0,0:0:0:0:
352,96,187074,1,8,0:0:0:0:
160,96,187578,1,0,0:0:0:0:
352,96,187830,1,8,0:0:0:0:
160,96,188334,1,0,0:0:0:0:
352,96,188838,1,8,0:0:0:0:
160,96,189091,1,0,0:0:0:0:
352,96,189343,1,8,0:0:0:0:
352,96,189847,1,8,0:0:0:0:
352,96,190099,1,8,0:0:0:0:
160,96,190351,1,0,0:0:0:0:
352,96,190603,1,8,0:0:0:0:
160,96,190855,1,0,0:0:0:0:
352,96,191107,1,8,0:0:0:0:
352,96,191359,1,8,0:0:0:0:
160,96,191864,1,0,0:0:0:0:
160,96,192368,1,0,0:0:0:0:
352,96,192620,1,8,0:0:0:0:
160,96,192872,1,0,0:0:0:0:
352,96,193124,1,8,0:0:0:0:
352,96,193376,1,8,0:0:0:0:
352,96,194133,1,8,0:0:0:0:
160,96,194385,1,0,0:0:0:0:
352,96,194637,1,8,0:0:0:0:
160,96,194889,1,0,0:0:0:0:
352,96,195141,1,8,0:0:0:0:
160,96,195393,1,0,0:0:0:0:
352,96,195897,1,8,0:0:0:0:
352,96,196401,1,8,0:0:0:0:
352,96,196654,1,8,0:0:0:0:
352,96,197410,1,8,0:0:0:0:
160,96,197662,1,0,0:0:0:0:
352,96,197914,1,8,0:0:0:0:
352,96,198166,1,8,0:0:0:0:
352,96,198670,1,8,0:0:0:0:
160,96,198922,1,0,0:0:0:0:
352,96,199175,1,8,0:0:0:0:
160,96,199427,1,0,0:0:0:0:
352,96,199931,1,8,0:0:0:0:
160,96,200435,1,0,0:0:0:0:
352,96,200687,1,8,0:0:0:0:
160,96,200939,1,0,0:0:0:0:
160,96,201443,1,0,0:0:0:0:
352,96,201696,1,8,0:0:0:0:
352,96,202200,1,8,0:0:0:0:
160,96,202452,1,0,0:0:0:0:
352,96,202704,1,8,0:0:0:0:
352,96,202956,1,8,0:0:0:0:
160,96,203208,1,0,0:0:0:0:
352,96,203965,1,8,0:0:0:0:
160,96,204469,1,0,0:0:0:0:
352,96,204721,1,8,0:0:0:0:
160,96,204973,1,0,0:0:0:0:
352,96,205477,1,8,0:0:0:0:
352,96,205729,1,8,0:0:0:0:
352,96,206233,1,8,0:0:0:0:
160,96,206486,1,0,0:0:0:0:
352,96,206738,1,8,0:0:0:0:
352,96,206990,1,8,0:0:0:0:
160,96,207242,1,0,0:0:0:0:
352,96,207494,1,8,0:0:0:0:
160,96,207746,1,0,0:0:0:0:
352,96,207998,1,8,0:0:0:0:
160,96,208502,1,0,0:0:0:0:
352,96,208754,1,8,0:0:0:0:
160,96,209259,1,0,0:0:0:0:
160,96,209511,1,0,0:0:0:0:
352,96,209763,1,8,0:0:0:0:
160,96,210015,1,0,0:0:0:0:
352,96,210267,1,8,0:0:0:0:
352,96,210771,1,8,0:0:0:0:
352,96,211023,1,8,0:0:0:0:
160,96,211275,1,0,0:0:0:0:
352,96,211528,1,8,0:0:0:0:
160,96,211780,1,0,0:0:0:0:
352,96,212284,1,8,0:0:0:0:
160,96,212536,1,0,0:0:0:0:
352,96,212788,1,8,0:0:0:0:
352,96,213040,1,8,0:0:0:0:
352,96,213292,1,8,0:0:0:0:
160,96,213544,1,0,0:0:0:0:
160,96,214301,1,0,0:0:0:0:
352,96,214805,1,8,0:0:0:0:
160,96,215057,1,0,0:0:0:0:
352,96,215309,1,8,0:0:0:0:
160,96,215561,1,0,0:0:0:0:
160,96,215813,1,0,0:0:0:0:
352,96,216065,1,8,0:0:0:0:
160,96,216317,1,0,0:0:0:0:
352,96,216822,1,8,0:0:0:0:
160,96,217074,1,0,0:0:0:0:
160,96,217578,1,0,0:0:0:0:
352,96,217830,1,8,0:0:0:0:
352,96,218334,1,8,0:0:0:0:
352,96,218586,1,8,0:0:0:0:
160,96,218838,1,0,0:0:0:0:
160,96,219091,1,0,0:0:0:0:
352,96,219343,1,8,0:0:0:0:
160,96,219595,1,0,0:0:0:0:
160,96,219847,1,0,0:0:0:0:
352,96,220099,1,8,0:0:0:0:
160,96,220603,1,0,0:0:0:0:
352,96,220855,1,8,0:0:0:0:
352,96,221359,1,8,0:0:0:0:
160,96,221612,1,0,0:0:0:0:
352,96,221864,1,8,0:0:0:0:
352,96,222368,1,8,0:0:0:0:
352,96,222620,1,8,0:0:0:0:
352,96,222872,1,8,0:0:0:0:
352,96,223376,1,8,0:0:0:0:
160,96,223628,1,0,0:0:0:0:
352,96,223880,1,8,0:0:0:0:
352,96,224133,1,8,0:0:0:0:
160,96,224637,1,0,0:0:0:0:
352,96,224889,1,8,0:0:0:0:
160,96,225141,1,0,0:0:0:0:
352,96,225393,1,8,0:0:0:0:
352,96,225645,1,8,0:0:0:0:
352,96,225897,1,8,0:0:0:0:
352,96,226401,1,8,0:0:0:0:
352,96,226654,1,0,0:0:0:0:
352,96,226906,1,8,0:0:0:0:
160,96,227410,1,0,0:0:0:0:
352,96,227662,1,8,0:0:0:0:
160,96,227914,1,0,0:0:0:0:
352,96,228166,1,8,0:0:0:0:
160,96,228670,1,0,0:0:0:0:
352,96,228922,1,8,0:0:0:0:
160,96,229175,1,0,0:0:0:0:
352,96,229427,1,8,0:0:0:0:
352,96,229679,1,8,0:0:0:0:
352,96,230183,1,8,0:0:0:0:
160,96,230435,1,0,0:0:0:0:
160,96,230687,1,0,0:0:0:0:
352,96,230939,1,8,0:0:0:0:
160,96,231191,1,0,0:0:0:0:
352,96,231443,1,8,0:0:0:0:
160,96,231948,1,0,0:0:0:0:
352,96,232200,1,8,0:0:0:0:
160,96,232704,1,0,0:0:0:0:
352,96,232956,1,8,0:0:0:0:
160,96,233208,1,0,0:0:0:0:
160,96,233712,1,0,0:0:0:0:
352,96,233965,1,8,0:0:0:0:
352,96,234469,1,8,0:0:0:0:
160,96,234721,1,0,0:0:0:0:
352,96,234973,1,8,0:0:0:0:
160,96,235225,1,0,0:0:0:0:
352,96,235477,1,8,0:0:0:0:
352,96,235729,1,8,0:0:0:0:
160,96,235981,1,0,0:0:0:0:
352,96,236233,1,8,0:0:0:0:
160,96,236738,1,0,0:0:0:0:
352,96,236990,1,8,0:0:0:0:
352,96,237494,1,8,0:0:0:0:
160,96,237746,1,0,0:0:0:0:
352,96,237998,1,8,0:0:0:0:
352,96,238502,1,8,0:0:0:0:
352,96,239007,1,8,0:0:0:0:
160,96,239259,1,0,0:0:0:0:
352,96,239511,1,8,0:0:0:0:
352,96,239763,1,8,0:0:0:0:
160,96,240015,1,0,0:0:0:0:
352,96,240267,1,8,0:0:0:0:
160,96,240771,1,0,0:0:0:0:
352,96,241023,1,8,0:0:0:0:
160,96,241275,1,0,0:0:0:0:
352,96,241528,1,8,0:0:0:0:
160,96,241780,1,0,0:0:0:0:
352,96,242032,1,8,0:0:0:0:
352,96,242284,1,8,0:0:0:0:
352,96,242536,1,8,0:0:0:0:
352,96,243040,1,8,0:0:0:0:
160,96,243292,1,0,0:0:0:0:
352,96,243544,1,8,0:0:0:0:
160,96,243796,1,0,0:0:0:0:
160,96,244049,1,0,0:0:0:0:
352,96,244301,1,8,0:0:0:0:
160,96,244805,1,0,0:0:0:0:
160,96,245309,1,0,0:0:0:0:
160,96,245561,1,0,0:0:0:0:
352,96,245813,1,8,0:0:0:0:
352,96,246065,1,8,0:0:0:0:
160,96,246317,1,0,0:0:0:0:
352,96,246570,1,8,0:0:0:0:
160,96,247074,1,0,0:0:0:0:
160,96,247326,1,0,0:0:0:0:
352,96,247578,1,8,0:0:0:0:
160,96,247830,1,0,0:0:0:0:
352,96,248082,1,8,0:0:0:0:
352,96,248334,1,8,0:0:0:0:
160,96,248838,1,0,0:0:0:0:
160,96,249091,1,0,0:0:0:0:
352,96,249343,1,8,0:0:0:0:
160,96,249595,1,0,0:0:0:0:
352,96,249847,1,8,0:0:0:0:
352,96,250099,1,8,0:0:0:0:
160,96,250351,1,0,0:0:0:0:
352,96,250603,1,8,0:0:0:0:
352,96,251107,1,8,0:0:0:0:
160,96,251359,1,0,0:0:0:0:
352,96,251612,1,8,0:0:0:0:
160,96,251864,1,0,0:0:0:0:
352,96,252368,1,8,0:0:0:0:
160,96,252872,1,0,0:0:0:0:
352,96,253124,1,8,0:0:0:0:
160,96,253376,1,0,0:0:0:0:
352,96,253628,1,8,0:0:0:0:
160,96,253880,1,0,0:0:0:0:
352,96,254385,1,8,0:0:0:0:
352,96,254637,1,8,0:0:0:0:
160,96,255141,1,0,0:0:0:0:
160,96,255393,1,0,0:0:0:0:
352,96,255645,1,8,0:0:0:0:
160,96,255897,1,0,0:0:0:0:
352,96,256401,1,8,0:0:0:0:
160,96,256654,1,0,0:0:0:0:
160,96,256906,1,0,0:0:0:0:
352,96,257158,1,8,0:0:0:0:
160,96,257410,1,0,0:0:0:0:
352,96,257914,1,8,0:0:0:0:
160,96,258166,1,0,0:0:0:0:
352,96,258670,1,8,0:0:0:0:
352,96,258922,1,8,0:0:0:0:
160,96,259175,1,0,0:0:0:0:
160,96,259427,1,0,0:0:0:0:
352,96,259679,1,8,0:0:0:0:
160,96,259931,1,0,0:0:0:0:
352,96,260183,1,8,0:0:0:0:
352,96,260435,1,8,0:0:0:0:
160,96,260939,1,0,0:0:0:0:
352,96,261191,1,8,0:0:0:0:
160,96,261443,1,0,0:0:0:0:
160,96,261948,1,0,0:0:0:0:
352,96,262200,1,8,0:0:0:0:
160,96,262452,1,0,0:0:0:0:
352,96,262704,1,8,0:0:0:0:
160,96,262956,1,0,0:0:0:0:
352,96,263208,1,8,0:0:0:0:
352,96,263460,1,8,0:0:0:0:
352,96,263712,1,8,0:0:0:0:
160,96,264217,1,0,0:0:0:0:
352,96,264469,1,8,0:0:0:0:
160,96,264721,1,0,0:0:0:0:
352,96,264973,1,8,0:0:0:0:
352,96,265225,1,8,0:0:0:0:
160,96,265729,1,0,0:0:0:0:
352,96,266233,1,8,0:0:0:0:
160,96,266486,1,0,0:0:0:0:
352,96,266738,1,8,0:0:0:0:
352,96,266990,1,8,0:0:0:0:
160,96,267242,1,0,0:0:0:0:
352,96,267494,1,8,0:0:0:0:
160,96,267746,1,0,0:0:0:0:
160,96,268250,1,0,0:0:0:0:
352,96,268502,1,8,0:0:0:0:
160,96,268754,1,0,0:0:0:0:
352,96,269007,1,8,0:0:0:0:
352,96,269259,1,8,0:0:0:0:
160,96,269763,1,0,0:0:0:0:
160,96,270267,1,0,0:0:0:0:
160,96,270519,1,0,0:0:0:0:
352,96,270771,1,8,0:0:0:0:
160,96,271023,1,0,0:0:0:0:
352,96,271275,1,8,0:0:0:0:
352,96,271528,1,8,0:0:0:0:
160,96,271780,1,0,0:0:0:0:
352,96,272032,1,8,0:0:0:0:
160,96,272536,1,0,0:0:0:0:
352,96,272788,1,8,0:0:0:0:
352,96,273040,1,8,0:0:0:0:
160,96,273292,1,0,0:0:0:0:
160,96,273544,1,0,0:0:0:0:
352,96,273796,1,8,0:0:0:0:
160,96,274301,1,0,0:0:0:0:
352,96,274805,1,8,0:0:0:0:
160,96,275057,1,0,0:0:0:0:
352,96,275309,1,8,0:0:0:0:
352,96,275561,1,8,0:0:0:0:
160,96,275813,1,0,0:0:0:0:
352,96,276065,1,8,0:0:0:0:
352,96,276317,1,8,0:0:0:0:
160,96,276822,1,0,0:0:0:0:
160,96,277074,1,0,0:0:0:0:
352,96,277326,1,8,0:0:0:0:
352,96,277578,1,8,0:0:0:0:
160,96,277830,1,0,0:0:0:0:
160,96,278082,1,0,0:0:0:0:
160,96,278838,1,0,0:0:0:0:
160,96,279091,1,0,0:0:0:0:
352,96,279343,1,8,0:0:0:0:
352,96,279595,1,8,0:0:0:0:
160,96,279847,1,0,0:0:0:0:
352,96,280099,1,8,0:0:0:0:
160,96,280603,1,0,0:0:0:0:
160,96,280855,1,0,0:0:0:0:
160,96,281107,1,0,0:0:0:0:
352,96,281359,1,8,0:0:0:0:
160,96,281864,1,0,0:0:0:0:
352,96,282116,1,8,0:0:0:0:
352,96,282368,1,8,0:0:0:0:
352,96,282872,1,8,0:0:0:0:
352,96,283124,1,8,0:0:0:0:
160,96,283376,1,0,0:0:0:0:
160,96,283628,1,0,0:0:0:0:
352,96,283880,1,8,0:0:0:0:
160,96,284385,1,0,0:0:0:0:
352,96,284637,1,8,0:0:0:0:
160,96,284889,1,0,0:0:0:0:
352,96,285141,1,8,0:0:0:0:
352,96,285393,1,8,0:0:0:0:
160,96,285645,1,0,0:0:0:0:
352,96,286149,1,8,0:0:0:0:
160,96,286658,1,0,0:0:0:0:
352,96,286916,1,8,0:0:0:0:
352,96,287420,1,8,0:0:0:0:
352,96,287672,1,8,0:0:0:0:
160,96,287924,1,0,0:0:0:0:
352,96,288176,1,8,0:0:0:0:
160,96,288428,1,0,0:0:0:0:
352,96,288680,1,8,0:0:0:0:
160,96,289184,1,0,0:0:0:0:
352,96,289437,1,8,0:0:0:0:
160,96,289941,1,0,0:0:0:0:
352,96,290193,1,8,0:0:0:0:
352,96,290445,1,8,0:0:0:0:
160,96,290949,1,0,0:0:0:0:
352,96,291201,1,8,0:0:0:0:
352,96,291453,1,8,0:0:0:0:
352,96,291958,1,8,0:0:0:0:
352,96,292210,1,8,0:0:0:0:
160,96,292714,1,0,0:0:0:0:
352,96,293218,1,8,0:0:0:0:
352,96,293470,1,8,0:0:0:0:
160,96,293722,1,0,0:0:0:0:
352,96,293974,1,8,0:0:0:0:
352,96,294226,1,8,0:0:0:0:
160,96,294479,1,0,0:0:0:0:
160,96,294983,1,0,0:0:0:0:
160,96,295235,1,0,0:0:0:0:
352,96,295487,1,8,0:0:0:0:
160,96,295739,1,0,0:0:0:0:
352,96,295991,1,8,0:0:0:0:
352,96,296243,1,8,0:0:0:0:
160,96,296495,1,0,0:0:0:0:
352,96,296747,1,8,0:0:0:0:
160,96,297252,1,0,0:0:0:0:
160,96,297504,1,0,0:0:0:0:
352,96,297756,1,8,0:0:0:0:
160,96,298008,1,0,0:0:0:0:
352,96,298260,1,8,0:0:0:0:
352,96,299016,1,8,0:0:0:0:
160,96,299268,1,0,0:0:0:0:
352,96,299521,1,8,0:0:0:0:
160,96,299773,1,0,0:0:0:0:
352,96,300025,1,8,0:0:0:0:
160,96,300529,1,0,0:0:0:0:
352,96,300781,1,8,0:0:0:0:
160,96,301285,1,0,0:0:0:0:
352,96,301537,1,8,0:0:0:0:
352,96,301789,1,8,0:0:0:0:
160,96,302042,1,0,0:0:0:0:
352,96,302546,1,8,0:0:0:0:
160,96,302798,1,0,0:0:0:0:
352,96,303050,1,8,0:0:0:0:
352,96,303302,1,8,0:0:0:0:
160,96,303554,1,0,0:0:0:0:
352,96,303806,1,8,0:0:0:0:
352,96,304058,1,8,0:0:0:0:
160,96,304310,1,0,0:0:0:0:
352,96,304815,1,8,0:0:0:0:
352,96,305319,1,8,0:0:0:0:
160,96,305571,1,0,0:0:0:0:
352,96,306075,1,8,0:0:0:0:
160,96,306327,1,0,0:0:0:0:
352,96,306579,1,8,0:0:0:0:
160,96,307084,1,0,0:0:0:0:
160,96,307336,1,0,0:0:0:0:
352,96,307588,1,8,0:0:0:0:
160,96,307840,1,0,0:0:0:0:
352,96,308092,1,8,0:0:0:0:
352,96,308344,1,8,0:0:0:0:
160,96,308596,1,0,0:0:0:0:
352,96,308848,1,8,0:0:0:0:
160,96,309352,1,0,0:0:0:0:
352,96,309605,1,8,0:0:0:0:
352,96,309857,1,8,0:0:0:0:
160,96,310361,1,0,0:0:0:0:
352,96,310613,1,8,0:0:0:0:
160,96,310865,1,0,0:0:0:0:
352,96,311117,1,8,0:0:0:0:
352,96,311369,1,8,0:0:0:0:
160,96,311621,1,0,0:0:0:0:
160,96,311873,1,0,0:0:0:0:
352,96,312126,1,8,0:0:0:0:
160,96,312630,1,0,0:0:0:0:
352,96,312882,1,8,0:0:0:0:
160,96,313134,1,0,0:0:0:0:
352,96,313386,1,8,0:0:0:0:
352,96,313890,1,8,0:0:0:0:
352,96,314142,1,8,0:0:0:0:
160,96,314394,1,0,0:0:0:0:
352,96,314647,1,8,0:0:0:0:
352,96,315151,1,8,0:0:0:0:
352,96,315403,1,8,0:0:0:0:
352,96,315655,1,8,0:0:0:0:
160,96,315907,1,0,0:0:0:0:
352,96,316159,1,8,0:0:0:0:
352,96,316411,1,8,0:0:0:0:
160,96,316663,1,0,0:0:0:0:
352,96,316916,1,8,0:0:0:0:
160,96,317420,1,0,0:0:0:0:
352,96,317672,1,8,0:0:0:0:
352,96,317924,1,8,0:0:0:0:
160,96,318428,1,0,0:0:0:0:
352,96,318680,1,8,0:0:0:0:
352,96,318932,1,8,0:0:0:0:
160,96,319184,1,0,0:0:0:0:
352,96,319689,1,8,0:0:0:0:
352,96,319941,1,8,0:0:0:0:
160,96,320193,1,0,0:0:0:0:
160,96,320697,1,0,0:0:0:0:
352,96,320949,1,8,0:0:0:0:
352,96,321201,1,8,0:0:0:0:
160,96,321453,1,0,0:0:0:0:
352,96,321705,1,8,0:0:0:0:
160,96,321958,1,0,0:0:0:0:
160,96,322210,1,0,0:0:0:0:
352,96,322462,1,8,0:0:0:0:
160,96,322714,1,0,0:0:0:0:
160,96,323218,1,0,0:0:0:0:
160,96,323470,1,0,0:0:0:0:
352,96,323722,1,8,0:0:0:0:
352,96,323974,1,8,0:0:0:0:
160,96,324226,1,0,0:0:0:0:
160,96,324731,1,0,0:0:0:0:
352,96,324983,1,8,0:0:0:0:
160,96,325487,1,0,0:0:0:0:
352,96,325739,1,8,0:0:0:0:
160,96,325991,1,0,0:0:0:0:
352,96,326243,1,8,0:0:0:0:
352,96,326495,1,8,0:0:0:0:
352,96,326747,1,8,0:0:0:0:
352,96,327252,1,8,0:0:0:0:
160,96,327504,1,0,0:0:0:0:
352,96,327756,1,8,0:0:0:0:
160,96,328008,1,0,0:0:0:0:
352,96,328260,1,8,0:0:0:0:
352,96,328512,1,8,0:0:0:0:
160,96,328764,1,0,0:0:0:0:
160,96,329016,1,0,0:0:0:0:
352,96,329521,1,8,0:0:0:0:
352,96,329773,1,8,0:0:0:0:
160,96,330025,1,0,0:0:0:0:
352,96,330277,1,8,0:0:0:0:
160,96,330529,1,0,0:0:0:0:
352,96,330781,1,8,0:0:0:0:
352,96,331285,1,8,0:0:0:0:
352,96,331537,1,8,0:0:0:0:
160,96,331789,1,0,0:0:0:0:
160,96,332042,1,0,0:0:0:0:
160,96,332546,1,0,0:0:0:0:
160,96,332798,1,0,0:0:0:0:
352,96,333050,1,8,0:0:0:0:
160,96,333554,1,0,0:0:0:0:
352,96,333806,1,8,0:0:0:0:
160,96,334058,1,0,0:0:0:0:
160,96,334563,1,0,0:0:0:0:
352,96,334815,1,8,0:0:0:0:
352,96,335319,1,8,0:0:0:0:
352,96,335566,1,8,0:0:0:0:
160,96,335814,1,0,0:0:0:0:
352,96,336318,1,8,0:0:0:0:
160,96,336570,1,0,0:0:0:0:
352,96,336822,1,8,0:0:0:0:
352,96,337074,1,8,0:0:0:0:
160,96,337578,1,0,0:0:0:0:
352,96,337830,1,8,0:0:0:0:
352,96,338334,1,8,0:0:0:0:
160,96,338586,1,0,0:0:0:0:
352,96,338838,1,8,0:0:0:0:
160,96,339090,1,0,0:0:0:0:
352,96,339342,1,8,0:0:0:0:
352,96,339594,1,8,0:0:0:0:
160,96,339847,1,0,0:0:0:0:
352,96,340351,1,8,0:0:0:0:
160,96,340603,1,0,0:0:0:0:
352,96,340855,1,8,0:0:0:0:
352,96,341107,1,8,0:0:0:0:
160,96,341611,1,0,0:0:0:0:
352,96,341863,1,8,0:0:0:0:
352,96,342620,1,8,0:0:0:0:
352,96,342872,1,8,0:0:0:0:
160,96,343124,1,0,0:0:0:0:
352,96,343376,1,8,0:0:0:0:
160,96,343880,1,0,0:0:0:0:
352,96,344384,1,8,0:0:0:0:
160,96,344636,1,0,0:0:0:0:
160,96,345141,1,0,0:0:0:0:
352,96,345393,1,8,0:0:0:0:
160,96,345645,1,0,0:0:0:0:
352,96,345897,1,8,0:0:0:0:
352,96,346149,1,8,0:0:0:0:
352,96,346401,1,8,0:0:0:0:
160,96,346653,1,0,0:0:0:0:
352,96,346905,1,8,0:0:0:0:
352,96,347410,1,8,0:0:0:0:
352,96,347662,1,8,0:0:0:0:
160,96,347914,1,0,0:0:0:0:
352,96,348166,1,8,0:0:0:0:
160,96,348670,1,0,0:0:0:0:
352,96,348922,1,8,0:0:0:0:
352,96,349174,1,8,0:0:0:0:
160,96,349426,1,0,0:0:0:0:
352,96,349678,1,8,0:0:0:0:
160,96,349931,1,0,0:0:0:0:
160,96,350435,1,0,0:0:0:0:
352,96,350687,1,8,0:0:0:0:
160,96,350939,1,0,0:0:0:0:
352,96,351191,1,8,0:0:0:0:
160,96,351443,1,0,0:0:0:0:
160,96,351947,1,0,0:0:0:0:
160,96,352199,1,0,0:0:0:0:
352,96,352452,1,8,0:0:0:0:
160,96,352704,1,0,0:0:0:0:
352,96,352956,1,8,0:0:0:0:
352,96,353208,1,8,0:0:0:0:
160,96,353712,1,0,0:0:0:0:
352,96,353964,1,8,0:0:0:0:
160,96,354216,1,0,0:0:0:0:
352,96,354468,1,8,0:0:0:0:
352,96,354720,1,8,0:0:0:0:
352,96,354973,1,8,0:0:0:0:
352,96,355225,1,8,0:0:0:0:
160,96,355477,1,0,0:0:0:0:
352,96,355981,1,8,0:0:0:0:
160,96,356233,1,0,0:0:0:0:
352,96,356485,1,8,0:0:0:0:
160,96,356737,1,0,0:0:0:0:
160,96,356989,1,0,0:0:0:0:
352,96,357241,1,8,0:0:0:0:
160,96,357494,1,0,0:0:0:0:
352,96,357998,1,8,0:0:0:0:
352,96,358502,1,8,0:0:0:0:
160,96,358754,1,0,0:0:0:0:
352,96,359006,1,8,0:0:0:0:
352,96,359258,1,8,0:0:0:0:
160,96,359510,1,0,0:0:0:0:
352,96,360015,1,8,0:0:0:0:
352,96,360519,1,8,0:0:0:0:
160,96,360771,1,0,0:0:0:0:
160,96,361023,1,0,0:0:0:0:
352,96,361275,1,8,0:0:0:0:
160,96,361527,1,0,0:0:0:0:
352,96,361779,1,8,0:0:0:0:
160,96,362031,1,0,0:0:0:0:
352,96,362283,1,8,0:0:0:0:
352,96,362536,1,8,0:0:0:0:
160,96,362788,1,0,0:0:0:0:
352,96,363040,1,8,0:0:0:0:
160,96,363544,1,0,0:0:0:0:
160,96,364048,1,0,0:0:0:0:
256,192,364552,8,0,378165,0:0:0:0:
