osu file format v14

[General]
AudioFilename: audio.mp3
AudioLeadIn: 0
PreviewTime: 74879
Countdown: 0
SampleSet: Drum
StackLeniency: 0.6
Mode: 3
LetterboxInBreaks: 0
SpecialStyle: 0
WidescreenStoryboard: 1

[Editor]
Bookmarks: 3593,24926,53371,74704,103149,131593,160037
DistanceSpacing: 0.8
BeatDivisor: 4
GridSize: 8
TimelineZoom: 1.300006

[Metadata]
Title:Dsco
TitleUnicode:Dsco
Artist:Sweet Trip
ArtistUnicode:Sweet Trip
Creator:EdgyKing
Version:Insane
Source:
Tags:english electronic rock pop indietronica shoegaze noise indie velocity ​: ​design​ : ​comfort. velocity: design: comfort. velocity:design:comfort. vdc
BeatmapID:4371265
BeatmapSetID:1449555

[Difficulty]
HPDrainRate:8
CircleSize:5
OverallDifficulty:8
ApproachRate:8.8
SliderMultiplier:2.2
SliderTickRate:2

[Events]
//Background and Video events
0,0,"bg.jpg",0,0
//Break Periods
//Storyboard Layer 0 (Background)
//Storyboard Layer 1 (Fail)
//Storyboard Layer 2 (Pass)
//Storyboard Layer 3 (Foreground)
//Storyboard Layer 4 (Overlay)
//Storyboard Sound Samples
Sample,30323,0,"normal-hitfinish.wav",60
Sample,31212,0,"normal-hitfinish.wav",60
Sample,44546,0,"normal-hitfinish.wav",60
Sample,45435,0,"normal-hitfinish.wav",60
Sample,80101,0,"normal-hitfinish.wav",60
Sample,80990,0,"normal-hitfinish.wav",60
Sample,94323,0,"normal-hitfinish.wav",60
Sample,95212,0,"normal-hitfinish.wav",60

[TimingPoints]
324,444.444444444444,4,3,1,40,1,0
3879,-100,4,3,1,50,0,0
25212,-100,4,3,1,60,0,0
53657,-100,4,3,1,50,0,0
74990,-100,4,3,1,60,0,0
102768,-25,4,3,1,60,0,0
102796,-175.438596491228,4,3,1,60,0,0
102990,-16.7224080267559,4,3,1,60,0,0
103046,-133.333333333333,4,3,1,60,0,0
103101,-200,4,3,1,60,0,0
103157,-400,4,3,1,60,0,0
103212,-769.230769230769,4,3,1,60,0,0
103435,-100,4,3,1,65,0,1
131435,-16.7224080267559,4,3,1,65,0,1
131490,-133.333333333333,4,3,1,65,0,1
131546,-200,4,3,1,65,0,1
131601,-400,4,3,1,65,0,1
131657,-769.230769230769,4,3,1,65,0,1
131879,-100,4,3,1,55,0,0

[HitObjects]
153,192,324,5,2,0:0:0:0:
51,192,768,1,8,1:0:0:0:
153,192,768,1,0,0:0:0:0:
358,192,768,1,0,0:0:0:0:
358,192,1212,1,2,0:0:0:0:
358,192,1657,1,2,0:0:0:0:
358,192,2101,1,2,0:0:0:0:
51,192,2323,1,8,1:0:0:0:
153,192,2323,1,0,0:0:0:0:
460,192,2323,1,0,0:0:0:0:
153,192,2546,1,2,0:0:0:0:
358,192,2546,1,0,0:0:0:0:
153,192,2990,1,2,0:0:0:0:
51,192,3212,1,8,1:0:0:0:
358,192,3212,1,0,0:0:0:0:
460,192,3212,1,0,0:0:0:0:
51,192,3435,1,2,0:0:0:0:
460,192,3435,1,0,0:0:0:0:
51,192,3879,1,2,0:0:0:0:
256,192,3879,1,4,0:1:0:0:
460,192,3879,1,0,0:0:0:0:
358,192,3990,1,0,0:0:0:0:
153,192,4101,1,4,0:0:0:0:
256,192,4212,1,0,0:0:0:0:
51,192,4323,1,8,0:0:0:0:
358,192,4323,1,0,0:0:0:0:
460,192,4323,1,0,0:0:0:0:
153,192,4546,1,4,0:0:0:0:
51,192,4768,1,2,0:0:0:0:
358,192,4768,1,0,0:0:0:0:
460,192,4768,1,0,0:0:0:0:
256,192,4990,1,4,0:0:0:0:
51,192,5212,1,8,0:0:0:0:
358,192,5212,1,0,0:0:0:0:
460,192,5212,1,0,0:0:0:0:
51,192,5435,128,4,5768:0:0:0:0:
256,192,5435,1,2,0:0:0:0:
358,192,5435,128,4,5768:0:1:0:0:
51,192,5879,1,4,0:0:0:0:
358,192,5879,1,2,0:0:0:0:
153,192,6101,1,8,0:0:0:0:
358,192,6101,1,0,0:0:0:0:
460,192,6101,1,0,0:0:0:0:
153,192,6323,1,4,0:0:0:0:
51,192,6546,1,2,0:0:0:0:
358,192,6546,1,0,0:0:0:0:
51,192,6768,1,4,0:0:0:0:
358,192,6768,1,2,0:0:0:0:
153,192,6990,1,8,0:0:0:0:
358,192,6990,1,0,0:0:0:0:
460,192,6990,1,0,0:0:0:0:
51,192,7212,128,4,7546:0:0:0:0:
153,192,7212,1,2,0:0:0:0:
460,192,7212,128,4,7546:0:1:0:0:
51,192,7657,1,4,0:0:0:0:
460,192,7657,1,2,0:0:0:0:
51,192,7879,1,8,0:0:0:0:
256,192,7879,1,0,0:0:0:0:
358,192,7879,1,0,0:0:0:0:
153,192,8101,1,4,0:0:0:0:
358,192,8323,1,2,0:0:0:0:
460,192,8323,1,0,0:0:0:0:
51,192,8546,1,4,0:0:0:0:
153,192,8546,1,8,0:0:0:0:
460,192,8546,1,0,0:0:0:0:
51,192,8768,1,8,0:0:0:0:
358,192,8768,1,0,0:0:0:0:
460,192,8768,1,0,0:0:0:0:
256,192,8990,1,4,0:0:0:0:
51,192,9212,1,2,0:0:0:0:
153,192,9212,1,0,0:0:0:0:
358,192,9435,1,4,0:0:0:0:
51,192,9657,1,8,0:0:0:0:
256,192,9657,1,0,0:0:0:0:
358,192,9657,1,0,0:0:0:0:
51,192,9879,1,4,0:0:0:0:
153,192,10101,1,2,0:0:0:0:
256,192,10101,1,0,0:0:0:0:
460,192,10101,1,0,0:0:0:0:
358,192,10323,1,4,0:0:0:0:
256,192,10546,1,8,0:0:0:0:
358,192,10546,1,0,0:0:0:0:
460,192,10546,1,0,0:0:0:0:
51,192,10768,128,4,11101:0:0:0:0:
153,192,10768,1,2,0:0:0:0:
460,192,10768,128,4,11101:0:1:0:0:
358,192,11212,1,4,0:0:0:0:
51,192,11212,1,2,0:0:0:0:
153,192,11435,1,8,0:0:0:0:
358,192,11435,1,0,0:0:0:0:
460,192,11435,1,0,0:0:0:0:
256,192,11657,1,4,0:0:0:0:
51,192,11879,1,2,0:0:0:0:
153,192,11879,1,0,0:0:0:0:
358,192,12101,1,4,0:0:0:0:
460,192,12101,1,2,0:0:0:0:
153,192,12323,1,8,0:0:0:0:
358,192,12323,1,0,0:0:0:0:
460,192,12323,1,0,0:0:0:0:
51,192,12546,128,4,12879:0:0:0:0:
358,192,12546,128,4,12879:0:1:0:0:
256,192,12546,1,2,0:0:0:0:
51,192,12990,1,4,0:0:0:0:
153,192,12990,1,2,0:0:0:0:
51,192,13212,1,8,0:0:0:0:
153,192,13212,1,0,0:0:0:0:
460,192,13212,1,0,0:0:0:0:
358,192,13435,1,4,0:0:0:0:
153,192,13657,1,2,0:0:0:0:
256,192,13657,1,0,0:0:0:0:
51,192,13879,1,4,0:0:0:0:
153,192,13879,1,8,0:0:0:0:
460,192,13879,1,0,0:0:0:0:
256,192,14101,1,8,0:0:0:0:
358,192,14101,1,0,0:0:0:0:
460,192,14101,1,0,0:0:0:0:
358,192,14323,1,4,0:0:0:0:
51,192,14546,1,2,0:0:0:0:
256,192,14546,1,4,0:1:0:0:
51,192,14768,1,4,0:0:0:0:
153,192,14990,1,8,0:0:0:0:
358,192,14990,1,0,0:0:0:0:
460,192,14990,1,0,0:0:0:0:
358,192,15212,1,4,0:0:0:0:
51,192,15435,1,2,0:0:0:0:
153,192,15435,1,0,0:0:0:0:
460,192,15435,1,0,0:0:0:0:
256,192,15657,1,4,0:0:0:0:
51,192,15879,1,8,0:0:0:0:
358,192,15879,1,0,0:0:0:0:
460,192,15879,1,0,0:0:0:0:
153,192,16101,128,4,16435:0:0:0:0:
460,192,16101,128,4,16435:0:1:0:0:
51,192,16101,1,2,0:0:0:0:
460,192,16546,1,2,0:0:0:0:
358,192,16546,1,4,0:0:0:0:
51,192,16768,1,8,0:0:0:0:
256,192,16768,1,0,0:0:0:0:
358,192,16768,1,0,0:0:0:0:
256,192,16990,1,4,0:0:0:0:
51,192,17212,1,2,0:0:0:0:
153,192,17212,1,0,0:0:0:0:
51,192,17435,1,2,0:0:0:0:
460,192,17435,1,4,0:0:0:0:
153,192,17657,1,8,0:0:0:0:
358,192,17657,1,0,0:0:0:0:
460,192,17657,1,0,0:0:0:0:
153,192,17879,128,2,18212:0:0:0:0:
256,192,17879,128,4,18212:0:0:0:0:
358,192,17879,1,4,0:1:0:0:
256,192,18323,1,2,0:0:0:0:
460,192,18323,1,4,0:0:0:0:
51,192,18546,1,8,0:0:0:0:
153,192,18546,1,0,0:0:0:0:
460,192,18546,1,0,0:0:0:0:
358,192,18768,1,4,0:0:0:0:
51,192,18990,1,2,0:0:0:0:
153,192,18990,1,0,0:0:0:0:
153,192,19212,1,8,0:0:0:0:
256,192,19212,1,4,0:0:0:0:
460,192,19212,1,0,0:0:0:0:
51,192,19435,1,8,0:0:0:0:
256,192,19435,1,0,0:0:0:0:
460,192,19435,1,0,0:0:0:0:
358,192,19657,1,4,0:0:0:0:
51,192,19879,1,2,0:0:0:0:
153,192,19879,1,0,0:0:0:0:
358,192,19879,1,0,0:0:0:0:
153,192,20101,1,4,0:0:0:0:
51,192,20323,1,8,0:0:0:0:
358,192,20323,1,0,0:0:0:0:
460,192,20323,1,0,0:0:0:0:
256,192,20546,1,4,0:0:0:0:
51,192,20768,1,2,0:0:0:0:
153,192,20768,1,0,0:0:0:0:
51,192,20990,1,4,0:0:0:0:
256,192,21212,1,8,0:0:0:0:
358,192,21212,1,0,0:0:0:0:
460,192,21212,1,0,0:0:0:0:
51,192,21435,128,2,21768:0:0:0:0:
460,192,21435,128,4,21768:0:1:0:0:
153,192,21435,1,4,0:0:0:0:
256,192,21879,1,2,0:0:0:0:
460,192,21879,1,4,0:0:0:0:
51,192,22101,1,8,0:0:0:0:
153,192,22101,1,0,0:0:0:0:
256,192,22101,1,0,0:0:0:0:
153,192,22323,1,4,0:0:0:0:
358,192,22546,1,2,0:0:0:0:
460,192,22546,1,0,0:0:0:0:
256,192,22768,1,2,0:0:0:0:
460,192,22768,1,4,0:0:0:0:
51,192,22990,1,8,0:0:0:0:
153,192,22990,1,0,0:0:0:0:
358,192,22990,1,0,0:0:0:0:
51,192,23212,128,2,23546:0:0:0:0:
256,192,23212,128,4,23546:0:0:0:0:
460,192,23212,1,4,0:1:0:0:
51,192,23657,1,2,0:0:0:0:
460,192,23657,1,4,0:0:0:0:
51,192,23879,1,8,0:0:0:0:
153,192,23879,1,0,0:0:0:0:
460,192,23879,1,0,0:0:0:0:
153,192,24101,1,4,0:0:0:0:
256,192,24323,1,2,0:0:0:0:
460,192,24323,1,0,0:0:0:0:
51,192,24546,1,8,0:0:0:0:
153,192,24546,1,4,0:0:0:0:
358,192,24546,1,4,0:1:0:0:
460,192,24546,1,0,0:0:0:0:
51,192,24768,1,8,0:0:0:0:
153,192,24768,1,0,0:0:0:0:
358,192,24768,1,0,0:0:0:0:
460,192,24768,1,0,0:0:0:0:
51,192,25212,1,2,0:0:0:0:
460,192,25212,1,4,0:1:0:0:
51,192,25323,1,0,0:0:0:0:
460,192,25323,1,0,0:0:0:0:
256,192,25435,1,4,0:0:0:0:
153,192,25657,1,8,0:0:0:0:
358,192,25657,1,0,0:0:0:0:
153,192,25768,1,0,0:0:0:0:
358,192,25768,1,0,0:0:0:0:
256,192,25879,1,4,0:0:0:0:
51,192,26101,1,2,0:0:0:0:
153,192,26101,1,0,0:0:0:0:
256,192,26212,1,0,0:0:0:0:
460,192,26323,1,4,0:0:0:0:
358,192,26435,1,0,0:0:0:0:
51,192,26546,1,8,0:0:0:0:
153,192,26546,1,0,0:0:0:0:
256,192,26546,1,0,0:0:0:0:
51,192,26768,1,2,0:0:0:0:
358,192,26768,1,4,0:1:0:0:
460,192,26768,1,4,0:0:0:0:
153,192,26879,1,0,0:0:0:0:
256,192,26990,1,2,0:2:0:0:
358,192,27101,1,0,0:0:0:0:
153,192,27212,1,2,0:0:0:0:
460,192,27212,1,4,0:0:0:0:
51,192,27323,1,0,0:0:0:0:
256,192,27435,1,8,0:0:0:0:
358,192,27435,1,0,0:0:0:0:
460,192,27435,1,0,0:0:0:0:
153,192,27546,1,0,0:0:0:0:
51,192,27657,1,6,0:0:0:0:
358,192,27657,1,4,0:1:0:0:
256,192,27768,1,0,0:0:0:0:
153,192,27879,1,2,0:2:0:0:
51,192,27990,1,0,0:0:0:0:
358,192,28101,1,2,0:0:0:0:
460,192,28101,1,4,0:0:0:0:
51,192,28323,1,8,0:0:0:0:
153,192,28323,1,0,0:0:0:0:
256,192,28323,1,0,0:0:0:0:
460,192,28323,1,0,0:0:0:0:
153,192,28546,1,2,0:0:0:0:
358,192,28546,1,4,0:0:0:0:
51,192,28768,1,2,0:0:0:0:
358,192,28768,1,0,0:0:0:0:
51,192,28879,1,0,0:0:0:0:
358,192,28879,1,0,0:0:0:0:
256,192,28990,1,4,0:0:0:0:
153,192,29212,1,8,0:0:0:0:
460,192,29212,1,0,0:0:0:0:
153,192,29323,1,0,0:0:0:0:
460,192,29323,1,0,0:0:0:0:
51,192,29435,1,4,0:0:0:0:
153,192,29657,1,2,0:0:0:0:
358,192,29657,1,0,0:0:0:0:
460,192,29657,1,0,0:0:0:0:
153,192,29879,1,2,0:0:0:0:
460,192,29879,1,4,0:0:0:0:
51,192,30101,1,8,0:0:0:0:
256,192,30101,1,0,0:0:0:0:
358,192,30101,1,0,0:0:0:0:
153,192,30323,1,4,0:0:0:0:
256,192,30435,1,0,0:0:0:0:
358,192,30546,1,2,0:0:0:0:
460,192,30546,1,0,0:0:0:0:
153,192,30657,1,0,0:0:0:0:
460,192,30768,1,4,0:0:0:0:
358,192,30879,1,0,0:0:0:0:
51,192,30990,1,8,0:0:0:0:
153,192,30990,1,0,0:0:0:0:
256,192,30990,1,0,0:0:0:0:
460,192,31101,1,0,0:0:0:0:
153,192,31212,1,4,0:0:0:0:
256,192,31323,1,0,0:0:0:0:
358,192,31435,1,2,0:0:0:0:
460,192,31435,1,0,0:0:0:0:
153,192,31546,1,0,0:0:0:0:
51,192,31657,1,2,0:0:0:0:
460,192,31657,1,4,0:0:0:0:
256,192,31768,1,0,0:0:0:0:
51,192,31879,1,8,0:0:0:0:
153,192,31879,1,0,0:0:0:0:
460,192,31879,1,0,0:0:0:0:
153,192,32101,1,2,0:0:0:0:
358,192,32101,1,4,0:0:0:0:
256,192,32323,1,2,0:0:0:0:
460,192,32323,1,4,0:1:0:0:
256,192,32435,1,0,0:0:0:0:
460,192,32435,1,0,0:0:0:0:
358,192,32546,1,4,0:0:0:0:
51,192,32768,1,4,0:1:0:0:
256,192,32768,1,8,0:0:0:0:
51,192,32879,1,0,0:0:0:0:
256,192,32879,1,0,0:0:0:0:
153,192,32990,1,4,0:0:0:0:
358,192,33212,1,2,0:0:0:0:
460,192,33212,1,0,0:0:0:0:
153,192,33323,1,0,0:0:0:0:
256,192,33435,1,4,0:0:0:0:
153,192,33546,1,0,0:0:0:0:
51,192,33657,1,8,0:0:0:0:
358,192,33657,1,0,0:0:0:0:
460,192,33657,1,0,0:0:0:0:
51,192,33879,1,2,0:0:0:0:
256,192,33879,1,4,0:1:0:0:
358,192,33879,1,4,0:0:0:0:
153,192,33990,1,0,0:0:0:0:
460,192,34101,1,0,0:0:0:0:
358,192,34212,1,0,0:0:0:0:
51,192,34323,1,2,0:0:0:0:
256,192,34323,1,4,0:0:0:0:
358,192,34435,1,0,0:0:0:0:
51,192,34546,1,8,0:0:0:0:
153,192,34546,1,0,0:0:0:0:
460,192,34546,1,0,0:0:0:0:
256,192,34657,1,0,0:0:0:0:
153,192,34768,1,6,0:0:0:0:
358,192,34768,1,4,0:1:0:0:
51,192,34879,1,0,0:0:0:0:
358,192,34990,1,2,0:2:0:0:
460,192,35101,1,0,0:0:0:0:
51,192,35212,1,2,0:0:0:0:
153,192,35212,1,4,0:0:0:0:
256,192,35323,1,0,0:0:0:0:
51,192,35435,1,8,0:0:0:0:
358,192,35435,1,0,0:0:0:0:
460,192,35435,1,0,0:0:0:0:
51,192,35657,1,2,0:0:0:0:
358,192,35657,1,4,0:0:0:0:
153,192,35879,1,2,0:0:0:0:
460,192,35879,1,0,0:0:0:0:
153,192,35990,1,0,0:0:0:0:
460,192,35990,1,0,0:0:0:0:
256,192,36101,1,4,0:0:0:0:
51,192,36323,1,8,0:0:0:0:
358,192,36323,1,4,0:1:0:0:
51,192,36435,1,0,0:0:0:0:
358,192,36435,1,0,0:0:0:0:
256,192,36546,1,4,0:0:0:0:
153,192,36768,1,2,0:0:0:0:
358,192,36768,1,0,0:0:0:0:
460,192,36768,1,0,0:0:0:0:
51,192,36990,1,2,0:0:0:0:
358,192,36990,1,4,0:0:0:0:
51,192,37212,1,8,0:0:0:0:
153,192,37212,1,0,0:0:0:0:
460,192,37212,1,0,0:0:0:0:
153,192,37435,1,4,0:0:0:0:
256,192,37546,1,0,0:0:0:0:
358,192,37657,128,2,37990:0:0:0:0:
460,192,37657,1,0,0:0:0:0:
153,192,37768,1,0,0:0:0:0:
51,192,37879,128,4,38212:0:0:0:0:
153,192,38101,1,8,0:0:0:0:
358,192,38101,1,0,0:0:0:0:
460,192,38101,128,0,38435:0:0:0:0:
256,192,38323,128,4,38657:0:0:0:0:
51,192,38546,128,2,38879:0:0:0:0:
153,192,38546,1,0,0:0:0:0:
358,192,38768,1,2,0:0:0:0:
460,192,38768,1,4,0:0:0:0:
358,192,38990,1,0,0:0:0:0:
51,192,38990,1,8,0:0:0:0:
153,192,38990,1,0,0:0:0:0:
51,192,39212,1,2,0:0:0:0:
256,192,39212,1,4,0:0:0:0:
153,192,39435,1,2,0:0:0:0:
358,192,39435,1,4,0:1:0:0:
153,192,39546,1,0,0:0:0:0:
358,192,39546,1,0,0:0:0:0:
256,192,39657,1,4,0:0:0:0:
51,192,39879,1,8,0:0:0:0:
460,192,39879,1,4,0:1:0:0:
51,192,39990,1,0,0:0:0:0:
460,192,39990,1,0,0:0:0:0:
256,192,40101,1,4,0:0:0:0:
358,192,40323,1,2,0:0:0:0:
460,192,40323,1,0,0:0:0:0:
256,192,40435,1,0,0:0:0:0:
51,192,40546,1,4,0:0:0:0:
153,192,40657,1,0,0:0:0:0:
256,192,40768,1,8,0:0:0:0:
358,192,40768,1,0,0:0:0:0:
460,192,40768,1,0,0:0:0:0:
51,192,40990,1,2,0:0:0:0:
153,192,40990,1,4,0:1:0:0:
460,192,40990,1,4,0:0:0:0:
358,192,41101,1,0,0:0:0:0:
256,192,41212,1,2,0:2:0:0:
153,192,41323,1,0,0:0:0:0:
51,192,41435,1,2,0:0:0:0:
358,192,41435,1,4,0:0:0:0:
460,192,41546,1,0,0:0:0:0:
51,192,41657,1,8,0:0:0:0:
153,192,41657,1,0,0:0:0:0:
256,192,41657,1,0,0:0:0:0:
358,192,41768,1,0,0:0:0:0:
51,192,41879,1,6,0:0:0:0:
460,192,41879,1,4,0:1:0:0:
153,192,41990,1,0,0:0:0:0:
256,192,42101,1,2,0:2:0:0:
460,192,42212,1,0,0:0:0:0:
51,192,42323,1,2,0:0:0:0:
153,192,42323,1,4,0:0:0:0:
51,192,42546,1,8,0:0:0:0:
256,192,42546,1,0,0:0:0:0:
358,192,42546,1,0,0:0:0:0:
460,192,42546,1,0,0:0:0:0:
153,192,42768,1,2,0:0:0:0:
358,192,42768,1,4,0:0:0:0:
51,192,42990,1,2,0:0:0:0:
153,192,42990,1,0,0:0:0:0:
51,192,43101,1,0,0:0:0:0:
153,192,43101,1,0,0:0:0:0:
256,192,43212,1,4,0:0:0:0:
358,192,43435,1,8,0:0:0:0:
460,192,43435,1,0,0:0:0:0:
358,192,43546,1,0,0:0:0:0:
460,192,43546,1,0,0:0:0:0:
256,192,43657,1,4,0:0:0:0:
51,192,43879,1,2,0:0:0:0:
153,192,43879,1,0,0:0:0:0:
358,192,43879,1,0,0:0:0:0:
51,192,44101,1,2,0:0:0:0:
358,192,44101,1,4,0:0:0:0:
153,192,44323,1,8,0:0:0:0:
256,192,44323,1,0,0:0:0:0:
460,192,44323,1,0,0:0:0:0:
460,192,44546,1,4,0:0:0:0:
358,192,44657,1,0,0:0:0:0:
51,192,44768,1,2,0:0:0:0:
153,192,44768,1,0,0:0:0:0:
358,192,44879,1,0,0:0:0:0:
153,192,44990,1,4,0:0:0:0:
51,192,45101,1,0,0:0:0:0:
256,192,45212,1,8,0:0:0:0:
358,192,45212,1,0,0:0:0:0:
460,192,45212,1,0,0:0:0:0:
153,192,45323,1,0,0:0:0:0:
358,192,45435,1,4,0:0:0:0:
256,192,45546,1,0,0:0:0:0:
51,192,45657,1,2,0:0:0:0:
153,192,45657,1,0,0:0:0:0:
358,192,45768,1,0,0:0:0:0:
51,192,45879,1,4,0:0:0:0:
460,192,45879,1,2,0:0:0:0:
256,192,45990,1,0,0:0:0:0:
51,192,46101,1,8,0:0:0:0:
358,192,46101,1,0,0:0:0:0:
460,192,46101,1,0,0:0:0:0:
153,192,46323,1,2,0:0:0:0:
460,192,46323,1,4,0:0:0:0:
256,192,46546,1,2,0:0:0:0:
358,192,46546,1,4,0:1:0:0:
256,192,46657,1,0,0:0:0:0:
358,192,46657,1,0,0:0:0:0:
460,192,46768,1,4,0:0:0:0:
153,192,46990,1,4,0:1:0:0:
256,192,46990,1,8,0:0:0:0:
153,192,47101,1,0,0:0:0:0:
256,192,47101,1,0,0:0:0:0:
460,192,47212,1,4,0:0:0:0:
51,192,47435,1,2,0:0:0:0:
358,192,47435,1,0,0:0:0:0:
153,192,47546,1,0,0:0:0:0:
358,192,47657,1,4,0:0:0:0:
256,192,47768,1,0,0:0:0:0:
51,192,47879,1,8,0:0:0:0:
358,192,47879,1,0,0:0:0:0:
460,192,47879,1,0,0:0:0:0:
153,192,48101,1,6,0:0:0:0:
460,192,48101,1,4,0:1:0:0:
256,192,48212,1,0,0:0:0:0:
51,192,48323,1,2,0:2:0:0:
153,192,48435,1,0,0:0:0:0:
256,192,48546,1,2,0:0:0:0:
460,192,48546,1,4,0:0:0:0:
153,192,48657,1,0,0:0:0:0:
51,192,48768,1,8,0:0:0:0:
358,192,48768,1,0,0:0:0:0:
460,192,48768,1,0,0:0:0:0:
256,192,48879,1,0,0:0:0:0:
153,192,48990,1,6,0:0:0:0:
358,192,48990,1,4,0:1:0:0:
460,192,49101,1,0,0:0:0:0:
153,192,49212,1,2,0:2:0:0:
51,192,49323,1,0,0:0:0:0:
358,192,49435,1,2,0:0:0:0:
460,192,49435,1,4,0:0:0:0:
256,192,49546,1,0,0:0:0:0:
51,192,49657,1,8,0:0:0:0:
153,192,49657,1,0,0:0:0:0:
460,192,49657,1,0,0:0:0:0:
153,192,49879,1,2,0:0:0:0:
460,192,49879,1,4,0:0:0:0:
51,192,50101,1,2,0:0:0:0:
358,192,50101,1,0,0:0:0:0:
51,192,50212,1,0,0:0:0:0:
358,192,50212,1,0,0:0:0:0:
256,192,50323,1,4,0:0:0:0:
153,192,50546,1,8,0:0:0:0:
460,192,50546,1,4,0:1:0:0:
153,192,50657,1,0,0:0:0:0:
460,192,50657,1,0,0:0:0:0:
256,192,50768,1,4,0:0:0:0:
51,192,50990,1,2,0:0:0:0:
358,192,50990,1,0,0:0:0:0:
51,192,51212,1,2,0:0:0:0:
358,192,51212,1,4,0:0:0:0:
460,192,51435,1,8,0:0:0:0:
256,192,51435,1,0,0:0:0:0:
153,192,51435,1,0,0:0:0:0:
358,192,51657,1,4,0:0:0:0:
256,192,51768,1,0,0:0:0:0:
51,192,51879,1,2,0:0:0:0:
153,192,51879,1,0,0:0:0:0:
358,192,51990,1,0,0:0:0:0:
460,192,52101,1,4,0:0:0:0:
153,192,52212,1,0,0:0:0:0:
51,192,52323,1,8,0:0:0:0:
358,192,52323,1,0,0:0:0:0:
460,192,52323,1,0,0:0:0:0:
256,192,52435,1,0,0:0:0:0:
51,192,52546,1,4,0:0:0:0:
153,192,52657,1,0,0:0:0:0:
358,192,52768,1,2,0:0:0:0:
460,192,52768,1,0,0:0:0:0:
256,192,52879,1,0,0:0:0:0:
51,192,52990,1,8,0:0:0:0:
153,192,52990,1,4,0:1:0:0:
358,192,52990,1,4,0:0:0:0:
460,192,52990,1,0,0:0:0:0:
51,192,53212,128,8,53546:0:0:0:0:
153,192,53212,128,0,53546:0:0:0:0:
358,192,53212,128,0,53546:0:0:0:0:
460,192,53212,128,0,53546:0:0:0:0:
51,192,53657,1,2,0:0:0:0:
153,192,53657,1,4,0:1:0:0:
153,192,53879,1,4,0:0:0:0:
51,192,54101,1,8,0:0:0:0:
358,192,54101,1,0,0:0:0:0:
460,192,54101,1,0,0:0:0:0:
256,192,54323,1,4,0:0:0:0:
153,192,54546,1,2,0:0:0:0:
460,192,54546,1,0,0:0:0:0:
153,192,54768,1,4,0:0:0:0:
51,192,54990,1,8,0:0:0:0:
256,192,54990,1,0,0:0:0:0:
358,192,54990,1,0,0:0:0:0:
153,192,55212,128,4,55546:0:0:0:0:
358,192,55212,128,2,55546:0:0:0:0:
460,192,55212,1,4,0:1:0:0:
153,192,55657,1,4,0:0:0:0:
256,192,55657,1,2,0:0:0:0:
51,192,55879,1,8,0:0:0:0:
153,192,55879,1,0,0:0:0:0:
460,192,55879,1,0,0:0:0:0:
358,192,56101,1,4,0:0:0:0:
51,192,56323,1,2,0:0:0:0:
256,192,56323,1,0,0:0:0:0:
153,192,56546,1,4,0:0:0:0:
358,192,56546,1,2,0:0:0:0:
51,192,56768,1,8,0:0:0:0:
153,192,56768,1,0,0:0:0:0:
460,192,56768,1,0,0:0:0:0:
51,192,56990,128,4,57323:0:0:0:0:
256,192,56990,1,2,0:0:0:0:
358,192,56990,128,4,57323:0:1:0:0:
153,192,57435,1,4,0:0:0:0:
256,192,57435,1,2,0:0:0:0:
51,192,57657,1,8,0:0:0:0:
358,192,57657,1,0,0:0:0:0:
460,192,57657,1,0,0:0:0:0:
153,192,57879,1,4,0:0:0:0:
256,192,58101,1,2,0:0:0:0:
460,192,58101,1,0,0:0:0:0:
51,192,58323,1,4,0:0:0:0:
153,192,58323,1,8,0:0:0:0:
256,192,58323,128,0,58768:0:0:0:0:
51,192,58546,1,8,0:0:0:0:
153,192,58546,1,0,0:0:0:0:
358,192,58546,128,0,58990:0:0:0:0:
153,192,58768,1,4,0:0:0:0:
460,192,58768,128,0,59212:0:0:0:0:
51,192,58990,1,2,0:0:0:0:
256,192,58990,1,0,0:0:0:0:
358,192,59212,1,4,0:0:0:0:
51,192,59435,1,8,0:0:0:0:
358,192,59435,1,0,0:0:0:0:
460,192,59435,1,0,0:0:0:0:
256,192,59657,1,4,0:0:0:0:
51,192,59879,1,2,0:0:0:0:
358,192,59879,1,0,0:0:0:0:
51,192,60101,1,4,0:0:0:0:
153,192,60323,1,8,0:0:0:0:
358,192,60323,1,0,0:0:0:0:
460,192,60323,1,0,0:0:0:0:
51,192,60546,1,4,0:0:0:0:
153,192,60546,128,2,60879:0:0:0:0:
460,192,60546,128,4,60879:0:1:0:0:
256,192,60990,1,4,0:0:0:0:
460,192,60990,1,2,0:0:0:0:
51,192,61212,1,8,0:0:0:0:
153,192,61212,1,0,0:0:0:0:
358,192,61212,1,0,0:0:0:0:
153,192,61435,1,4,0:0:0:0:
358,192,61657,1,2,0:0:0:0:
460,192,61657,1,0,0:0:0:0:
51,192,61879,1,4,0:0:0:0:
153,192,61879,1,2,0:0:0:0:
51,192,62101,1,8,0:0:0:0:
153,192,62101,1,0,0:0:0:0:
460,192,62101,1,0,0:0:0:0:
153,192,62323,1,4,0:0:0:0:
256,192,62323,128,2,62657:0:0:0:0:
460,192,62323,128,4,62657:0:1:0:0:
153,192,62768,1,4,0:0:0:0:
460,192,62768,1,2,0:0:0:0:
51,192,62990,1,8,0:0:0:0:
358,192,62990,1,0,0:0:0:0:
460,192,62990,1,0,0:0:0:0:
256,192,63212,1,4,0:0:0:0:
153,192,63435,1,2,0:0:0:0:
358,192,63435,1,0,0:0:0:0:
51,192,63657,1,4,0:0:0:0:
256,192,63657,1,8,0:0:0:0:
460,192,63657,1,0,0:0:0:0:
51,192,63879,1,8,0:0:0:0:
256,192,63879,1,0,0:0:0:0:
460,192,63879,1,0,0:0:0:0:
153,192,64101,128,4,64435:0:0:0:0:
358,192,64101,1,0,0:0:0:0:
358,192,64323,1,2,0:0:0:0:
460,192,64323,1,4,0:1:0:0:
153,192,64546,1,4,0:0:0:0:
51,192,64768,1,8,0:0:0:0:
256,192,64768,1,0,0:0:0:0:
358,192,64768,1,0,0:0:0:0:
256,192,64990,1,4,0:0:0:0:
51,192,65212,1,2,0:0:0:0:
460,192,65212,1,0,0:0:0:0:
51,192,65435,1,4,0:0:0:0:
153,192,65657,1,8,0:0:0:0:
256,192,65657,1,0,0:0:0:0:
460,192,65657,1,0,0:0:0:0:
358,192,65879,128,6,66212:0:0:0:0:
460,192,65879,128,4,66212:0:1:0:0:
51,192,65879,1,0,0:0:0:0:
153,192,66323,1,2,0:0:0:0:
358,192,66323,1,4,0:0:0:0:
51,192,66546,1,8,0:0:0:0:
153,192,66546,1,0,0:0:0:0:
358,192,66546,1,0,0:0:0:0:
256,192,66768,1,4,0:0:0:0:
358,192,66990,1,2,0:0:0:0:
460,192,66990,1,0,0:0:0:0:
51,192,67212,1,2,0:0:0:0:
358,192,67212,1,4,0:0:0:0:
51,192,67435,1,8,0:0:0:0:
153,192,67435,1,0,0:0:0:0:
460,192,67435,1,0,0:0:0:0:
153,192,67657,128,6,67990:0:0:0:0:
358,192,67657,128,4,67990:0:1:0:0:
460,192,67657,1,0,0:0:0:0:
51,192,68101,1,2,0:0:0:0:
358,192,68101,1,4,0:0:0:0:
51,192,68323,1,8,0:0:0:0:
256,192,68323,1,0,0:0:0:0:
460,192,68323,1,0,0:0:0:0:
153,192,68546,1,4,0:0:0:0:
256,192,68768,1,2,0:0:0:0:
460,192,68768,1,0,0:0:0:0:
51,192,68990,1,8,0:0:0:0:
358,192,68990,1,4,0:0:0:0:
460,192,68990,128,0,69435:0:0:0:0:
51,192,69212,1,8,0:0:0:0:
256,192,69212,1,0,0:0:0:0:
358,192,69212,128,0,69657:0:0:0:0:
153,192,69435,1,4,0:0:0:0:
256,192,69435,128,0,69879:0:0:0:0:
51,192,69657,1,2,0:0:0:0:
153,192,69657,1,0,0:0:0:0:
358,192,69879,1,4,0:0:0:0:
51,192,70101,1,8,0:0:0:0:
153,192,70101,1,0,0:0:0:0:
460,192,70101,1,0,0:0:0:0:
51,192,70323,1,4,0:0:0:0:
358,192,70546,1,2,0:0:0:0:
460,192,70546,1,0,0:0:0:0:
256,192,70768,1,4,0:0:0:0:
51,192,70990,1,8,0:0:0:0:
256,192,70990,1,0,0:0:0:0:
358,192,70990,1,0,0:0:0:0:
51,192,71212,128,6,71546:0:0:0:0:
153,192,71212,128,4,71546:0:1:0:0:
460,192,71212,1,0,0:0:0:0:
153,192,71657,1,2,0:0:0:0:
358,192,71657,1,4,0:0:0:0:
256,192,71879,1,8,0:0:0:0:
358,192,71879,1,0,0:0:0:0:
460,192,71879,1,0,0:0:0:0:
153,192,72101,1,4,0:0:0:0:
51,192,72323,1,2,0:0:0:0:
460,192,72323,1,0,0:0:0:0:
153,192,72546,1,2,0:0:0:0:
358,192,72546,1,4,0:0:0:0:
153,192,72768,1,8,0:0:0:0:
358,192,72768,1,0,0:0:0:0:
460,192,72768,1,0,0:0:0:0:
51,192,72990,128,2,73323:0:0:0:0:
256,192,72990,128,4,73323:0:0:0:0:
460,192,72990,1,4,0:1:0:0:
51,192,73435,1,2,0:0:0:0:
358,192,73435,1,4,0:0:0:0:
153,192,73657,1,8,0:0:0:0:
358,192,73657,128,0,73879:0:0:0:0:
460,192,73657,1,0,0:0:0:0:
153,192,73879,1,4,0:0:0:0:
51,192,74101,1,2,0:0:0:0:
256,192,74101,1,0,0:0:0:0:
460,192,74101,1,0,0:0:0:0:
51,192,74323,1,8,0:0:0:0:
153,192,74323,1,4,0:0:0:0:
358,192,74323,1,4,0:1:0:0:
460,192,74323,1,0,0:0:0:0:
51,192,74546,128,8,74879:0:0:0:0:
153,192,74546,128,0,74879:0:0:0:0:
358,192,74546,128,0,74879:0:0:0:0:
460,192,74546,128,0,74879:0:0:0:0:
51,192,74990,1,4,0:1:0:0:
358,192,74990,1,2,0:0:0:0:
51,192,75101,1,0,0:0:0:0:
358,192,75101,1,0,0:0:0:0:
153,192,75212,1,4,0:0:0:0:
153,192,75435,1,8,0:0:0:0:
460,192,75435,1,0,0:0:0:0:
153,192,75546,1,0,0:0:0:0:
460,192,75546,1,0,0:0:0:0:
358,192,75657,1,4,0:0:0:0:
51,192,75879,1,2,0:0:0:0:
358,192,75879,1,0,0:0:0:0:
153,192,75990,1,0,0:0:0:0:
358,192,76101,1,4,0:0:0:0:
256,192,76212,1,0,0:0:0:0:
51,192,76323,1,8,0:0:0:0:
153,192,76323,1,0,0:0:0:0:
460,192,76323,1,0,0:0:0:0:
51,192,76546,1,6,0:0:0:0:
460,192,76546,1,4,0:1:0:0:
358,192,76657,1,0,0:0:0:0:
256,192,76768,1,2,0:2:0:0:
358,192,76879,1,0,0:0:0:0:
51,192,76990,1,4,0:0:0:0:
460,192,76990,1,2,0:0:0:0:
153,192,77101,1,0,0:0:0:0:
256,192,77212,1,8,0:0:0:0:
358,192,77212,1,0,0:0:0:0:
460,192,77212,1,0,0:0:0:0:
153,192,77323,1,0,0:0:0:0:
51,192,77435,1,6,0:0:0:0:
358,192,77435,1,4,0:1:0:0:
256,192,77546,1,0,0:0:0:0:
153,192,77657,1,2,0:2:0:0:
51,192,77768,1,0,0:0:0:0:
358,192,77879,1,4,0:0:0:0:
460,192,77879,1,2,0:0:0:0:
153,192,77990,1,0,0:0:0:0:
51,192,78101,1,8,0:0:0:0:
256,192,78101,1,0,0:0:0:0:
358,192,78101,1,0,0:0:0:0:
153,192,78323,1,4,0:0:0:0:
460,192,78323,1,2,0:0:0:0:
153,192,78546,1,2,0:0:0:0:
358,192,78546,1,0,0:0:0:0:
153,192,78657,1,0,0:0:0:0:
358,192,78657,1,0,0:0:0:0:
256,192,78768,1,4,0:0:0:0:
51,192,78990,1,8,0:0:0:0:
460,192,78990,1,0,0:0:0:0:
51,192,79101,1,0,0:0:0:0:
460,192,79101,1,0,0:0:0:0:
256,192,79212,1,4,0:0:0:0:
51,192,79435,1,2,0:0:0:0:
153,192,79435,1,0,0:0:0:0:
358,192,79546,1,0,0:0:0:0:
153,192,79657,1,4,0:0:0:0:
460,192,79657,1,2,0:0:0:0:
256,192,79768,1,0,0:0:0:0:
51,192,79879,1,8,0:0:0:0:
358,192,79879,1,0,0:0:0:0:
460,192,79879,1,0,0:0:0:0:
358,192,80101,1,4,0:0:0:0:
153,192,80212,1,0,0:0:0:0:
51,192,80323,1,2,0:0:0:0:
460,192,80323,1,0,0:0:0:0:
256,192,80435,1,0,0:0:0:0:
358,192,80546,1,4,0:0:0:0:
460,192,80657,1,0,0:0:0:0:
51,192,80768,1,8,0:0:0:0:
153,192,80768,1,0,0:0:0:0:
256,192,80768,1,0,0:0:0:0:
460,192,80879,1,0,0:0:0:0:
358,192,80990,1,4,0:0:0:0:
256,192,81101,1,0,0:0:0:0:
153,192,81212,1,2,0:0:0:0:
460,192,81212,1,0,0:0:0:0:
358,192,81323,1,0,0:0:0:0:
51,192,81435,1,4,0:0:0:0:
256,192,81435,1,2,0:0:0:0:
153,192,81546,1,0,0:0:0:0:
51,192,81657,1,8,0:0:0:0:
358,192,81657,1,0,0:0:0:0:
460,192,81657,1,0,0:0:0:0:
153,192,81879,1,4,0:0:0:0:
358,192,81879,1,2,0:0:0:0:
153,192,82101,1,4,0:1:0:0:
460,192,82101,1,2,0:0:0:0:
153,192,82212,1,0,0:0:0:0:
460,192,82212,1,0,0:0:0:0:
256,192,82323,1,4,0:0:0:0:
51,192,82546,1,8,0:0:0:0:
358,192,82546,1,4,0:1:0:0:
51,192,82657,1,0,0:0:0:0:
358,192,82657,1,0,0:0:0:0:
256,192,82768,1,4,0:0:0:0:
51,192,82990,1,2,0:0:0:0:
460,192,82990,1,0,0:0:0:0:
153,192,83101,1,0,0:0:0:0:
358,192,83212,1,4,0:0:0:0:
256,192,83323,1,0,0:0:0:0:
51,192,83435,1,8,0:0:0:0:
153,192,83435,1,0,0:0:0:0:
460,192,83435,1,0,0:0:0:0:
51,192,83657,1,6,0:0:0:0:
460,192,83657,1,4,0:1:0:0:
153,192,83768,1,0,0:0:0:0:
358,192,83879,1,2,0:2:0:0:
256,192,83990,1,0,0:0:0:0:
153,192,84101,1,4,0:0:0:0:
460,192,84101,1,2,0:0:0:0:
51,192,84212,1,0,0:0:0:0:
358,192,84323,1,8,0:0:0:0:
460,192,84323,1,0,0:0:0:0:
256,192,84435,1,0,0:0:0:0:
51,192,84546,1,6,0:0:0:0:
358,192,84546,1,4,0:1:0:0:
153,192,84657,1,0,0:0:0:0:
256,192,84768,1,2,0:2:0:0:
460,192,84879,1,0,0:0:0:0:
51,192,84990,1,4,0:0:0:0:
256,192,84990,1,2,0:0:0:0:
153,192,85101,1,0,0:0:0:0:
51,192,85212,1,8,0:0:0:0:
358,192,85212,1,0,0:0:0:0:
460,192,85212,1,0,0:0:0:0:
51,192,85435,1,4,0:0:0:0:
256,192,85435,1,2,0:0:0:0:
358,192,85657,1,2,0:0:0:0:
460,192,85657,1,0,0:0:0:0:
358,192,85768,1,0,0:0:0:0:
460,192,85768,1,0,0:0:0:0:
256,192,85879,1,4,0:0:0:0:
153,192,86101,1,4,0:1:0:0:
256,192,86101,1,8,0:0:0:0:
153,192,86212,1,0,0:0:0:0:
256,192,86212,1,0,0:0:0:0:
51,192,86323,1,4,0:0:0:0:
51,192,86546,1,2,0:0:0:0:
460,192,86546,1,0,0:0:0:0:
153,192,86657,1,0,0:0:0:0:
358,192,86768,1,4,0:0:0:0:
460,192,86768,1,2,0:0:0:0:
256,192,86879,1,0,0:0:0:0:
51,192,86990,1,8,0:0:0:0:
153,192,86990,1,0,0:0:0:0:
358,192,86990,1,0,0:0:0:0:
51,192,87212,1,4,0:0:0:0:
153,192,87323,1,0,0:0:0:0:
358,192,87435,1,2,0:0:0:0:
460,192,87435,1,0,0:0:0:0:
51,192,87546,1,0,0:0:0:0:
256,192,87657,1,4,0:0:0:0:
153,192,87768,1,0,0:0:0:0:
51,192,87879,1,8,0:0:0:0:
358,192,87879,1,0,0:0:0:0:
460,192,87879,1,0,0:0:0:0:
256,192,87990,1,0,0:0:0:0:
358,192,88101,1,4,0:0:0:0:
153,192,88212,1,0,0:0:0:0:
51,192,88323,1,2,0:0:0:0:
256,192,88323,1,0,0:0:0:0:
358,192,88435,1,0,0:0:0:0:
153,192,88546,1,4,0:0:0:0:
460,192,88546,1,2,0:0:0:0:
51,192,88657,1,0,0:0:0:0:
256,192,88768,1,8,0:0:0:0:
358,192,88768,1,0,0:0:0:0:
460,192,88768,1,0,0:0:0:0:
51,192,88990,1,4,0:0:0:0:
358,192,88990,1,2,0:0:0:0:
153,192,89212,1,4,0:1:0:0:
460,192,89212,1,2,0:0:0:0:
153,192,89323,1,0,0:0:0:0:
460,192,89323,1,0,0:0:0:0:
256,192,89435,1,4,0:0:0:0:
51,192,89657,1,4,0:1:0:0:
358,192,89657,1,8,0:0:0:0:
51,192,89768,1,0,0:0:0:0:
358,192,89768,1,0,0:0:0:0:
153,192,89879,1,4,0:0:0:0:
51,192,90101,1,2,0:0:0:0:
460,192,90101,1,0,0:0:0:0:
358,192,90212,1,0,0:0:0:0:
153,192,90323,1,4,0:0:0:0:
256,192,90435,1,0,0:0:0:0:
51,192,90546,1,8,0:0:0:0:
358,192,90546,1,0,0:0:0:0:
460,192,90546,1,0,0:0:0:0:
51,192,90768,1,6,0:0:0:0:
460,192,90768,1,4,0:1:0:0:
153,192,90879,1,0,0:0:0:0:
256,192,90990,1,2,0:2:0:0:
153,192,91101,1,0,0:0:0:0:
51,192,91212,1,4,0:0:0:0:
460,192,91212,1,2,0:0:0:0:
358,192,91323,1,0,0:0:0:0:
51,192,91435,1,8,0:0:0:0:
153,192,91435,1,0,0:0:0:0:
256,192,91435,1,0,0:0:0:0:
358,192,91546,1,0,0:0:0:0:
153,192,91657,1,6,0:0:0:0:
460,192,91657,1,4,0:1:0:0:
256,192,91768,1,0,0:0:0:0:
358,192,91879,1,2,0:2:0:0:
460,192,91990,1,0,0:0:0:0:
51,192,92101,1,4,0:0:0:0:
153,192,92101,1,2,0:0:0:0:
358,192,92212,1,0,0:0:0:0:
153,192,92323,1,8,0:0:0:0:
256,192,92323,1,0,0:0:0:0:
460,192,92323,1,0,0:0:0:0:
51,192,92546,1,4,0:0:0:0:
358,192,92546,1,2,0:0:0:0:
51,192,92768,1,2,0:0:0:0:
256,192,92768,1,0,0:0:0:0:
51,192,92879,1,0,0:0:0:0:
256,192,92879,1,0,0:0:0:0:
358,192,92990,1,4,0:0:0:0:
256,192,93212,1,8,0:0:0:0:
460,192,93212,1,0,0:0:0:0:
256,192,93323,1,0,0:0:0:0:
460,192,93323,1,0,0:0:0:0:
153,192,93435,1,4,0:0:0:0:
358,192,93657,1,2,0:0:0:0:
460,192,93657,1,0,0:0:0:0:
153,192,93768,1,0,0:0:0:0:
51,192,93879,1,4,0:0:0:0:
358,192,93879,1,2,0:0:0:0:
256,192,93990,1,0,0:0:0:0:
51,192,94101,1,8,0:0:0:0:
153,192,94101,1,0,0:0:0:0:
460,192,94101,1,0,0:0:0:0:
153,192,94323,1,4,0:0:0:0:
358,192,94435,1,0,0:0:0:0:
51,192,94546,1,2,0:0:0:0:
460,192,94546,1,0,0:0:0:0:
256,192,94657,1,0,0:0:0:0:
51,192,94768,1,4,0:0:0:0:
153,192,94879,1,0,0:0:0:0:
51,192,94990,1,8,0:0:0:0:
358,192,94990,1,0,0:0:0:0:
460,192,94990,1,0,0:0:0:0:
256,192,95101,1,0,0:0:0:0:
153,192,95212,1,4,0:0:0:0:
358,192,95323,1,0,0:0:0:0:
51,192,95435,1,2,0:0:0:0:
460,192,95435,1,0,0:0:0:0:
153,192,95546,1,0,0:0:0:0:
51,192,95657,1,4,0:0:0:0:
358,192,95657,1,2,0:0:0:0:
256,192,95768,1,0,0:0:0:0:
51,192,95879,1,8,0:0:0:0:
153,192,95879,1,0,0:0:0:0:
460,192,95879,1,0,0:0:0:0:
153,192,96101,1,4,0:0:0:0:
358,192,96101,1,2,0:0:0:0:
51,192,96323,1,4,0:1:0:0:
460,192,96323,1,2,0:0:0:0:
51,192,96435,1,0,0:0:0:0:
460,192,96435,1,0,0:0:0:0:
256,192,96546,1,4,0:0:0:0:
51,192,96768,1,8,0:0:0:0:
460,192,96768,1,4,0:1:0:0:
51,192,96879,1,0,0:0:0:0:
460,192,96879,1,0,0:0:0:0:
256,192,96990,1,4,0:0:0:0:
51,192,97212,1,2,0:0:0:0:
460,192,97212,1,0,0:0:0:0:
358,192,97323,1,0,0:0:0:0:
153,192,97435,1,4,0:0:0:0:
256,192,97546,1,0,0:0:0:0:
51,192,97657,1,8,0:0:0:0:
358,192,97657,1,0,0:0:0:0:
460,192,97657,1,0,0:0:0:0:
51,192,97879,1,6,0:0:0:0:
460,192,97879,1,4,0:1:0:0:
358,192,97990,1,0,0:0:0:0:
153,192,98101,1,2,0:2:0:0:
256,192,98212,1,0,0:0:0:0:
51,192,98323,1,4,0:0:0:0:
358,192,98323,1,2,0:0:0:0:
460,192,98435,1,0,0:0:0:0:
51,192,98546,1,8,0:0:0:0:
153,192,98546,1,0,0:0:0:0:
256,192,98657,1,0,0:0:0:0:
153,192,98768,1,6,0:0:0:0:
460,192,98768,1,4,0:1:0:0:
358,192,98879,1,0,0:0:0:0:
153,192,98990,1,2,0:2:0:0:
51,192,99101,1,0,0:0:0:0:
256,192,99212,1,4,0:0:0:0:
460,192,99212,1,2,0:0:0:0:
358,192,99323,1,0,0:0:0:0:
51,192,99435,1,8,0:0:0:0:
153,192,99435,1,0,0:0:0:0:
460,192,99435,1,0,0:0:0:0:
153,192,99657,1,4,0:0:0:0:
460,192,99657,1,2,0:0:0:0:
51,192,99879,1,2,0:0:0:0:
256,192,99879,1,0,0:0:0:0:
51,192,99990,1,0,0:0:0:0:
256,192,99990,1,0,0:0:0:0:
358,192,100101,1,4,0:0:0:0:
256,192,100323,1,4,0:1:0:0:
460,192,100323,1,8,0:0:0:0:
256,192,100435,1,0,0:0:0:0:
460,192,100435,1,0,0:0:0:0:
153,192,100546,1,4,0:0:0:0:
51,192,100768,1,2,0:0:0:0:
460,192,100768,1,0,0:0:0:0:
358,192,100879,1,0,0:0:0:0:
51,192,100990,1,4,0:0:0:0:
153,192,100990,1,2,0:0:0:0:
256,192,101101,1,0,0:0:0:0:
51,192,101212,1,8,0:0:0:0:
358,192,101212,1,0,0:0:0:0:
460,192,101212,1,0,0:0:0:0:
153,192,101435,1,4,0:0:0:0:
256,192,101546,1,0,0:0:0:0:
51,192,101657,1,2,0:0:0:0:
153,192,101657,1,0,0:0:0:0:
460,192,101768,1,0,0:0:0:0:
256,192,101879,1,4,0:0:0:0:
358,192,101990,1,0,0:0:0:0:
51,192,102101,1,8,0:0:0:0:
153,192,102101,1,0,0:0:0:0:
460,192,102101,1,0,0:0:0:0:
256,192,102212,1,0,0:0:0:0:
51,192,102323,1,4,0:0:0:0:
358,192,102435,1,0,0:0:0:0:
153,192,102546,1,2,0:0:0:0:
460,192,102546,1,0,0:0:0:0:
256,192,102657,1,0,0:0:0:0:
51,192,102768,1,4,0:0:0:0:
153,192,102768,1,4,0:1:0:0:
358,192,102768,1,8,0:0:0:0:
460,192,102768,1,0,0:0:0:0:
51,192,102990,1,8,0:0:0:0:
153,192,102990,1,0,0:0:0:0:
358,192,102990,1,0,0:0:0:0:
460,192,102990,1,0,0:0:0:0:
51,192,103435,1,2,0:0:0:0:
460,192,103435,1,0,0:0:0:0:
153,192,103546,1,0,0:0:0:0:
460,192,103657,1,4,0:0:0:0:
358,192,103768,1,0,0:0:0:0:
51,192,103879,1,8,0:1:0:0:
153,192,103879,1,0,0:0:0:0:
256,192,103879,1,0,0:0:0:0:
460,192,103990,1,0,0:0:0:0:
51,192,104101,1,4,0:0:0:0:
153,192,104212,1,0,0:0:0:0:
358,192,104323,1,2,0:0:0:0:
460,192,104323,1,0,0:0:0:0:
256,192,104435,1,0,0:0:0:0:
153,192,104546,1,4,0:0:0:0:
358,192,104657,1,0,0:0:0:0:
51,192,104768,1,8,0:1:0:0:
153,192,104768,1,0,0:0:0:0:
460,192,104768,1,0,0:0:0:0:
256,192,104879,1,0,0:0:0:0:
51,192,104990,1,2,0:0:0:0:
358,192,104990,1,4,0:0:0:0:
460,192,105064,1,0,0:0:0:0:
256,192,105138,1,0,0:0:0:0:
358,192,105212,1,2,0:2:0:0:
153,192,105286,1,0,0:0:0:0:
256,192,105361,1,0,0:0:0:0:
51,192,105435,1,2,0:0:0:0:
460,192,105435,1,4,0:0:0:0:
153,192,105509,1,0,0:0:0:0:
358,192,105583,1,0,0:0:0:0:
256,192,105657,1,8,0:1:0:0:
460,192,105657,1,0,0:0:0:0:
51,192,105731,1,0,0:0:0:0:
153,192,105805,1,0,0:0:0:0:
358,192,105879,1,2,0:0:0:0:
460,192,105879,1,4,0:0:0:0:
256,192,105953,1,0,0:0:0:0:
51,192,106027,1,0,0:0:0:0:
153,192,106101,1,2,0:2:0:0:
358,192,106175,1,0,0:0:0:0:
460,192,106249,1,0,0:0:0:0:
51,192,106323,1,2,0:0:0:0:
153,192,106323,1,4,0:0:0:0:
256,192,106435,1,0,0:0:0:0:
51,192,106546,1,8,0:1:0:0:
358,192,106546,1,0,0:0:0:0:
460,192,106546,1,0,0:0:0:0:
256,192,106657,1,0,0:0:0:0:
460,192,106768,1,2,0:0:0:0:
153,192,106768,1,4,0:0:0:0:
358,192,106879,1,0,0:0:0:0:
51,192,106990,1,2,0:0:0:0:
153,192,106990,1,0,0:0:0:0:
256,192,107101,1,0,0:0:0:0:
358,192,107212,1,4,0:0:0:0:
256,192,107323,1,0,0:0:0:0:
51,192,107435,1,8,0:1:0:0:
153,192,107435,1,0,0:0:0:0:
460,192,107435,1,0,0:0:0:0:
358,192,107546,1,0,0:0:0:0:
153,192,107657,1,4,0:0:0:0:
256,192,107768,1,0,0:0:0:0:
51,192,107879,1,2,0:0:0:0:
460,192,107879,1,0,0:0:0:0:
153,192,107990,1,0,0:0:0:0:
256,192,108101,1,2,0:0:0:0:
460,192,108101,1,4,0:0:0:0:
358,192,108212,1,0,0:0:0:0:
51,192,108323,1,8,0:1:0:0:
153,192,108323,1,0,0:0:0:0:
256,192,108323,1,0,0:0:0:0:
358,192,108435,1,0,0:0:0:0:
153,192,108546,1,4,0:0:0:0:
256,192,108620,1,0,0:0:0:0:
358,192,108694,1,0,0:0:0:0:
460,192,108768,1,2,0:0:0:0:
51,192,108768,1,0,0:0:0:0:
153,192,108842,1,0,0:0:0:0:
256,192,108916,1,0,0:0:0:0:
460,192,108990,1,4,0:0:0:0:
51,192,109064,1,0,0:0:0:0:
153,192,109138,1,0,0:0:0:0:
358,192,109212,1,8,0:1:0:0:
460,192,109212,1,0,0:0:0:0:
256,192,109286,1,0,0:0:0:0:
153,192,109361,1,0,0:0:0:0:
51,192,109435,1,4,0:0:0:0:
358,192,109509,1,0,0:0:0:0:
256,192,109583,1,0,0:0:0:0:
153,192,109657,1,2,0:0:0:0:
460,192,109657,1,0,0:0:0:0:
358,192,109768,1,0,0:0:0:0:
51,192,109879,1,2,0:0:0:0:
153,192,109879,1,4,0:0:0:0:
256,192,109990,1,0,0:0:0:0:
51,192,110101,1,8,0:1:0:0:
358,192,110101,1,0,0:0:0:0:
460,192,110101,1,0,0:0:0:0:
153,192,110212,1,0,0:0:0:0:
460,192,110323,1,2,0:0:0:0:
256,192,110323,1,4,0:0:0:0:
358,192,110435,1,0,0:0:0:0:
51,192,110546,1,2,0:0:0:0:
153,192,110546,1,0,0:0:0:0:
256,192,110657,1,0,0:0:0:0:
358,192,110768,1,4,0:0:0:0:
153,192,110879,1,0,0:0:0:0:
51,192,110990,1,8,0:1:0:0:
358,192,110990,1,0,0:0:0:0:
460,192,110990,1,0,0:0:0:0:
256,192,111101,1,0,0:0:0:0:
153,192,111212,1,4,0:0:0:0:
358,192,111323,1,0,0:0:0:0:
51,192,111435,1,2,0:0:0:0:
256,192,111435,1,0,0:0:0:0:
460,192,111546,1,0,0:0:0:0:
153,192,111657,1,4,0:0:0:0:
256,192,111768,1,0,0:0:0:0:
51,192,111879,1,8,0:1:0:0:
358,192,111879,1,0,0:0:0:0:
460,192,111879,1,0,0:0:0:0:
153,192,111990,1,0,0:0:0:0:
358,192,112101,1,2,0:0:0:0:
460,192,112101,1,4,0:0:0:0:
256,192,112175,1,0,0:0:0:0:
153,192,112249,1,0,0:0:0:0:
358,192,112323,1,2,0:2:0:0:
256,192,112398,1,0,0:0:0:0:
153,192,112472,1,0,0:0:0:0:
51,192,112546,1,2,0:0:0:0:
460,192,112546,1,4,0:0:0:0:
358,192,112620,1,0,0:0:0:0:
256,192,112694,1,0,0:0:0:0:
153,192,112768,1,8,0:1:0:0:
51,192,112768,1,0,0:0:0:0:
358,192,112842,1,0,0:0:0:0:
460,192,112916,1,0,0:0:0:0:
51,192,112990,1,2,0:0:0:0:
256,192,112990,1,4,0:0:0:0:
358,192,113064,1,0,0:0:0:0:
153,192,113138,1,0,0:0:0:0:
256,192,113212,1,2,0:2:0:0:
460,192,113286,1,0,0:0:0:0:
51,192,113361,1,0,0:0:0:0:
153,192,113435,1,2,0:0:0:0:
358,192,113435,1,4,0:0:0:0:
256,192,113546,1,0,0:0:0:0:
51,192,113657,1,8,0:1:0:0:
358,192,113657,1,0,0:0:0:0:
460,192,113657,1,0,0:0:0:0:
256,192,113768,1,0,0:0:0:0:
51,192,113879,1,2,0:0:0:0:
153,192,113879,1,4,0:0:0:0:
358,192,113990,1,0,0:0:0:0:
460,192,114101,1,2,0:0:0:0:
256,192,114101,1,0,0:0:0:0:
153,192,114212,1,0,0:0:0:0:
358,192,114323,1,4,0:0:0:0:
256,192,114435,1,0,0:0:0:0:
51,192,114546,1,8,0:1:0:0:
153,192,114546,1,0,0:0:0:0:
460,192,114546,1,0,0:0:0:0:
256,192,114657,1,0,0:0:0:0:
358,192,114768,1,4,0:0:0:0:
153,192,114879,1,0,0:0:0:0:
358,192,114990,1,2,0:0:0:0:
460,192,114990,1,0,0:0:0:0:
256,192,115101,1,0,0:0:0:0:
51,192,115212,1,2,0:0:0:0:
153,192,115212,1,4,0:0:0:0:
256,192,115323,1,0,0:0:0:0:
51,192,115435,1,8,0:1:0:0:
153,192,115435,1,0,0:0:0:0:
358,192,115435,1,0,0:0:0:0:
460,192,115546,1,0,0:0:0:0:
256,192,115657,1,4,0:0:0:0:
358,192,115731,1,0,0:0:0:0:
460,192,115805,1,0,0:0:0:0:
153,192,115879,1,2,0:0:0:0:
51,192,115879,1,0,0:0:0:0:
256,192,115953,1,0,0:0:0:0:
358,192,116027,1,0,0:0:0:0:
460,192,116101,1,4,0:0:0:0:
153,192,116175,1,0,0:0:0:0:
256,192,116249,1,0,0:0:0:0:
51,192,116323,1,8,0:1:0:0:
460,192,116323,1,0,0:0:0:0:
358,192,116398,1,0,0:0:0:0:
256,192,116472,1,0,0:0:0:0:
153,192,116546,1,4,0:0:0:0:
51,192,116620,1,0,0:0:0:0:
358,192,116694,1,0,0:0:0:0:
460,192,116768,1,2,0:0:0:0:
153,192,116768,1,0,0:0:0:0:
256,192,116842,1,0,0:0:0:0:
358,192,116916,1,0,0:0:0:0:
51,192,116990,1,2,0:0:0:0:
153,192,116990,1,4,0:0:0:0:
256,192,117101,1,0,0:0:0:0:
51,192,117212,1,8,0:1:0:0:
358,192,117212,1,0,0:0:0:0:
460,192,117212,1,0,0:0:0:0:
153,192,117323,1,0,0:0:0:0:
460,192,117435,1,2,0:0:0:0:
358,192,117435,1,4,0:0:0:0:
256,192,117546,1,0,0:0:0:0:
51,192,117657,1,2,0:0:0:0:
153,192,117657,1,0,0:0:0:0:
460,192,117768,1,0,0:0:0:0:
256,192,117879,1,4,0:0:0:0:
153,192,117990,1,0,0:0:0:0:
51,192,118101,1,8,0:1:0:0:
358,192,118101,1,0,0:0:0:0:
460,192,118101,1,0,0:0:0:0:
256,192,118212,1,0,0:0:0:0:
153,192,118323,1,4,0:0:0:0:
358,192,118435,1,0,0:0:0:0:
51,192,118546,1,2,0:0:0:0:
460,192,118546,1,0,0:0:0:0:
153,192,118657,1,0,0:0:0:0:
358,192,118768,1,4,0:0:0:0:
256,192,118879,1,0,0:0:0:0:
51,192,118990,1,8,0:1:0:0:
153,192,118990,1,0,0:0:0:0:
460,192,118990,1,0,0:0:0:0:
358,192,119101,1,0,0:0:0:0:
51,192,119212,1,2,0:0:0:0:
460,192,119212,1,4,0:0:0:0:
153,192,119286,1,0,0:0:0:0:
256,192,119361,1,0,0:0:0:0:
358,192,119435,1,2,0:2:0:0:
460,192,119509,1,0,0:0:0:0:
256,192,119583,1,0,0:0:0:0:
51,192,119657,1,2,0:0:0:0:
358,192,119657,1,4,0:0:0:0:
153,192,119731,1,0,0:0:0:0:
256,192,119805,1,0,0:0:0:0:
460,192,119879,1,8,0:1:0:0:
358,192,119879,1,0,0:0:0:0:
51,192,119953,1,0,0:0:0:0:
153,192,120027,1,0,0:0:0:0:
256,192,120101,1,2,0:0:0:0:
460,192,120101,1,4,0:0:0:0:
358,192,120175,1,0,0:0:0:0:
153,192,120249,1,0,0:0:0:0:
256,192,120323,1,2,0:2:0:0:
51,192,120398,1,0,0:0:0:0:
153,192,120472,1,0,0:0:0:0:
358,192,120546,1,2,0:0:0:0:
460,192,120546,1,4,0:0:0:0:
256,192,120657,1,0,0:0:0:0:
51,192,120768,1,8,0:1:0:0:
153,192,120768,1,0,0:0:0:0:
460,192,120768,1,0,0:0:0:0:
256,192,120879,1,0,0:0:0:0:
51,192,120990,1,2,0:0:0:0:
358,192,120990,1,4,0:0:0:0:
153,192,121101,1,0,0:0:0:0:
256,192,121212,1,2,0:0:0:0:
460,192,121212,1,0,0:0:0:0:
358,192,121323,1,0,0:0:0:0:
153,192,121435,1,4,0:0:0:0:
256,192,121546,1,0,0:0:0:0:
51,192,121657,1,8,0:1:0:0:
358,192,121657,1,0,0:0:0:0:
460,192,121657,1,0,0:0:0:0:
256,192,121768,1,0,0:0:0:0:
51,192,121879,1,4,0:0:0:0:
153,192,121990,1,0,0:0:0:0:
358,192,122101,1,2,0:0:0:0:
460,192,122101,1,0,0:0:0:0:
256,192,122212,1,0,0:0:0:0:
51,192,122323,1,2,0:0:0:0:
153,192,122323,1,4,0:0:0:0:
358,192,122435,1,0,0:0:0:0:
51,192,122546,1,8,0:1:0:0:
153,192,122546,1,0,0:0:0:0:
460,192,122546,1,0,0:0:0:0:
256,192,122657,1,0,0:0:0:0:
51,192,122768,1,4,0:0:0:0:
153,192,122842,1,0,0:0:0:0:
256,192,122916,1,0,0:0:0:0:
358,192,122990,1,2,0:0:0:0:
460,192,122990,1,0,0:0:0:0:
51,192,123064,1,0,0:0:0:0:
153,192,123138,1,0,0:0:0:0:
460,192,123212,1,4,0:0:0:0:
358,192,123286,1,0,0:0:0:0:
256,192,123361,1,0,0:0:0:0:
51,192,123435,1,8,0:1:0:0:
153,192,123435,1,0,0:0:0:0:
460,192,123509,1,0,0:0:0:0:
358,192,123583,1,0,0:0:0:0:
256,192,123657,1,4,0:0:0:0:
153,192,123731,1,0,0:0:0:0:
51,192,123805,1,0,0:0:0:0:
256,192,123879,1,2,0:0:0:0:
460,192,123879,1,0,0:0:0:0:
358,192,123990,1,0,0:0:0:0:
51,192,124101,1,2,0:0:0:0:
460,192,124101,1,4,0:0:0:0:
153,192,124212,1,0,0:0:0:0:
256,192,124323,1,8,0:1:0:0:
358,192,124323,1,0,0:0:0:0:
460,192,124323,1,0,0:0:0:0:
51,192,124435,1,0,0:0:0:0:
153,192,124546,1,2,0:0:0:0:
358,192,124546,1,4,0:0:0:0:
256,192,124657,1,0,0:0:0:0:
153,192,124768,1,2,0:0:0:0:
51,192,124768,1,0,0:0:0:0:
358,192,124879,1,0,0:0:0:0:
51,192,124990,1,4,0:0:0:0:
256,192,125101,1,0,0:0:0:0:
153,192,125212,1,8,0:1:0:0:
358,192,125212,1,0,0:0:0:0:
460,192,125212,1,0,0:0:0:0:
51,192,125323,1,0,0:0:0:0:
256,192,125435,1,4,0:0:0:0:
460,192,125546,1,0,0:0:0:0:
51,192,125657,1,2,0:0:0:0:
358,192,125657,1,0,0:0:0:0:
256,192,125768,1,0,0:0:0:0:
153,192,125879,1,4,0:0:0:0:
256,192,125990,1,0,0:0:0:0:
51,192,126101,1,8,0:1:0:0:
358,192,126101,1,0,0:0:0:0:
460,192,126101,1,0,0:0:0:0:
153,192,126212,1,0,0:0:0:0:
358,192,126323,1,2,0:0:0:0:
460,192,126323,1,4,0:0:0:0:
256,192,126398,1,0,0:0:0:0:
153,192,126472,1,0,0:0:0:0:
460,192,126546,1,2,0:2:0:0:
358,192,126620,1,0,0:0:0:0:
256,192,126694,1,0,0:0:0:0:
153,192,126768,1,6,0:0:0:0:
51,192,126768,1,0,0:0:0:0:
460,192,126842,1,0,0:0:0:0:
358,192,126916,1,0,0:0:0:0:
51,192,126990,1,8,0:1:0:0:
256,192,126990,1,0,0:0:0:0:
153,192,127064,1,0,0:0:0:0:
358,192,127138,1,0,0:0:0:0:
51,192,127212,1,2,0:0:0:0:
460,192,127212,1,4,0:0:0:0:
153,192,127286,1,0,0:0:0:0:
256,192,127361,1,0,0:0:0:0:
358,192,127435,1,2,0:2:0:0:
153,192,127509,1,0,0:0:0:0:
51,192,127583,1,0,0:0:0:0:
358,192,127657,1,2,0:0:0:0:
460,192,127657,1,4,0:0:0:0:
256,192,127768,1,0,0:0:0:0:
51,192,127879,1,8,0:1:0:0:
153,192,127879,1,0,0:0:0:0:
460,192,127879,1,0,0:0:0:0:
358,192,127990,1,0,0:0:0:0:
153,192,128101,1,4,0:0:0:0:
256,192,128101,1,2,0:0:0:0:
358,192,128212,1,0,0:0:0:0:
51,192,128323,1,2,0:0:0:0:
460,192,128323,1,0,0:0:0:0:
256,192,128435,1,0,0:0:0:0:
153,192,128546,1,4,0:0:0:0:
256,192,128657,1,0,0:0:0:0:
51,192,128768,1,8,0:1:0:0:
358,192,128768,1,0,0:0:0:0:
460,192,128768,1,0,0:0:0:0:
153,192,128879,1,0,0:0:0:0:
460,192,128990,1,4,0:0:0:0:
256,192,129101,1,0,0:0:0:0:
153,192,129212,1,2,0:0:0:0:
358,192,129212,1,0,0:0:0:0:
51,192,129323,1,0,0:0:0:0:
358,192,129435,1,2,0:0:0:0:
460,192,129435,1,4,0:0:0:0:
256,192,129546,1,0,0:0:0:0:
51,192,129657,1,8,0:1:0:0:
153,192,129657,1,0,0:0:0:0:
460,192,129657,1,0,0:0:0:0:
358,192,129768,1,0,0:0:0:0:
153,192,129879,1,4,0:0:0:0:
256,192,129953,1,0,0:0:0:0:
358,192,130027,1,0,0:0:0:0:
51,192,130101,1,2,0:0:0:0:
460,192,130101,1,0,0:0:0:0:
153,192,130175,1,0,0:0:0:0:
256,192,130249,1,0,0:0:0:0:
358,192,130323,1,4,0:0:0:0:
153,192,130398,1,0,0:0:0:0:
256,192,130472,1,0,0:0:0:0:
51,192,130546,1,8,0:1:0:0:
460,192,130546,1,0,0:0:0:0:
358,192,130620,1,0,0:0:0:0:
256,192,130694,1,0,0:0:0:0:
153,192,130768,1,4,0:0:0:0:
51,192,130842,1,0,0:0:0:0:
358,192,130916,1,0,0:0:0:0:
153,192,130990,1,2,0:0:0:0:
460,192,130990,1,0,0:0:0:0:
256,192,131101,1,0,0:0:0:0:
51,192,131212,1,8,0:1:0:0:
153,192,131212,1,4,0:1:0:0:
358,192,131212,1,4,0:0:0:0:
460,192,131212,1,0,0:0:0:0:
256,192,131323,1,0,0:0:0:0:
51,192,131435,1,8,0:1:0:0:
153,192,131435,1,0,0:0:0:0:
358,192,131435,1,0,0:0:0:0:
460,192,131435,1,0,0:0:0:0:
51,192,131879,1,2,0:0:0:0:
153,192,131879,1,0,0:0:0:0:
256,192,131990,1,0,0:0:0:0:
358,192,132101,1,0,0:0:0:0:
153,192,132212,1,0,0:0:0:0:
51,192,132323,1,8,0:0:0:0:
460,192,132323,1,0,0:0:0:0:
358,192,132435,1,0,0:0:0:0:
256,192,132546,1,0,0:0:0:0:
153,192,132657,1,0,0:0:0:0:
358,192,132768,1,2,0:0:0:0:
460,192,132768,1,0,0:0:0:0:
51,192,132879,1,0,0:0:0:0:
256,192,132990,1,0,0:0:0:0:
153,192,133101,1,0,0:0:0:0:
51,192,133212,1,8,0:0:0:0:
358,192,133212,1,0,0:0:0:0:
460,192,133323,1,0,0:0:0:0:
51,192,133435,1,2,0:0:0:0:
153,192,133435,1,0,0:0:0:0:
256,192,133546,1,0,0:0:0:0:
358,192,133657,1,2,0:2:0:0:
460,192,133768,1,0,0:0:0:0:
256,192,133879,1,2,0:0:0:0:
358,192,133879,1,0,0:0:0:0:
153,192,133990,1,0,0:0:0:0:
51,192,134101,1,8,0:0:0:0:
460,192,134101,1,0,0:0:0:0:
358,192,134212,1,0,0:0:0:0:
51,192,134323,1,2,0:0:0:0:
153,192,134323,1,0,0:0:0:0:
256,192,134435,1,0,0:0:0:0:
358,192,134546,1,2,0:2:0:0:
153,192,134657,1,0,0:0:0:0:
51,192,134768,1,2,0:0:0:0:
256,192,134768,1,0,0:0:0:0:
358,192,134879,1,0,0:0:0:0:
51,192,134990,1,8,0:0:0:0:
460,192,134990,1,0,0:0:0:0:
256,192,135101,1,0,0:0:0:0:
153,192,135212,1,2,0:0:0:0:
460,192,135212,1,0,0:0:0:0:
358,192,135323,1,0,0:0:0:0:
51,192,135435,1,2,0:0:0:0:
153,192,135435,1,0,0:0:0:0:
256,192,135546,1,0,0:0:0:0:
358,192,135657,1,0,0:0:0:0:
153,192,135768,1,0,0:0:0:0:
51,192,135879,1,8,0:0:0:0:
358,192,135879,1,0,0:0:0:0:
256,192,135990,1,0,0:0:0:0:
153,192,136101,1,0,0:0:0:0:
51,192,136212,1,0,0:0:0:0:
358,192,136323,1,2,0:0:0:0:
460,192,136323,1,0,0:0:0:0:
153,192,136435,1,0,0:0:0:0:
256,192,136546,1,2,0:0:0:0:
460,192,136546,1,0,0:0:0:0:
358,192,136657,1,0,0:0:0:0:
51,192,136768,1,8,0:0:0:0:
153,192,136768,1,0,0:0:0:0:
460,192,136879,1,0,0:0:0:0:
358,192,136990,1,0,0:0:0:0:
51,192,136990,1,0,0:0:0:0:
256,192,137101,1,0,0:0:0:0:
153,192,137212,1,2,0:0:0:0:
460,192,137212,1,0,0:0:0:0:
51,192,137323,1,0,0:0:0:0:
358,192,137435,1,0,0:0:0:0:
460,192,137435,1,0,0:0:0:0:
256,192,137546,1,0,0:0:0:0:
51,192,137657,1,8,0:0:0:0:
153,192,137657,1,0,0:0:0:0:
358,192,137768,1,0,0:0:0:0:
460,192,137879,1,0,0:0:0:0:
153,192,137879,1,0,0:0:0:0:
256,192,137990,1,0,0:0:0:0:
51,192,138101,1,2,0:0:0:0:
358,192,138101,1,0,0:0:0:0:
460,192,138212,1,0,0:0:0:0:
51,192,138323,1,2,0:0:0:0:
153,192,138323,1,0,0:0:0:0:
256,192,138435,1,0,0:0:0:0:
358,192,138546,1,8,0:0:0:0:
460,192,138546,1,0,0:0:0:0:
153,192,138657,1,0,0:0:0:0:
51,192,138768,1,2,0:0:0:0:
460,192,138768,1,0,0:0:0:0:
358,192,138879,1,0,0:0:0:0:
51,192,138990,1,2,0:0:0:0:
153,192,138990,1,0,0:0:0:0:
358,192,139101,1,0,0:0:0:0:
256,192,139212,1,0,0:0:0:0:
153,192,139323,1,0,0:0:0:0:
51,192,139435,1,8,0:0:0:0:
460,192,139435,1,0,0:0:0:0:
358,192,139546,1,0,0:0:0:0:
153,192,139657,1,0,0:0:0:0:
256,192,139768,1,0,0:0:0:0:
358,192,139879,1,2,0:0:0:0:
460,192,139879,1,0,0:0:0:0:
153,192,139990,1,0,0:0:0:0:
51,192,140101,1,0,0:0:0:0:
256,192,140212,1,0,0:0:0:0:
153,192,140323,1,8,0:0:0:0:
460,192,140323,1,0,0:0:0:0:
358,192,140435,1,0,0:0:0:0:
51,192,140546,1,2,0:0:0:0:
256,192,140546,1,0,0:0:0:0:
460,192,140657,1,0,0:0:0:0:
153,192,140768,1,2,0:2:0:0:
256,192,140879,1,0,0:0:0:0:
51,192,140990,1,2,0:0:0:0:
358,192,140990,1,0,0:0:0:0:
153,192,141101,1,0,0:0:0:0:
256,192,141212,1,8,0:0:0:0:
460,192,141212,1,0,0:0:0:0:
358,192,141323,1,0,0:0:0:0:
153,192,141435,1,2,0:0:0:0:
256,192,141435,1,0,0:0:0:0:
51,192,141546,1,0,0:0:0:0:
358,192,141657,1,2,0:2:0:0:
460,192,141768,1,0,0:0:0:0:
51,192,141879,1,2,0:0:0:0:
256,192,141879,1,0,0:0:0:0:
153,192,141990,1,0,0:0:0:0:
51,192,142101,1,8,0:0:0:0:
460,192,142101,1,0,0:0:0:0:
358,192,142212,1,0,0:0:0:0:
153,192,142323,1,2,0:0:0:0:
256,192,142323,1,0,0:0:0:0:
358,192,142435,1,0,0:0:0:0:
153,192,142546,1,2,0:0:0:0:
460,192,142546,1,0,0:0:0:0:
256,192,142657,1,0,0:0:0:0:
358,192,142768,1,0,0:0:0:0:
51,192,142879,1,0,0:0:0:0:
153,192,142990,1,8,0:0:0:0:
460,192,142990,1,0,0:0:0:0:
358,192,143101,1,0,0:0:0:0:
256,192,143212,1,0,0:0:0:0:
51,192,143323,1,0,0:0:0:0:
358,192,143435,1,2,0:0:0:0:
460,192,143435,1,0,0:0:0:0:
256,192,143546,1,0,0:0:0:0:
51,192,143657,1,2,0:0:0:0:
358,192,143657,1,0,0:0:0:0:
153,192,143768,1,0,0:0:0:0:
256,192,143879,1,8,0:0:0:0:
460,192,143879,1,0,0:0:0:0:
51,192,143990,1,0,0:0:0:0:
358,192,144101,1,0,0:0:0:0:
460,192,144101,1,0,0:0:0:0:
256,192,144212,1,0,0:0:0:0:
153,192,144323,1,2,0:0:0:0:
358,192,144323,1,0,0:0:0:0:
51,192,144435,1,0,0:0:0:0:
358,192,144546,1,0,0:0:0:0:
460,192,144546,1,0,0:0:0:0:
256,192,144657,1,0,0:0:0:0:
51,192,144768,1,8,0:0:0:0:
153,192,144768,1,0,0:0:0:0:
358,192,144879,1,0,0:0:0:0:
256,192,144990,1,0,0:0:0:0:
460,192,144990,1,0,0:0:0:0:
51,192,145101,1,0,0:0:0:0:
153,192,145212,1,2,0:0:0:0:
460,192,145212,1,0,0:0:0:0:
256,192,145323,1,0,0:0:0:0:
51,192,145435,1,2,0:0:0:0:
358,192,145435,1,0,0:0:0:0:
153,192,145546,1,0,0:0:0:0:
358,192,145657,1,8,0:0:0:0:
460,192,145657,1,0,0:0:0:0:
256,192,145768,1,0,0:0:0:0:
51,192,145879,1,2,0:0:0:0:
153,192,145879,1,0,0:0:0:0:
460,192,145990,1,0,0:0:0:0:
51,192,146101,1,2,0:0:0:0:
256,192,146101,1,0,0:0:0:0:
153,192,146212,1,0,0:0:0:0:
358,192,146323,1,0,0:0:0:0:
256,192,146435,1,0,0:0:0:0:
51,192,146546,1,8,0:0:0:0:
460,192,146546,1,0,0:0:0:0:
153,192,146657,1,0,0:0:0:0:
256,192,146768,1,0,0:0:0:0:
358,192,146879,1,0,0:0:0:0:
51,192,146990,1,2,0:0:0:0:
153,192,146990,1,0,0:0:0:0:
460,192,147101,1,0,0:0:0:0:
256,192,147212,1,0,0:0:0:0:
358,192,147323,1,0,0:0:0:0:
153,192,147435,1,8,0:0:0:0:
460,192,147435,1,0,0:0:0:0:
51,192,147546,1,0,0:0:0:0:
358,192,147657,1,2,0:0:0:0:
460,192,147657,1,0,0:0:0:0:
256,192,147768,1,0,0:0:0:0:
153,192,147879,1,2,0:2:0:0:
51,192,147990,1,0,0:0:0:0:
256,192,148101,1,2,0:0:0:0:
460,192,148101,1,0,0:0:0:0:
358,192,148212,1,0,0:0:0:0:
51,192,148323,1,8,0:0:0:0:
153,192,148323,1,0,0:0:0:0:
256,192,148435,1,0,0:0:0:0:
358,192,148546,1,2,0:0:0:0:
460,192,148546,1,0,0:0:0:0:
153,192,148657,1,0,0:0:0:0:
256,192,148768,1,2,0:2:0:0:
358,192,148879,1,0,0:0:0:0:
51,192,148990,1,2,0:0:0:0:
460,192,148990,1,0,0:0:0:0:
153,192,149101,1,0,0:0:0:0:
256,192,149212,1,8,0:0:0:0:
460,192,149212,1,0,0:0:0:0:
358,192,149323,1,0,0:0:0:0:
51,192,149435,1,2,0:0:0:0:
256,192,149435,1,0,0:0:0:0:
153,192,149546,1,0,0:0:0:0:
358,192,149657,1,2,0:0:0:0:
460,192,149657,1,0,0:0:0:0:
256,192,149768,1,0,0:0:0:0:
51,192,149879,1,0,0:0:0:0:
358,192,149990,1,0,0:0:0:0:
153,192,150101,1,8,0:0:0:0:
460,192,150101,1,0,0:0:0:0:
256,192,150212,1,0,0:0:0:0:
358,192,150323,1,0,0:0:0:0:
460,192,150435,1,0,0:0:0:0:
51,192,150546,1,2,0:0:0:0:
153,192,150546,1,0,0:0:0:0:
358,192,150657,1,0,0:0:0:0:
51,192,150768,1,2,0:0:0:0:
256,192,150768,1,0,0:0:0:0:
153,192,150879,1,0,0:0:0:0:
358,192,150990,1,8,0:0:0:0:
460,192,150990,1,0,0:0:0:0:
51,192,151101,1,0,0:0:0:0:
153,192,151212,1,0,0:0:0:0:
460,192,151212,1,0,0:0:0:0:
256,192,151323,1,0,0:0:0:0:
51,192,151435,1,2,0:0:0:0:
358,192,151435,1,0,0:0:0:0:
460,192,151546,1,0,0:0:0:0:
51,192,151657,1,0,0:0:0:0:
153,192,151657,1,0,0:0:0:0:
256,192,151768,1,0,0:0:0:0:
358,192,151879,1,8,0:0:0:0:
460,192,151879,1,0,0:0:0:0:
153,192,151990,1,0,0:0:0:0:
51,192,152101,1,0,0:0:0:0:
256,192,152212,1,0,0:0:0:0:
153,192,152323,1,2,0:0:0:0:
460,192,152323,1,0,0:0:0:0:
51,192,152435,1,0,0:0:0:0:
358,192,152546,1,2,0:0:0:0:
460,192,152546,1,0,0:0:0:0:
256,192,152657,1,0,0:0:0:0:
51,192,152768,1,8,0:0:0:0:
153,192,152768,1,0,0:0:0:0:
358,192,152879,1,0,0:0:0:0:
51,192,152990,1,2,0:0:0:0:
256,192,152990,1,0,0:0:0:0:
153,192,153101,1,0,0:0:0:0:
358,192,153212,1,2,0:0:0:0:
460,192,153212,1,0,0:0:0:0:
153,192,153323,1,0,0:0:0:0:
256,192,153435,1,0,0:0:0:0:
358,192,153546,1,0,0:0:0:0:
51,192,153657,1,8,0:0:0:0:
460,192,153657,1,0,0:0:0:0:
153,192,153768,1,0,0:0:0:0:
358,192,153879,1,0,0:0:0:0:
256,192,153990,1,0,0:0:0:0:
51,192,154101,1,2,0:0:0:0:
153,192,154101,1,0,0:0:0:0:
358,192,154212,1,0,0:0:0:0:
460,192,154323,1,0,0:0:0:0:
256,192,154435,1,0,0:0:0:0:
51,192,154546,1,8,0:0:0:0:
358,192,154546,1,0,0:0:0:0:
153,192,154657,1,0,0:0:0:0:
256,192,154768,1,2,0:0:0:0:
460,192,154768,1,0,0:0:0:0:
51,192,154879,1,0,0:0:0:0:
358,192,154990,1,2,0:2:0:0:
256,192,155101,1,0,0:0:0:0:
153,192,155212,1,2,0:0:0:0:
460,192,155212,1,0,0:0:0:0:
358,192,155323,1,0,0:0:0:0:
51,192,155435,1,8,0:0:0:0:
256,192,155435,1,0,0:0:0:0:
153,192,155546,1,0,0:0:0:0:
358,192,155657,1,2,0:0:0:0:
460,192,155657,1,0,0:0:0:0:
256,192,155768,1,0,0:0:0:0:
51,192,155879,1,0,0:0:0:0:
153,192,155990,1,0,0:0:0:0:
358,192,156101,1,2,0:0:0:0:
460,192,156101,1,0,0:0:0:0:
256,192,156212,1,0,0:0:0:0:
51,192,156323,1,8,0:0:0:0:
153,192,156323,1,0,0:0:0:0:
358,192,156435,1,0,0:0:0:0:
153,192,156546,1,2,0:0:0:0:
460,192,156546,1,0,0:0:0:0:
256,192,156657,1,0,0:0:0:0:
358,192,156768,1,2,0:0:0:0:
460,192,156768,1,0,0:0:0:0:
153,192,156879,1,0,0:0:0:0:
256,192,156990,1,0,0:0:0:0:
358,192,157101,1,0,0:0:0:0:
51,192,157212,1,8,0:0:0:0:
460,192,157212,1,0,0:0:0:0:
153,192,157323,1,0,0:0:0:0:
256,192,157435,1,0,0:0:0:0:
460,192,157546,1,0,0:0:0:0:
358,192,157657,1,2,0:0:0:0:
153,192,157657,1,0,0:0:0:0:
51,192,157768,1,0,0:0:0:0:
256,192,157879,1,2,0:0:0:0:
460,192,157879,1,0,0:0:0:0:
153,192,157990,1,0,0:0:0:0:
51,192,158101,1,8,0:0:0:0:
358,192,158101,1,0,0:0:0:0:
256,192,158212,1,0,0:0:0:0:
153,192,158323,1,0,0:0:0:0:
460,192,158323,1,0,0:0:0:0:
256,192,158435,1,0,0:0:0:0:
51,192,158546,1,2,0:0:0:0:
358,192,158546,1,0,0:0:0:0:
460,192,158657,1,0,0:0:0:0:
51,192,158768,1,0,0:0:0:0:
153,192,158768,1,0,0:0:0:0:
256,192,158879,1,0,0:0:0:0:
358,192,158990,1,8,0:0:0:0:
460,192,158990,1,0,0:0:0:0:
153,192,159101,1,0,0:0:0:0:
51,192,159212,1,0,0:0:0:0:
256,192,159212,1,0,0:0:0:0:
460,192,159323,1,0,0:0:0:0:
153,192,159435,1,2,0:0:0:0:
358,192,159435,1,0,0:0:0:0:
256,192,159546,1,0,0:0:0:0:
51,192,159657,1,4,0:1:0:0:
153,192,159657,1,8,0:0:0:0:
460,192,159657,1,2,0:2:0:0:
358,192,159768,1,0,0:0:0:0:
51,192,159879,128,8,160323:0:0:0:0:
153,192,159879,128,2,160323:0:2:0:0:
256,192,159879,1,0,0:0:0:0:
358,192,160101,128,0,160323:0:0:0:0:
