osu file format v14

[General]
AudioFilename: 04 - Acting.ogg
AudioLeadIn: 0
PreviewTime: 95049
Countdown: 0
SampleSet: Normal
StackLeniency: 0.7
Mode: 1
LetterboxInBreaks: 0
WidescreenStoryboard: 0

[Editor]
Bookmarks: 313487
DistanceSpacing: 1
BeatDivisor: 3
GridSize: 32
TimelineZoom: 0.68

[Metadata]
Title:Acting
TitleUnicode:Acting
Artist:Sweet Trip
ArtistUnicode:Sweet Trip
Creator:meiqth
Version:Oni
Source:
Tags:You Will Never Know Why Indie Rock English Dream Pop Twee Pop
BeatmapID:3913473
BeatmapSetID:1898739

[Difficulty]
HPDrainRate:5
CircleSize:2
OverallDifficulty:6
ApproachRate:10
SliderMultiplier:1.4
SliderTickRate:1

[Events]
//Background and Video events
0,0,"22.jpg",0,-35
//Break Periods
2,51540,56815
2,151065,154015
//Storyboard Layer 0 (Background)
//Storyboard Layer 1 (Fail)
//Storyboard Layer 2 (Pass)
//Storyboard Layer 3 (Foreground)
//Storyboard Layer 4 (Overlay)
//Storyboard Sound Samples

[TimingPoints]
273,967.741935483871,4,1,0,25,1,8
273,-90.9090909090909,4,1,0,25,0,0
2177,979.591836734694,4,1,0,40,1,0
2177,-83.6820083682008,4,1,0,40,0,0
4462,-83.6820083682008,4,1,0,21,0,0
4789,-83.6820083682008,4,1,0,40,0,0
6095,983.606557377049,4,1,0,40,1,0
6095,-83.3333333333333,4,1,0,40,0,0
8360,-83.3333333333333,4,1,0,21,0,0
8687,-83.3333333333333,4,1,0,40,0,0
10029,983.606557377049,6,1,0,40,1,0
10029,-83.3333333333333,6,1,0,40,0,0
12270,-83.3333333333333,4,1,0,21,0,0
12597,-83.3333333333333,4,1,0,40,0,0
15930,983.606557377049,4,1,0,40,1,0
15930,-83.3333333333333,6,1,0,40,0,0
17131,-83.3333333333333,4,1,0,21,0,0
17458,-83.3333333333333,4,1,0,40,0,0
23798,983.606557377049,1,1,0,40,1,8
23799,983.606557377049,6,1,0,40,1,0
23799,-83.3333333333333,6,1,0,40,0,0
26094,-83.3333333333333,4,1,0,21,0,0
26421,-83.3333333333333,4,1,0,40,0,0
27979,-83.3333333333333,4,1,0,21,0,0
28356,-83.3333333333333,4,1,0,40,0,0
29700,983.606557377049,1,1,0,40,1,8
29701,983.606557377049,4,1,0,40,1,0
29701,-83.3333333333333,4,1,0,40,0,0
37569,983.606557377049,1,1,0,40,1,8
37570,983.606557377049,6,1,0,40,1,0
37570,-83.3333333333333,6,1,0,40,0,0
39806,-83.3333333333333,4,1,0,21,0,0
40133,-83.3333333333333,4,1,0,40,0,0
40787,-83.3333333333333,4,1,0,21,0,0
41114,-83.3333333333333,4,1,0,40,0,0
41832,-83.3333333333333,4,1,0,21,0,0
42159,-83.3333333333333,4,1,0,40,0,0
43471,983.606557377049,1,1,0,40,1,8
43472,983.606557377049,4,1,0,40,1,0
43472,-83.3333333333333,4,1,0,40,0,0
51340,983.606557377049,7,1,0,40,1,0
51340,-83.3333333333333,7,1,0,40,0,0
57265,300,6,1,0,55,1,0
57265,-111.111111111111,6,1,0,55,0,0
64464,-100,6,1,0,65,0,0
78865,-100,6,1,0,65,0,1
89665,300,6,1,0,65,1,0
96865,-100,6,1,0,65,0,1
107665,-100,6,1,0,65,0,0
111265,-100,6,1,0,65,0,1
122065,-100,6,1,0,65,0,0
125665,600,3,1,0,65,1,0
125665,-50,3,1,0,65,0,0
125740,-66.6666666666667,3,1,0,35,0,0
152665,600,3,1,0,35,1,8
154464,300,6,1,0,65,1,0
183264,-100,6,1,0,65,0,1
194064,-100,6,1,0,65,0,0
197664,-100,6,1,0,65,0,1
208464,300,1,1,0,40,1,8
208465,300,6,1,0,65,1,0
215665,600,3,1,0,35,1,0
215665,-66.6666666666667,3,1,0,35,0,0
229913,-64.5161290322581,3,1,0,55,0,0
230213,-64.5161290322581,3,1,0,45,0,0
242662,600,6,1,0,55,1,8
243653,307.692307692308,6,1,0,55,1,8
243653,-266.666666666667,6,1,0,55,0,8
244380,382.980353107886,6,1,0,55,1,8
244380,-214.132762312634,6,1,0,55,0,8
244635,983.606557377049,4,1,0,55,1,0
244635,-83.3333333333333,4,1,0,55,0,0
252503,983.606557377049,6,1,0,55,1,0
252503,-83.3333333333333,4,1,0,55,0,0
258404,983.606557377049,1,1,0,55,1,8
258405,983.606557377049,4,1,0,55,1,0
258405,-83.3333333333333,4,1,0,55,0,0
266273,983.606557377049,1,1,0,55,1,8
266274,983.606557377049,6,1,0,55,1,0
266274,-83.3333333333333,4,1,0,55,0,0
272175,983.606557377049,4,1,0,55,1,0
272175,-83.3333333333333,4,1,0,55,0,0
280043,983.606557377049,1,1,0,55,1,8
280044,983.606557377049,6,1,0,55,1,0
280044,-83.3333333333333,4,1,0,55,0,0
285945,983.606557377049,1,1,0,55,1,8
285946,983.606557377049,4,1,0,55,1,0
285946,-83.3333333333333,4,1,0,55,0,0
293814,983.606557377049,1,1,0,55,1,8
293815,983.606557377049,6,1,0,55,1,0
293815,-83.3333333333333,4,1,0,55,0,0
299716,983.606557377049,4,1,0,55,1,0
299716,-83.3333333333333,4,1,0,55,0,0
307584,983.606557377049,1,1,0,55,1,8
307585,983.606557377049,6,1,0,55,1,0
307585,-83.3333333333333,4,1,0,55,0,0
313486,983.606557377049,1,1,0,55,1,8
313487,983.606557377049,4,1,0,55,1,0
313487,-83.333336,4,1,0,55,0,8
313731,-83.45369,4,1,0,55,0,0
313977,-83.57489,4,1,0,54,0,0
314223,-83.696434,4,1,0,54,0,0
314469,-83.81833,4,1,0,53,0,0
314715,-83.94059,4,1,0,53,0,0
314961,-84.06321,4,1,0,52,0,0
315453,-84.30951,4,1,0,51,0,0
315781,-84.47451,4,1,0,51,0,0
315945,-84.55726,4,1,0,51,0,0
316436,-84.80597,4,1,0,50,0,0
316928,-85.056656,4,1,0,49,0,0
317420,-85.30883,4,1,0,48,0,0
317748,-85.47777,4,1,0,47,0,0
317912,-85.5625,4,1,0,47,0,0
318404,-85.81768,4,1,0,46,0,0
318895,-86.07386,4,1,0,45,0,0
319223,-86.24585,4,1,0,45,0,0
319387,-86.33211,4,1,0,44,0,0
319715,-86.50514,4,1,0,44,0,0
319879,-86.59192,4,1,0,43,0,0
320371,-86.85329,4,1,0,43,0,0
320699,-87.028404,4,1,0,42,0,0
320863,-87.116234,4,1,0,42,0,0
321190,-87.291885,4,1,0,41,0,0
321355,983.606557377049,1,1,0,55,1,8
321356,983.606557377049,6,1,0,41,1,0
321356,-87.38079,6,1,0,41,0,0
321846,-87.64641,6,1,0,40,0,0
322338,-87.914185,6,1,0,39,0,0
322830,-88.183624,6,1,0,38,0,0
323158,-88.36415,6,1,0,37,0,0
323322,-88.454704,6,1,0,37,0,0
323814,-88.72745,6,1,0,36,0,0
324305,-89.001335,6,1,0,35,0,0
325289,-89.555336,6,1,0,34,0,0
325781,-89.83493,6,1,0,33,0,0
326273,-90.11628,6,1,0,32,0,0
326600,-90.304245,6,1,0,31,0,0
326764,-90.39882,6,1,0,31,0,0
327257,983.606557377049,4,1,0,30,1,0
327257,-90.6837,4,1,0,30,0,0
328239,-91.25833,4,1,0,28,0,0
328731,-91.548676,4,1,0,27,0,0
329059,-91.74326,4,1,0,27,0,0
329223,-91.84088,4,1,0,26,0,0
329715,-92.13495,4,1,0,26,0,0
330206,-92.43031,4,1,0,25,0,0
331190,-93.027954,4,1,0,23,0,0
331682,-93.329704,4,1,0,22,0,0
332174,-93.63339,4,1,0,21,0,0
332665,-93.93845,4,1,0,20,0,0
333157,-94.24615,4,1,0,19,0,0
333649,-94.55584,4,1,0,18,0,0
334141,-94.867584,4,1,0,18,0,0
335125,983.606557377049,1,1,0,16,1,8
335126,983.606557377049,6,1,0,16,1,0
335126,-95.49728,6,1,0,16,0,8
336108,-96.13474,6,1,0,14,0,0
337092,-96.78142,6,1,0,12,0,0
337584,-97.10804,6,1,0,11,0,0
338075,-97.4362,6,1,0,10,0,0
339059,-98.10058,6,1,0,9,0,0
340043,-98.77408,6,1,0,7,0,0
340534,-99.11361,6,1,0,6,0,0
341027,983.606557377049,1,1,0,5,1,8
341028,983.606557377049,4,1,0,5,1,0

[HitObjects]
256,192,273,5,0,0:0:0:0:
256,192,1240,1,8,0:0:0:0:
256,192,2177,5,0,0:0:0:0:
256,192,3156,1,8,0:0:0:0:
256,192,4136,1,0,0:0:0:0:
256,192,4625,1,0,0:0:0:0:
256,192,5115,1,8,0:0:0:0:
256,192,5442,1,0,0:0:0:0:
256,192,6095,1,8,0:0:0:0:
256,192,6422,1,0,0:0:0:0:
256,192,6586,1,8,0:0:0:0:
256,192,7078,1,8,0:0:0:0:
256,192,8062,1,0,0:0:0:0:
256,192,8554,1,0,0:0:0:0:
256,192,9045,1,8,0:0:0:0:
256,192,9373,1,0,0:0:0:0:
256,192,9537,1,8,0:0:0:0:
256,192,10029,1,0,0:0:0:0:
256,192,11012,1,8,0:0:0:0:
256,192,11832,1,0,0:0:0:0:
256,192,11996,1,0,0:0:0:0:
256,192,12488,1,0,0:0:0:0:
256,192,12979,1,8,0:0:0:0:
256,192,13471,1,0,0:0:0:0:
256,192,13799,1,8,0:0:0:0:
256,192,13963,1,0,0:0:0:0:
256,192,14455,1,0,0:0:0:0:
256,192,14947,1,8,0:0:0:0:
256,192,15766,1,0,0:0:0:0:
256,192,15930,1,0,0:0:0:0:
256,192,16913,1,8,0:0:0:0:
256,192,17405,1,0,0:0:0:0:
256,192,17733,1,8,0:0:0:0:
256,192,17897,1,0,0:0:0:0:
256,192,18225,1,8,0:0:0:0:
256,192,18389,1,8,0:0:0:0:
256,192,18880,1,0,0:0:0:0:
256,192,19208,1,0,0:0:0:0:
256,192,19864,1,8,0:0:0:0:
256,192,20192,1,0,0:0:0:0:
256,192,20356,1,8,0:0:0:0:
256,192,20848,1,8,0:0:0:0:
256,192,21667,1,8,0:0:0:0:
256,192,21831,1,0,0:0:0:0:
256,192,22159,1,0,0:0:0:0:
256,192,22323,1,8,0:0:0:0:
256,192,22815,1,0,0:0:0:0:
256,192,23143,1,8,0:0:0:0:
256,192,23307,1,0,0:0:0:0:
256,192,23799,1,8,0:0:0:0:
256,192,24782,1,8,0:0:0:0:
256,192,25602,1,0,0:0:0:0:
256,192,25766,1,0,0:0:0:0:
256,192,26258,1,0,0:0:0:0:
256,192,26749,1,8,0:0:0:0:
256,192,27569,1,0,0:0:0:0:
256,192,27733,1,0,0:0:0:0:
256,192,28225,1,0,0:0:0:0:
256,192,28717,1,8,0:0:0:0:
256,192,29044,1,8,0:0:0:0:
256,192,29208,1,8,0:0:0:0:
256,192,29701,1,0,0:0:0:0:
256,192,30684,1,8,0:0:0:0:
256,192,31504,1,8,0:0:0:0:
256,192,31668,1,0,0:0:0:0:
256,192,31996,1,0,0:0:0:0:
256,192,32160,1,8,0:0:0:0:
256,192,32651,1,8,0:0:0:0:
256,192,32979,1,0,0:0:0:0:
256,192,33143,1,0,0:0:0:0:
256,192,33471,1,0,0:0:0:0:
256,192,33635,1,8,0:0:0:0:
256,192,33963,1,0,0:0:0:0:
256,192,34127,1,8,0:0:0:0:
256,192,34619,1,8,0:0:0:0:
256,192,35438,1,0,0:0:0:0:
256,192,35602,1,0,0:0:0:0:
256,192,35930,1,8,0:0:0:0:
256,192,36094,1,0,0:0:0:0:
256,192,36586,1,8,0:0:0:0:
256,192,36914,1,0,0:0:0:0:
256,192,37078,1,8,0:0:0:0:
256,192,37570,1,0,0:0:0:0:
256,192,38553,1,8,0:0:0:0:
256,192,39373,1,0,0:0:0:0:
256,192,39537,1,0,0:0:0:0:
256,192,40029,1,0,0:0:0:0:
256,192,40520,1,8,0:0:0:0:
256,192,41012,1,8,0:0:0:0:
256,192,41340,1,0,0:0:0:0:
256,192,41504,1,0,0:0:0:0:
256,192,41996,1,0,0:0:0:0:
256,192,42488,1,8,0:0:0:0:
256,192,43307,1,0,0:0:0:0:
256,192,43472,1,0,0:0:0:0:
256,192,44455,1,8,0:0:0:0:
256,192,44947,1,0,0:0:0:0:
256,192,45275,1,8,0:0:0:0:
256,192,45439,1,0,0:0:0:0:
256,192,45767,1,8,0:0:0:0:
256,192,45931,1,8,0:0:0:0:
256,192,46422,1,0,0:0:0:0:
256,192,46750,1,0,0:0:0:0:
256,192,46914,1,8,0:0:0:0:
256,192,47406,1,8,0:0:0:0:
256,192,47734,1,0,0:0:0:0:
256,192,47898,1,8,0:0:0:0:
256,192,48390,1,8,0:0:0:0:
256,192,49209,1,8,0:0:0:0:
256,192,49373,1,0,0:0:0:0:
256,192,49701,1,0,0:0:0:0:
256,192,49865,1,8,0:0:0:0:
256,192,50357,1,0,0:0:0:0:
256,192,50685,1,8,0:0:0:0:
256,192,50849,1,0,0:0:0:0:
256,192,51176,1,0,0:0:0:0:
256,192,51340,1,12,0:0:0:0:
256,192,57265,5,8,0:0:0:0:
256,192,57565,1,8,0:0:0:0:
256,192,57865,1,8,0:0:0:0:
256,192,58165,1,8,0:0:0:0:
256,192,58465,1,8,0:0:0:0:
256,192,58765,1,8,0:0:0:0:
256,192,59065,1,8,0:0:0:0:
256,192,59365,1,8,0:0:0:0:
256,192,59665,1,8,0:0:0:0:
256,192,59965,1,8,0:0:0:0:
256,192,60265,1,8,0:0:0:0:
256,192,60565,1,8,0:0:0:0:
256,192,60715,1,0,0:0:0:0:
256,192,60790,1,0,0:0:0:0:
256,192,60865,1,8,0:0:0:0:
256,192,61015,1,0,0:0:0:0:
256,192,61165,1,8,0:0:0:0:
256,192,61315,1,0,0:0:0:0:
256,192,61465,1,8,0:0:0:0:
256,192,61615,1,0,0:0:0:0:
256,192,61765,1,8,0:0:0:0:
256,192,61915,1,0,0:0:0:0:
256,192,62065,1,8,0:0:0:0:
256,192,62215,1,0,0:0:0:0:
256,192,62365,1,0,0:0:0:0:
256,192,62515,1,0,0:0:0:0:
256,192,62665,1,8,0:0:0:0:
256,192,62815,1,0,0:0:0:0:
256,192,62965,1,8,0:0:0:0:
256,192,63115,1,0,0:0:0:0:
256,192,63265,1,8,0:0:0:0:
256,192,63415,1,0,0:0:0:0:
256,192,63565,1,8,0:0:0:0:
256,192,63715,1,0,0:0:0:0:
256,192,63865,1,8,0:0:0:0:
256,192,64015,1,0,0:0:0:0:
256,192,64165,1,12,0:0:0:0:
256,192,64465,1,4,0:0:0:0:
256,192,64765,1,8,0:0:0:0:
256,192,64915,1,0,0:0:0:0:
256,192,65065,1,0,0:0:0:0:
256,192,65215,1,8,0:0:0:0:
256,192,65365,1,0,0:0:0:0:
256,192,65515,1,8,0:0:0:0:
256,192,65665,1,8,0:0:0:0:
256,192,65815,1,0,0:0:0:0:
256,192,65965,1,8,0:0:0:0:
256,192,66265,1,4,0:0:0:0:
256,192,66565,1,8,0:0:0:0:
256,192,66715,1,0,0:0:0:0:
256,192,66865,1,0,0:0:0:0:
256,192,67015,1,8,0:0:0:0:
256,192,67165,1,8,0:0:0:0:
256,192,67315,1,0,0:0:0:0:
256,192,67465,1,8,0:0:0:0:
256,192,67615,1,0,0:0:0:0:
256,192,67765,1,0,0:0:0:0:
256,192,68065,1,12,0:0:0:0:
256,192,68365,1,8,0:0:0:0:
256,192,68515,1,0,0:0:0:0:
256,192,68665,1,0,0:0:0:0:
256,192,68815,1,8,0:0:0:0:
256,192,68965,1,8,0:0:0:0:
256,192,69115,1,0,0:0:0:0:
256,192,69265,1,0,0:0:0:0:
256,192,69415,1,8,0:0:0:0:
256,192,69565,1,0,0:0:0:0:
256,192,69865,1,4,0:0:0:0:
256,192,70165,1,8,0:0:0:0:
256,192,70315,1,0,0:0:0:0:
256,192,70465,1,8,0:0:0:0:
256,192,70615,1,0,0:0:0:0:
256,192,70765,1,0,0:0:0:0:
256,192,70915,1,8,0:0:0:0:
256,192,71065,1,8,0:0:0:0:
256,192,71215,1,0,0:0:0:0:
256,192,71365,1,8,0:0:0:0:
256,192,71665,1,12,0:0:0:0:
256,192,71965,1,0,0:0:0:0:
256,192,72115,1,8,0:0:0:0:
256,192,72265,1,8,0:0:0:0:
256,192,72415,1,0,0:0:0:0:
256,192,72565,1,8,0:0:0:0:
256,192,72715,1,0,0:0:0:0:
256,192,72865,1,0,0:0:0:0:
256,192,73015,1,8,0:0:0:0:
256,192,73165,1,8,0:0:0:0:
256,192,73465,1,4,0:0:0:0:
256,192,73765,1,8,0:0:0:0:
256,192,73915,1,8,0:0:0:0:
256,192,74065,1,0,0:0:0:0:
256,192,74215,1,8,0:0:0:0:
256,192,74365,1,8,0:0:0:0:
256,192,74515,1,0,0:0:0:0:
256,192,74665,1,0,0:0:0:0:
256,192,74815,1,8,0:0:0:0:
256,192,74965,1,0,0:0:0:0:
256,192,75265,1,12,0:0:0:0:
256,192,75565,1,0,0:0:0:0:
256,192,75715,1,8,0:0:0:0:
256,192,75865,1,8,0:0:0:0:
256,192,76015,1,0,0:0:0:0:
256,192,76165,1,8,0:0:0:0:
256,192,76315,1,0,0:0:0:0:
256,192,76465,1,0,0:0:0:0:
256,192,76615,1,8,0:0:0:0:
256,192,76765,1,0,0:0:0:0:
256,192,77065,1,4,0:0:0:0:
256,192,77365,1,8,0:0:0:0:
256,192,77515,1,0,0:0:0:0:
256,192,77665,1,0,0:0:0:0:
256,192,77815,1,8,0:0:0:0:
256,192,77965,1,8,0:0:0:0:
256,192,78115,1,0,0:0:0:0:
256,192,78265,1,8,0:0:0:0:
256,192,78340,1,8,0:0:0:0:
256,192,78415,1,8,0:0:0:0:
256,192,78490,1,8,0:0:0:0:
256,192,78565,1,0,0:0:0:0:
256,192,78640,1,0,0:0:0:0:
256,192,78715,1,0,0:0:0:0:
256,192,78865,1,12,0:0:0:0:
256,192,79165,1,0,0:0:0:0:
256,192,79315,1,8,0:0:0:0:
256,192,79390,1,8,0:0:0:0:
256,192,79465,1,0,0:0:0:0:
256,192,79615,1,8,0:0:0:0:
256,192,79765,1,0,0:0:0:0:
256,192,79915,1,0,0:0:0:0:
256,192,80065,1,8,0:0:0:0:
256,192,80215,1,0,0:0:0:0:
256,192,80365,1,8,0:0:0:0:
256,192,80665,1,0,0:0:0:0:
256,192,80740,1,0,0:0:0:0:
256,192,80815,1,8,0:0:0:0:
256,192,80890,1,8,0:0:0:0:
256,192,80965,1,0,0:0:0:0:
256,192,81115,1,8,0:0:0:0:
256,192,81265,1,0,0:0:0:0:
256,192,81415,1,8,0:0:0:0:
256,192,81565,1,0,0:0:0:0:
256,192,81715,1,0,0:0:0:0:
256,192,81865,1,8,0:0:0:0:
256,192,81940,1,8,0:0:0:0:
256,192,82015,1,0,0:0:0:0:
256,192,82165,1,8,0:0:0:0:
256,192,82315,1,0,0:0:0:0:
256,192,82465,1,8,0:0:0:0:
256,192,82765,1,0,0:0:0:0:
256,192,82915,1,8,0:0:0:0:
256,192,83065,1,0,0:0:0:0:
256,192,83215,1,0,0:0:0:0:
256,192,83515,1,8,0:0:0:0:
256,192,83665,1,0,0:0:0:0:
256,192,83740,1,0,0:0:0:0:
256,192,83815,1,0,0:0:0:0:
256,192,83965,1,8,0:0:0:0:
256,192,84115,1,0,0:0:0:0:
256,192,84265,1,8,0:0:0:0:
256,192,84565,1,8,0:0:0:0:
256,192,84715,1,0,0:0:0:0:
256,192,84865,1,0,0:0:0:0:
256,192,85015,1,8,0:0:0:0:
256,192,85165,1,0,0:0:0:0:
256,192,85315,1,8,0:0:0:0:
256,192,85615,1,0,0:0:0:0:
256,192,85690,1,0,0:0:0:0:
256,192,85765,1,8,0:0:0:0:
256,192,85915,1,0,0:0:0:0:
256,192,86065,1,8,0:0:0:0:
256,192,86140,1,8,0:0:0:0:
256,192,86215,1,0,0:0:0:0:
256,192,86290,1,0,0:0:0:0:
256,192,86365,1,8,0:0:0:0:
256,192,86515,1,0,0:0:0:0:
256,192,86815,1,0,0:0:0:0:
256,192,86965,1,8,0:0:0:0:
256,192,87115,1,8,0:0:0:0:
256,192,87265,1,0,0:0:0:0:
256,192,87340,1,0,0:0:0:0:
256,192,87415,1,8,0:0:0:0:
256,192,87565,1,0,0:0:0:0:
256,192,87715,1,8,0:0:0:0:
256,192,87865,1,0,0:0:0:0:
256,192,87940,1,0,0:0:0:0:
256,192,88015,1,8,0:0:0:0:
256,192,88090,1,8,0:0:0:0:
256,192,88165,1,0,0:0:0:0:
256,192,88315,1,8,0:0:0:0:
256,192,88615,1,8,0:0:0:0:
256,192,88765,1,0,0:0:0:0:
256,192,88915,1,0,0:0:0:0:
256,192,89065,1,8,0:0:0:0:
256,192,89215,1,8,0:0:0:0:
256,192,89365,1,0,0:0:0:0:
256,192,89440,1,0,0:0:0:0:
256,192,89515,1,0,0:0:0:0:
256,192,89665,1,12,0:0:0:0:
256,192,89965,1,8,0:0:0:0:
256,192,90115,1,0,0:0:0:0:
256,192,90265,1,0,0:0:0:0:
256,192,90415,1,8,0:0:0:0:
256,192,90565,1,8,0:0:0:0:
256,192,90715,1,0,0:0:0:0:
256,192,90865,1,0,0:0:0:0:
256,192,91015,1,8,0:0:0:0:
256,192,91090,1,8,0:0:0:0:
256,192,91165,1,0,0:0:0:0:
256,192,91315,1,8,0:0:0:0:
256,192,91465,1,4,0:0:0:0:
256,192,91765,1,8,0:0:0:0:
256,192,91915,1,0,0:0:0:0:
256,192,92065,1,8,0:0:0:0:
256,192,92215,1,0,0:0:0:0:
256,192,92365,1,0,0:0:0:0:
256,192,92515,1,8,0:0:0:0:
256,192,92665,1,8,0:0:0:0:
256,192,92815,1,0,0:0:0:0:
256,192,92890,1,0,0:0:0:0:
256,192,92965,1,8,0:0:0:0:
256,192,93115,1,0,0:0:0:0:
256,192,93265,1,12,0:0:0:0:
256,192,93565,1,0,0:0:0:0:
256,192,93715,1,8,0:0:0:0:
256,192,93865,1,8,0:0:0:0:
256,192,94015,1,0,0:0:0:0:
256,192,94165,1,0,0:0:0:0:
256,192,94315,1,8,0:0:0:0:
256,192,94465,1,8,0:0:0:0:
256,192,94615,1,0,0:0:0:0:
256,192,94690,1,8,0:0:0:0:
256,192,94765,1,0,0:0:0:0:
256,192,94915,1,0,0:0:0:0:
256,192,95065,1,8,0:0:0:0:
256,192,95215,1,0,0:0:0:0:
256,192,95365,1,0,0:0:0:0:
256,192,95515,1,8,0:0:0:0:
256,192,95665,1,8,0:0:0:0:
256,192,95815,1,0,0:0:0:0:
256,192,95965,1,8,0:0:0:0:
256,192,96115,1,8,0:0:0:0:
256,192,96265,1,8,0:0:0:0:
256,192,96415,1,4,0:0:0:0:
256,192,96865,1,12,0:0:0:0:
256,192,97165,1,0,0:0:0:0:
256,192,97315,1,8,0:0:0:0:
256,192,97390,1,8,0:0:0:0:
256,192,97465,1,0,0:0:0:0:
256,192,97615,1,8,0:0:0:0:
256,192,97765,1,0,0:0:0:0:
256,192,97915,1,0,0:0:0:0:
256,192,98065,1,8,0:0:0:0:
256,192,98215,1,8,0:0:0:0:
256,192,98365,1,0,0:0:0:0:
256,192,98665,1,8,0:0:0:0:
256,192,98740,1,0,0:0:0:0:
256,192,98815,1,8,0:0:0:0:
256,192,98890,1,8,0:0:0:0:
256,192,98965,1,0,0:0:0:0:
256,192,99115,1,8,0:0:0:0:
256,192,99265,1,0,0:0:0:0:
256,192,99415,1,8,0:0:0:0:
256,192,99565,1,0,0:0:0:0:
256,192,99715,1,0,0:0:0:0:
256,192,99865,1,8,0:0:0:0:
256,192,99940,1,8,0:0:0:0:
256,192,100015,1,0,0:0:0:0:
256,192,100165,1,8,0:0:0:0:
256,192,100315,1,0,0:0:0:0:
256,192,100465,1,8,0:0:0:0:
256,192,100765,1,0,0:0:0:0:
256,192,100915,1,8,0:0:0:0:
256,192,101065,1,0,0:0:0:0:
256,192,101215,1,0,0:0:0:0:
256,192,101515,1,8,0:0:0:0:
256,192,101665,1,0,0:0:0:0:
256,192,101740,1,0,0:0:0:0:
256,192,101815,1,8,0:0:0:0:
256,192,101965,1,0,0:0:0:0:
256,192,102115,1,0,0:0:0:0:
256,192,102265,1,8,0:0:0:0:
256,192,102565,1,8,0:0:0:0:
256,192,102715,1,0,0:0:0:0:
256,192,102865,1,0,0:0:0:0:
256,192,103015,1,8,0:0:0:0:
256,192,103165,1,8,0:0:0:0:
256,192,103315,1,0,0:0:0:0:
256,192,103465,1,8,0:0:0:0:
256,192,103540,1,8,0:0:0:0:
256,192,103615,1,0,0:0:0:0:
256,192,103765,1,8,0:0:0:0:
256,192,103915,1,0,0:0:0:0:
256,192,104065,1,8,0:0:0:0:
256,192,104140,1,0,0:0:0:0:
256,192,104215,1,0,0:0:0:0:
256,192,104290,1,0,0:0:0:0:
256,192,104365,1,8,0:0:0:0:
256,192,104515,1,0,0:0:0:0:
256,192,104815,1,0,0:0:0:0:
256,192,104965,1,8,0:0:0:0:
256,192,105115,1,8,0:0:0:0:
256,192,105265,1,0,0:0:0:0:
256,192,105340,1,0,0:0:0:0:
256,192,105415,1,8,0:0:0:0:
256,192,105565,1,0,0:0:0:0:
256,192,105715,1,8,0:0:0:0:
256,192,105865,1,0,0:0:0:0:
256,192,105940,1,8,0:0:0:0:
256,192,106015,1,8,0:0:0:0:
256,192,106090,1,8,0:0:0:0:
256,192,106165,1,0,0:0:0:0:
256,192,106315,1,8,0:0:0:0:
256,192,106615,1,8,0:0:0:0:
256,192,106765,1,0,0:0:0:0:
256,192,106915,1,0,0:0:0:0:
256,192,107065,1,8,0:0:0:0:
256,192,107140,1,8,0:0:0:0:
256,192,107215,1,0,0:0:0:0:
256,192,107290,1,0,0:0:0:0:
256,192,107365,1,8,0:0:0:0:
256,192,107515,1,0,0:0:0:0:
256,192,107665,1,12,0:0:0:0:
256,192,107965,1,0,0:0:0:0:
256,192,108115,1,8,0:0:0:0:
256,192,108265,1,0,0:0:0:0:
256,192,108415,1,8,0:0:0:0:
256,192,108565,1,8,0:0:0:0:
256,192,108715,1,0,0:0:0:0:
256,192,108865,1,0,0:0:0:0:
256,192,109015,1,8,0:0:0:0:
256,192,109090,1,8,0:0:0:0:
256,192,109165,1,0,0:0:0:0:
256,192,109465,1,12,0:0:0:0:
256,192,109765,1,0,0:0:0:0:
256,192,109915,1,8,0:0:0:0:
256,192,110065,1,8,0:0:0:0:
256,192,110215,1,0,0:0:0:0:
256,192,110365,1,8,0:0:0:0:
256,192,110515,1,8,0:0:0:0:
256,192,110665,1,0,0:0:0:0:
256,192,110815,1,8,0:0:0:0:
256,192,110890,1,0,0:0:0:0:
256,192,110965,1,8,0:0:0:0:
256,192,111265,1,12,0:0:0:0:
256,192,111565,1,0,0:0:0:0:
256,192,111715,1,8,0:0:0:0:
256,192,111790,1,8,0:0:0:0:
256,192,111865,1,0,0:0:0:0:
256,192,112015,1,8,0:0:0:0:
256,192,112165,1,0,0:0:0:0:
256,192,112315,1,0,0:0:0:0:
256,192,112465,1,8,0:0:0:0:
256,192,112615,1,0,0:0:0:0:
256,192,112765,1,8,0:0:0:0:
256,192,113065,1,0,0:0:0:0:
256,192,113140,1,0,0:0:0:0:
256,192,113215,1,8,0:0:0:0:
256,192,113290,1,0,0:0:0:0:
256,192,113365,1,8,0:0:0:0:
256,192,113515,1,8,0:0:0:0:
256,192,113665,1,0,0:0:0:0:
256,192,113815,1,8,0:0:0:0:
256,192,113965,1,0,0:0:0:0:
256,192,114115,1,0,0:0:0:0:
256,192,114265,1,8,0:0:0:0:
256,192,114340,1,8,0:0:0:0:
256,192,114415,1,0,0:0:0:0:
256,192,114565,1,8,0:0:0:0:
256,192,114715,1,8,0:0:0:0:
256,192,114865,1,0,0:0:0:0:
256,192,115165,1,8,0:0:0:0:
256,192,115315,1,8,0:0:0:0:
256,192,115465,1,0,0:0:0:0:
256,192,115615,1,8,0:0:0:0:
256,192,115915,1,8,0:0:0:0:
256,192,116065,1,0,0:0:0:0:
256,192,116215,1,0,0:0:0:0:
256,192,116365,1,8,0:0:0:0:
256,192,116515,1,0,0:0:0:0:
256,192,116665,1,8,0:0:0:0:
256,192,116965,1,8,0:0:0:0:
256,192,117115,1,0,0:0:0:0:
256,192,117415,1,0,0:0:0:0:
256,192,117565,1,8,0:0:0:0:
256,192,117715,1,8,0:0:0:0:
256,192,117865,1,0,0:0:0:0:
256,192,117940,1,0,0:0:0:0:
256,192,118015,1,8,0:0:0:0:
256,192,118165,1,8,0:0:0:0:
256,192,118315,1,0,0:0:0:0:
256,192,118465,1,8,0:0:0:0:
256,192,118540,1,8,0:0:0:0:
256,192,118615,1,0,0:0:0:0:
256,192,118690,1,8,0:0:0:0:
256,192,118765,1,0,0:0:0:0:
256,192,118915,1,8,0:0:0:0:
256,192,119215,1,8,0:0:0:0:
256,192,119365,1,0,0:0:0:0:
256,192,119515,1,8,0:0:0:0:
256,192,119665,1,0,0:0:0:0:
256,192,119740,1,0,0:0:0:0:
256,192,119815,1,8,0:0:0:0:
256,192,119965,1,0,0:0:0:0:
256,192,120115,1,8,0:0:0:0:
256,192,120265,1,0,0:0:0:0:
256,192,120340,1,8,0:0:0:0:
256,192,120415,1,0,0:0:0:0:
256,192,120490,1,0,0:0:0:0:
256,192,120565,1,8,0:0:0:0:
256,192,120715,1,0,0:0:0:0:
256,192,121015,1,0,0:0:0:0:
256,192,121165,1,8,0:0:0:0:
256,192,121315,1,8,0:0:0:0:
256,192,121465,1,0,0:0:0:0:
256,192,121540,1,0,0:0:0:0:
256,192,121615,1,8,0:0:0:0:
256,192,121690,1,8,0:0:0:0:
256,192,121765,1,0,0:0:0:0:
256,192,121915,1,8,0:0:0:0:
256,192,122065,1,4,0:0:0:0:
256,192,122365,1,8,0:0:0:0:
256,192,122515,1,0,0:0:0:0:
256,192,122665,1,0,0:0:0:0:
256,192,122815,1,8,0:0:0:0:
256,192,122965,1,8,0:0:0:0:
256,192,123115,1,0,0:0:0:0:
256,192,123265,1,0,0:0:0:0:
256,192,123415,1,8,0:0:0:0:
256,192,123490,1,8,0:0:0:0:
256,192,123565,1,0,0:0:0:0:
256,192,123865,1,8,0:0:0:0:
256,192,124015,1,0,0:0:0:0:
256,192,124165,1,0,0:0:0:0:
256,192,124315,1,8,0:0:0:0:
256,192,124465,1,0,0:0:0:0:
256,192,124615,1,8,0:0:0:0:
256,192,124765,1,8,0:0:0:0:
256,192,124915,1,0,0:0:0:0:
256,192,125065,1,8,0:0:0:0:
256,192,125140,1,8,0:0:0:0:
256,192,125215,1,8,0:0:0:0:
256,192,125290,1,8,0:0:0:0:
256,192,125365,1,0,0:0:0:0:
256,192,125515,1,0,0:0:0:0:
256,192,125665,1,12,0:0:0:0:
256,192,126865,1,0,0:0:0:0:
256,192,127465,1,8,0:0:0:0:
256,192,128665,1,0,0:0:0:0:
256,192,129265,1,8,0:0:0:0:
256,192,130465,1,0,0:0:0:0:
256,192,131065,1,0,0:0:0:0:
256,192,132265,1,0,0:0:0:0:
256,192,132865,1,8,0:0:0:0:
256,192,134665,1,8,0:0:0:0:
256,192,136465,1,0,0:0:0:0:
256,192,138265,1,8,0:0:0:0:
256,192,140065,1,8,0:0:0:0:
256,192,140440,1,0,0:0:0:0:
256,192,140665,1,8,0:0:0:0:
256,192,141265,1,8,0:0:0:0:
256,192,141865,1,0,0:0:0:0:
256,192,143065,1,8,0:0:0:0:
256,192,143665,1,0,0:0:0:0:
256,192,144040,1,8,0:0:0:0:
256,192,144265,1,0,0:0:0:0:
256,192,144865,1,8,0:0:0:0:
256,192,145465,1,0,0:0:0:0:
256,192,146665,1,0,0:0:0:0:
256,192,147265,1,8,0:0:0:0:
256,192,147640,1,0,0:0:0:0:
256,192,147865,1,0,0:0:0:0:
256,192,148465,1,8,0:0:0:0:
256,192,149065,1,0,0:0:0:0:
256,192,149665,1,0,0:0:0:0:
256,192,150265,1,8,0:0:0:0:
256,192,150865,1,0,0:0:0:0:
256,192,154465,5,12,0:0:0:0:
256,192,154765,1,8,0:0:0:0:
256,192,154915,1,0,0:0:0:0:
256,192,155065,1,0,0:0:0:0:
256,192,155215,1,8,0:0:0:0:
256,192,155365,1,0,0:0:0:0:
256,192,155515,1,8,0:0:0:0:
256,192,155665,1,8,0:0:0:0:
256,192,155815,1,0,0:0:0:0:
256,192,155965,1,8,0:0:0:0:
256,192,156265,1,4,0:0:0:0:
256,192,156565,1,8,0:0:0:0:
256,192,156715,1,0,0:0:0:0:
256,192,156865,1,0,0:0:0:0:
256,192,157015,1,8,0:0:0:0:
256,192,157165,1,8,0:0:0:0:
256,192,157315,1,0,0:0:0:0:
256,192,157465,1,8,0:0:0:0:
256,192,157615,1,8,0:0:0:0:
256,192,157765,1,0,0:0:0:0:
256,192,157915,1,0,0:0:0:0:
256,192,158065,1,12,0:0:0:0:
256,192,158365,1,0,0:0:0:0:
256,192,158515,1,8,0:0:0:0:
256,192,158665,1,0,0:0:0:0:
256,192,158815,1,8,0:0:0:0:
256,192,158965,1,8,0:0:0:0:
256,192,159115,1,0,0:0:0:0:
256,192,159265,1,8,0:0:0:0:
256,192,159415,1,0,0:0:0:0:
256,192,159565,1,8,0:0:0:0:
256,192,159865,1,4,0:0:0:0:
256,192,160165,1,8,0:0:0:0:
256,192,160315,1,0,0:0:0:0:
256,192,160465,1,8,0:0:0:0:
256,192,160615,1,8,0:0:0:0:
256,192,160765,1,0,0:0:0:0:
256,192,160915,1,8,0:0:0:0:
256,192,161065,1,8,0:0:0:0:
256,192,161215,1,0,0:0:0:0:
256,192,161365,1,0,0:0:0:0:
256,192,161515,1,0,0:0:0:0:
256,192,161665,1,12,0:0:0:0:
256,192,161965,1,0,0:0:0:0:
256,192,162115,1,8,0:0:0:0:
256,192,162265,1,8,0:0:0:0:
256,192,162415,1,0,0:0:0:0:
256,192,162565,1,8,0:0:0:0:
256,192,162715,1,0,0:0:0:0:
256,192,162865,1,0,0:0:0:0:
256,192,163015,1,8,0:0:0:0:
256,192,163165,1,8,0:0:0:0:
256,192,163465,1,4,0:0:0:0:
256,192,163765,1,8,0:0:0:0:
256,192,163915,1,0,0:0:0:0:
256,192,164065,1,0,0:0:0:0:
256,192,164215,1,8,0:0:0:0:
256,192,164365,1,0,0:0:0:0:
256,192,164515,1,8,0:0:0:0:
256,192,164665,1,8,0:0:0:0:
256,192,164815,1,0,0:0:0:0:
256,192,164965,1,8,0:0:0:0:
256,192,165115,1,0,0:0:0:0:
256,192,165265,1,12,0:0:0:0:
256,192,165565,1,0,0:0:0:0:
256,192,165715,1,8,0:0:0:0:
256,192,165865,1,8,0:0:0:0:
256,192,166015,1,0,0:0:0:0:
256,192,166165,1,8,0:0:0:0:
256,192,166315,1,0,0:0:0:0:
256,192,166465,1,0,0:0:0:0:
256,192,166615,1,8,0:0:0:0:
256,192,166765,1,0,0:0:0:0:
256,192,166915,1,8,0:0:0:0:
256,192,167065,1,12,0:0:0:0:
256,192,167365,1,8,0:0:0:0:
256,192,167515,1,0,0:0:0:0:
256,192,167665,1,0,0:0:0:0:
256,192,167815,1,8,0:0:0:0:
256,192,167965,1,0,0:0:0:0:
256,192,168115,1,8,0:0:0:0:
256,192,168265,1,0,0:0:0:0:
256,192,168415,1,0,0:0:0:0:
256,192,168565,1,8,0:0:0:0:
256,192,168715,1,0,0:0:0:0:
256,192,168865,1,12,0:0:0:0:
256,192,169165,1,8,0:0:0:0:
256,192,169315,1,0,0:0:0:0:
256,192,169465,1,0,0:0:0:0:
256,192,169615,1,8,0:0:0:0:
256,192,169765,1,0,0:0:0:0:
256,192,169915,1,8,0:0:0:0:
256,192,170065,1,8,0:0:0:0:
256,192,170215,1,0,0:0:0:0:
256,192,170365,1,8,0:0:0:0:
256,192,170515,1,8,0:0:0:0:
256,192,170665,1,4,0:0:0:0:
256,192,170965,1,0,0:0:0:0:
256,192,171115,1,8,0:0:0:0:
256,192,171265,1,8,0:0:0:0:
256,192,171415,1,0,0:0:0:0:
256,192,171565,1,8,0:0:0:0:
256,192,171715,1,0,0:0:0:0:
256,192,171865,1,0,0:0:0:0:
256,192,172015,1,8,0:0:0:0:
256,192,172165,1,0,0:0:0:0:
256,192,172315,1,0,0:0:0:0:
256,192,172465,1,12,0:0:0:0:
256,192,172765,1,8,0:0:0:0:
256,192,172915,1,0,0:0:0:0:
256,192,173065,1,0,0:0:0:0:
256,192,173215,1,8,0:0:0:0:
256,192,173365,1,8,0:0:0:0:
256,192,173515,1,0,0:0:0:0:
256,192,173665,1,8,0:0:0:0:
256,192,173815,1,0,0:0:0:0:
256,192,173965,1,8,0:0:0:0:
256,192,174115,1,8,0:0:0:0:
256,192,174265,1,4,0:0:0:0:
256,192,174565,1,8,0:0:0:0:
256,192,174715,1,0,0:0:0:0:
256,192,174865,1,8,0:0:0:0:
256,192,175015,1,0,0:0:0:0:
256,192,175165,1,0,0:0:0:0:
256,192,175315,1,8,0:0:0:0:
256,192,175465,1,8,0:0:0:0:
256,192,175615,1,0,0:0:0:0:
256,192,175765,1,8,0:0:0:0:
256,192,175915,1,0,0:0:0:0:
256,192,176065,1,12,0:0:0:0:
256,192,176365,1,0,0:0:0:0:
256,192,176515,1,8,0:0:0:0:
256,192,176665,1,8,0:0:0:0:
256,192,176815,1,0,0:0:0:0:
256,192,176965,1,8,0:0:0:0:
256,192,177115,1,0,0:0:0:0:
256,192,177265,1,0,0:0:0:0:
256,192,177415,1,8,0:0:0:0:
256,192,177565,1,8,0:0:0:0:
256,192,177715,1,8,0:0:0:0:
256,192,177865,1,4,0:0:0:0:
256,192,178165,1,8,0:0:0:0:
256,192,178315,1,8,0:0:0:0:
256,192,178465,1,0,0:0:0:0:
256,192,178615,1,8,0:0:0:0:
256,192,178765,1,8,0:0:0:0:
256,192,178915,1,0,0:0:0:0:
256,192,179065,1,0,0:0:0:0:
256,192,179215,1,8,0:0:0:0:
256,192,179365,1,0,0:0:0:0:
256,192,179515,1,0,0:0:0:0:
256,192,179665,1,12,0:0:0:0:
256,192,179965,1,0,0:0:0:0:
256,192,180115,1,8,0:0:0:0:
256,192,180265,1,0,0:0:0:0:
256,192,180415,1,8,0:0:0:0:
256,192,180565,1,8,0:0:0:0:
256,192,180715,1,0,0:0:0:0:
256,192,180865,1,8,0:0:0:0:
256,192,181015,1,0,0:0:0:0:
256,192,181165,1,8,0:0:0:0:
256,192,181315,1,8,0:0:0:0:
256,192,181465,1,4,0:0:0:0:
256,192,181765,1,0,0:0:0:0:
256,192,181915,1,8,0:0:0:0:
256,192,182065,1,8,0:0:0:0:
256,192,182215,1,0,0:0:0:0:
256,192,182365,1,8,0:0:0:0:
256,192,182515,1,0,0:0:0:0:
256,192,182665,1,8,0:0:0:0:
256,192,182740,1,8,0:0:0:0:
256,192,182815,1,8,0:0:0:0:
256,192,182890,1,8,0:0:0:0:
256,192,182965,1,0,0:0:0:0:
256,192,183040,1,0,0:0:0:0:
256,192,183115,1,0,0:0:0:0:
256,192,183265,1,12,0:0:0:0:
256,192,183565,1,0,0:0:0:0:
256,192,183715,1,8,0:0:0:0:
256,192,183790,1,8,0:0:0:0:
256,192,183865,1,0,0:0:0:0:
256,192,183940,1,0,0:0:0:0:
256,192,184015,1,8,0:0:0:0:
256,192,184165,1,0,0:0:0:0:
256,192,184315,1,0,0:0:0:0:
256,192,184465,1,8,0:0:0:0:
256,192,184540,1,8,0:0:0:0:
256,192,184615,1,0,0:0:0:0:
256,192,184765,1,8,0:0:0:0:
256,192,185065,1,8,0:0:0:0:
256,192,185140,1,0,0:0:0:0:
256,192,185215,1,8,0:0:0:0:
256,192,185290,1,8,0:0:0:0:
256,192,185365,1,0,0:0:0:0:
256,192,185515,1,8,0:0:0:0:
256,192,185665,1,0,0:0:0:0:
256,192,185815,1,8,0:0:0:0:
256,192,185965,1,0,0:0:0:0:
256,192,186115,1,0,0:0:0:0:
256,192,186265,1,8,0:0:0:0:
256,192,186340,1,8,0:0:0:0:
256,192,186415,1,0,0:0:0:0:
256,192,186490,1,0,0:0:0:0:
256,192,186565,1,8,0:0:0:0:
256,192,186715,1,0,0:0:0:0:
256,192,186865,1,8,0:0:0:0:
256,192,187015,1,0,0:0:0:0:
256,192,187090,1,0,0:0:0:0:
256,192,187165,1,8,0:0:0:0:
256,192,187315,1,0,0:0:0:0:
256,192,187465,1,0,0:0:0:0:
256,192,187615,1,8,0:0:0:0:
256,192,187915,1,8,0:0:0:0:
256,192,188065,1,0,0:0:0:0:
256,192,188140,1,0,0:0:0:0:
256,192,188215,1,8,0:0:0:0:
256,192,188365,1,0,0:0:0:0:
256,192,188515,1,0,0:0:0:0:
256,192,188665,1,8,0:0:0:0:
256,192,188965,1,8,0:0:0:0:
256,192,189115,1,0,0:0:0:0:
256,192,189265,1,0,0:0:0:0:
256,192,189415,1,8,0:0:0:0:
256,192,189565,1,8,0:0:0:0:
256,192,189715,1,0,0:0:0:0:
256,192,189865,1,8,0:0:0:0:
256,192,189940,1,8,0:0:0:0:
256,192,190015,1,0,0:0:0:0:
256,192,190165,1,8,0:0:0:0:
256,192,190315,1,0,0:0:0:0:
256,192,190465,1,8,0:0:0:0:
256,192,190540,1,0,0:0:0:0:
256,192,190615,1,0,0:0:0:0:
256,192,190690,1,0,0:0:0:0:
256,192,190765,1,8,0:0:0:0:
256,192,190915,1,0,0:0:0:0:
256,192,191215,1,0,0:0:0:0:
256,192,191365,1,8,0:0:0:0:
256,192,191515,1,8,0:0:0:0:
256,192,191665,1,0,0:0:0:0:
256,192,191740,1,0,0:0:0:0:
256,192,191815,1,8,0:0:0:0:
256,192,191965,1,0,0:0:0:0:
256,192,192115,1,8,0:0:0:0:
256,192,192265,1,0,0:0:0:0:
256,192,192340,1,8,0:0:0:0:
256,192,192415,1,8,0:0:0:0:
256,192,192490,1,8,0:0:0:0:
256,192,192565,1,0,0:0:0:0:
256,192,192715,1,8,0:0:0:0:
256,192,193015,1,8,0:0:0:0:
256,192,193165,1,0,0:0:0:0:
256,192,193315,1,0,0:0:0:0:
256,192,193465,1,8,0:0:0:0:
256,192,193540,1,8,0:0:0:0:
256,192,193615,1,0,0:0:0:0:
256,192,193690,1,0,0:0:0:0:
256,192,193765,1,8,0:0:0:0:
256,192,193915,1,0,0:0:0:0:
256,192,194065,1,12,0:0:0:0:
256,192,194365,1,0,0:0:0:0:
256,192,194515,1,8,0:0:0:0:
256,192,194665,1,8,0:0:0:0:
256,192,194815,1,0,0:0:0:0:
256,192,194965,1,8,0:0:0:0:
256,192,195115,1,0,0:0:0:0:
256,192,195265,1,0,0:0:0:0:
256,192,195415,1,8,0:0:0:0:
256,192,195565,1,0,0:0:0:0:
256,192,195865,1,12,0:0:0:0:
256,192,196165,1,0,0:0:0:0:
256,192,196315,1,8,0:0:0:0:
256,192,196465,1,0,0:0:0:0:
256,192,196615,1,8,0:0:0:0:
256,192,196765,1,8,0:0:0:0:
256,192,196915,1,0,0:0:0:0:
256,192,197065,1,0,0:0:0:0:
256,192,197215,1,8,0:0:0:0:
256,192,197365,1,0,0:0:0:0:
256,192,197665,1,12,0:0:0:0:
256,192,197965,1,0,0:0:0:0:
256,192,198115,1,8,0:0:0:0:
256,192,198190,1,8,0:0:0:0:
256,192,198265,1,0,0:0:0:0:
256,192,198340,1,0,0:0:0:0:
256,192,198415,1,8,0:0:0:0:
256,192,198565,1,0,0:0:0:0:
256,192,198715,1,8,0:0:0:0:
256,192,198865,1,0,0:0:0:0:
256,192,198940,1,0,0:0:0:0:
256,192,199015,1,8,0:0:0:0:
256,192,199165,1,0,0:0:0:0:
256,192,199465,1,8,0:0:0:0:
256,192,199540,1,0,0:0:0:0:
256,192,199615,1,8,0:0:0:0:
256,192,199690,1,8,0:0:0:0:
256,192,199765,1,0,0:0:0:0:
256,192,199915,1,8,0:0:0:0:
256,192,200065,1,0,0:0:0:0:
256,192,200215,1,8,0:0:0:0:
256,192,200365,1,0,0:0:0:0:
256,192,200515,1,0,0:0:0:0:
256,192,200665,1,8,0:0:0:0:
256,192,200740,1,8,0:0:0:0:
256,192,200815,1,0,0:0:0:0:
256,192,200890,1,0,0:0:0:0:
256,192,200965,1,8,0:0:0:0:
256,192,201115,1,0,0:0:0:0:
256,192,201265,1,8,0:0:0:0:
256,192,201340,1,8,0:0:0:0:
256,192,201415,1,0,0:0:0:0:
256,192,201565,1,8,0:0:0:0:
256,192,201715,1,0,0:0:0:0:
256,192,201865,1,0,0:0:0:0:
256,192,202015,1,8,0:0:0:0:
256,192,202315,1,8,0:0:0:0:
256,192,202465,1,0,0:0:0:0:
256,192,202615,1,8,0:0:0:0:
256,192,202765,1,0,0:0:0:0:
256,192,202915,1,0,0:0:0:0:
256,192,203065,1,8,0:0:0:0:
256,192,203365,1,8,0:0:0:0:
256,192,203515,1,0,0:0:0:0:
256,192,203665,1,8,0:0:0:0:
256,192,203815,1,8,0:0:0:0:
256,192,203965,1,0,0:0:0:0:
256,192,204115,1,0,0:0:0:0:
256,192,204265,1,8,0:0:0:0:
256,192,204340,1,8,0:0:0:0:
256,192,204415,1,0,0:0:0:0:
256,192,204565,1,8,0:0:0:0:
256,192,204715,1,0,0:0:0:0:
256,192,204865,1,8,0:0:0:0:
256,192,204940,1,8,0:0:0:0:
256,192,205015,1,0,0:0:0:0:
256,192,205090,1,0,0:0:0:0:
256,192,205165,1,8,0:0:0:0:
256,192,205315,1,0,0:0:0:0:
256,192,205615,1,0,0:0:0:0:
256,192,205765,1,8,0:0:0:0:
256,192,205915,1,8,0:0:0:0:
256,192,206065,1,0,0:0:0:0:
256,192,206140,1,0,0:0:0:0:
256,192,206215,1,8,0:0:0:0:
256,192,206365,1,0,0:0:0:0:
256,192,206515,1,8,0:0:0:0:
256,192,206665,1,0,0:0:0:0:
256,192,206740,1,0,0:0:0:0:
256,192,206815,1,8,0:0:0:0:
256,192,206890,1,8,0:0:0:0:
256,192,206965,1,0,0:0:0:0:
256,192,207115,1,8,0:0:0:0:
256,192,207415,1,8,0:0:0:0:
256,192,207565,1,0,0:0:0:0:
256,192,207715,1,0,0:0:0:0:
256,192,207865,1,8,0:0:0:0:
256,192,207940,1,8,0:0:0:0:
256,192,208015,1,0,0:0:0:0:
256,192,208090,1,0,0:0:0:0:
256,192,208165,1,8,0:0:0:0:
256,192,208315,1,0,0:0:0:0:
256,192,208465,1,12,0:0:0:0:
256,192,208765,1,8,0:0:0:0:
256,192,208915,1,0,0:0:0:0:
256,192,209065,1,0,0:0:0:0:
256,192,209215,1,8,0:0:0:0:
256,192,209365,1,8,0:0:0:0:
256,192,209515,1,0,0:0:0:0:
256,192,209665,1,0,0:0:0:0:
256,192,209815,1,8,0:0:0:0:
256,192,209890,1,8,0:0:0:0:
256,192,209965,1,0,0:0:0:0:
256,192,210115,1,8,0:0:0:0:
256,192,210265,1,4,0:0:0:0:
256,192,210565,1,8,0:0:0:0:
256,192,210715,1,0,0:0:0:0:
256,192,210865,1,8,0:0:0:0:
256,192,211015,1,0,0:0:0:0:
256,192,211165,1,0,0:0:0:0:
256,192,211315,1,8,0:0:0:0:
256,192,211465,1,8,0:0:0:0:
256,192,211615,1,0,0:0:0:0:
256,192,211690,1,0,0:0:0:0:
256,192,211765,1,8,0:0:0:0:
256,192,211915,1,0,0:0:0:0:
256,192,212065,1,12,0:0:0:0:
256,192,212365,1,0,0:0:0:0:
256,192,212515,1,8,0:0:0:0:
256,192,212665,1,8,0:0:0:0:
256,192,212815,1,0,0:0:0:0:
256,192,212965,1,0,0:0:0:0:
256,192,213115,1,8,0:0:0:0:
256,192,213265,1,8,0:0:0:0:
256,192,213415,1,0,0:0:0:0:
256,192,213490,1,8,0:0:0:0:
256,192,213565,1,0,0:0:0:0:
256,192,213715,1,0,0:0:0:0:
256,192,213865,1,8,0:0:0:0:
256,192,214015,1,0,0:0:0:0:
256,192,214165,1,0,0:0:0:0:
256,192,214315,1,8,0:0:0:0:
256,192,214465,1,8,0:0:0:0:
256,192,214615,1,0,0:0:0:0:
256,192,214765,1,8,0:0:0:0:
256,192,214915,1,8,0:0:0:0:
256,192,215065,1,8,0:0:0:0:
256,192,215215,1,4,0:0:0:0:
256,192,215665,1,8,0:0:0:0:
256,192,216865,1,0,0:0:0:0:
256,192,217465,1,8,0:0:0:0:
256,192,218665,1,0,0:0:0:0:
256,192,219265,1,8,0:0:0:0:
256,192,220465,1,0,0:0:0:0:
256,192,221065,1,0,0:0:0:0:
256,192,222265,1,0,0:0:0:0:
256,192,222865,1,8,0:0:0:0:
256,192,224065,1,0,0:0:0:0:
256,192,224665,1,8,0:0:0:0:
256,192,225865,1,0,0:0:0:0:
256,192,226465,1,0,0:0:0:0:
256,192,227665,1,8,0:0:0:0:
256,192,228265,1,0,0:0:0:0:
256,192,228865,1,0,0:0:0:0:
256,192,229465,1,0,0:0:0:0:
256,192,230065,1,8,0:0:0:0:
256,192,230440,1,0,0:0:0:0:
256,192,230665,1,8,0:0:0:0:
256,192,231265,1,8,0:0:0:0:
256,192,231865,1,0,0:0:0:0:
256,192,232240,1,8,0:0:0:0:
256,192,232465,1,8,0:0:0:0:
256,192,233065,1,8,0:0:0:0:
256,192,233665,1,0,0:0:0:0:
256,192,234040,1,8,0:0:0:0:
256,192,234265,1,0,0:0:0:0:
256,192,234865,1,8,0:0:0:0:
256,192,235465,1,0,0:0:0:0:
256,192,236065,1,8,0:0:0:0:
256,192,236665,1,8,0:0:0:0:
256,192,237265,1,8,0:0:0:0:
256,192,237640,1,0,0:0:0:0:
256,192,237865,1,8,0:0:0:0:
256,192,238465,1,8,0:0:0:0:
256,192,239065,1,0,0:0:0:0:
256,192,239665,1,0,0:0:0:0:
256,192,240265,1,8,0:0:0:0:
256,192,240865,1,0,0:0:0:0:
256,192,243653,1,8,0:0:0:0:
256,192,243883,1,0,0:0:0:0:
256,192,244380,1,0,0:0:0:0:
256,192,244507,1,0,0:0:0:0:
256,192,244635,5,12,0:0:0:0:
256,192,245618,1,8,0:0:0:0:
256,192,246110,1,0,0:0:0:0:
256,192,246438,1,0,0:0:0:0:
256,192,246602,1,8,0:0:0:0:
256,192,247094,1,8,0:0:0:0:
256,192,247585,1,8,0:0:0:0:
256,192,248077,1,0,0:0:0:0:
256,192,248405,1,0,0:0:0:0:
256,192,248569,1,8,0:0:0:0:
256,192,248897,1,0,0:0:0:0:
256,192,249061,1,0,0:0:0:0:
256,192,249553,1,8,0:0:0:0:
256,192,250044,1,0,0:0:0:0:
256,192,250372,1,8,0:0:0:0:
256,192,250536,1,0,0:0:0:0:
256,192,251028,1,0,0:0:0:0:
256,192,251520,1,8,0:0:0:0:
256,192,251848,1,0,0:0:0:0:
256,192,252012,1,8,0:0:0:0:
256,192,252339,1,8,0:0:0:0:
256,192,252503,1,0,0:0:0:0:
256,192,253486,1,8,0:0:0:0:
256,192,253978,1,0,0:0:0:0:
256,192,254306,1,8,0:0:0:0:
256,192,254470,1,0,0:0:0:0:
256,192,254962,1,8,0:0:0:0:
256,192,255453,1,8,0:0:0:0:
256,192,255945,1,0,0:0:0:0:
256,192,256273,1,0,0:0:0:0:
256,192,256437,1,8,0:0:0:0:
256,192,256765,1,0,0:0:0:0:
256,192,256929,1,0,0:0:0:0:
256,192,257421,1,8,0:0:0:0:
256,192,257912,1,0,0:0:0:0:
256,192,258240,1,8,0:0:0:0:
256,192,258405,1,0,0:0:0:0:
256,192,258896,1,0,0:0:0:0:
256,192,259388,1,8,0:0:0:0:
256,192,259716,1,0,0:0:0:0:
256,192,259880,1,8,0:0:0:0:
256,192,260208,1,8,0:0:0:0:
256,192,260372,1,0,0:0:0:0:
256,192,260864,1,0,0:0:0:0:
256,192,261355,1,8,0:0:0:0:
256,192,261683,1,0,0:0:0:0:
256,192,261847,1,8,0:0:0:0:
256,192,262175,1,8,0:0:0:0:
256,192,262339,1,0,0:0:0:0:
256,192,263323,1,8,0:0:0:0:
256,192,263814,1,0,0:0:0:0:
256,192,264142,1,0,0:0:0:0:
256,192,264306,1,8,0:0:0:0:
256,192,264798,1,8,0:0:0:0:
256,192,265290,1,0,0:0:0:0:
256,192,265618,1,0,0:0:0:0:
256,192,265782,1,8,0:0:0:0:
256,192,266274,1,0,0:0:0:0:
256,192,267257,1,8,0:0:0:0:
256,192,267749,1,0,0:0:0:0:
256,192,268077,1,8,0:0:0:0:
256,192,268241,1,0,0:0:0:0:
256,192,268569,1,0,0:0:0:0:
256,192,268733,1,8,0:0:0:0:
256,192,269224,1,8,0:0:0:0:
256,192,269552,1,0,0:0:0:0:
256,192,269716,1,0,0:0:0:0:
256,192,270044,1,8,0:0:0:0:
256,192,270208,1,0,0:0:0:0:
256,192,270700,1,0,0:0:0:0:
256,192,271028,1,0,0:0:0:0:
256,192,271192,1,8,0:0:0:0:
256,192,271519,1,8,0:0:0:0:
256,192,271683,1,0,0:0:0:0:
256,192,271847,1,8,0:0:0:0:
256,192,272011,1,8,0:0:0:0:
256,192,272175,1,4,0:0:0:0:
256,192,273158,1,8,0:0:0:0:
256,192,273650,1,0,0:0:0:0:
256,192,273978,1,8,0:0:0:0:
256,192,274142,1,0,0:0:0:0:
256,192,274634,1,8,0:0:0:0:
256,192,275125,1,8,0:0:0:0:
256,192,275453,1,0,0:0:0:0:
256,192,275617,1,0,0:0:0:0:
256,192,275945,1,0,0:0:0:0:
256,192,276109,1,8,0:0:0:0:
256,192,276437,1,0,0:0:0:0:
256,192,276601,1,8,0:0:0:0:
256,192,277093,1,0,0:0:0:0:
256,192,277584,1,8,0:0:0:0:
256,192,277912,1,0,0:0:0:0:
256,192,278076,1,8,0:0:0:0:
256,192,278568,1,8,0:0:0:0:
256,192,279060,1,0,0:0:0:0:
256,192,279552,1,8,0:0:0:0:
256,192,280044,1,0,0:0:0:0:
256,192,281027,1,8,0:0:0:0:
256,192,281519,1,0,0:0:0:0:
256,192,281642,1,8,0:0:0:0:
256,192,282011,1,0,0:0:0:0:
256,192,282994,1,8,0:0:0:0:
256,192,283486,1,0,0:0:0:0:
256,192,283732,1,8,0:0:0:0:
256,192,283978,1,8,0:0:0:0:
256,192,284470,1,0,0:0:0:0:
256,192,284962,1,8,0:0:0:0:
256,192,285289,1,0,0:0:0:0:
256,192,285453,1,8,0:0:0:0:
256,192,285781,1,8,0:0:0:0:
256,192,285946,1,0,0:0:0:0:
256,192,286929,1,8,0:0:0:0:
256,192,287421,1,0,0:0:0:0:
256,192,287749,1,0,0:0:0:0:
256,192,287913,1,8,0:0:0:0:
256,192,288405,1,0,0:0:0:0:
256,192,288896,1,8,0:0:0:0:
256,192,289388,1,8,0:0:0:0:
256,192,289880,1,0,0:0:0:0:
256,192,290208,1,8,0:0:0:0:
256,192,290372,1,0,0:0:0:0:
256,192,290864,1,8,0:0:0:0:
256,192,291355,1,8,0:0:0:0:
256,192,291683,1,8,0:0:0:0:
256,192,291847,1,0,0:0:0:0:
256,192,292175,1,0,0:0:0:0:
256,192,292339,1,8,0:0:0:0:
256,192,292831,1,0,0:0:0:0:
256,192,293323,1,8,0:0:0:0:
256,192,293815,1,0,0:0:0:0:
256,192,294142,1,8,0:0:0:0:
256,192,294306,1,0,0:0:0:0:
256,192,294798,1,8,0:0:0:0:
256,192,295290,1,0,0:0:0:0:
256,192,295618,1,8,0:0:0:0:
256,192,295782,1,0,0:0:0:0:
256,192,296274,1,8,0:0:0:0:
256,192,296765,1,0,0:0:0:0:
256,192,297257,1,8,0:0:0:0:
256,192,297585,1,0,0:0:0:0:
256,192,297749,1,0,0:0:0:0:
256,192,298077,1,8,0:0:0:0:
256,192,298241,1,0,0:0:0:0:
256,192,298569,1,0,0:0:0:0:
256,192,298733,1,8,0:0:0:0:
256,192,298896,1,8,0:0:0:0:
256,192,299060,1,0,0:0:0:0:
256,192,299224,1,8,0:0:0:0:
256,192,299388,1,0,0:0:0:0:
256,192,299552,1,0,0:0:0:0:
256,192,299716,1,12,0:0:0:0:
256,192,300207,1,0,0:0:0:0:
256,192,300699,1,8,0:0:0:0:
256,192,301191,1,8,0:0:0:0:
256,192,301519,1,8,0:0:0:0:
256,192,301683,1,0,0:0:0:0:
256,192,302011,1,0,0:0:0:0:
256,192,302175,1,8,0:0:0:0:
256,192,302666,1,8,0:0:0:0:
256,192,302994,1,0,0:0:0:0:
256,192,303158,1,0,0:0:0:0:
256,192,303486,1,0,0:0:0:0:
256,192,303650,1,8,0:0:0:0:
256,192,303978,1,8,0:0:0:0:
256,192,304142,1,0,0:0:0:0:
256,192,304634,1,8,0:0:0:0:
256,192,305125,1,0,0:0:0:0:
256,192,305453,1,0,0:0:0:0:
256,192,305617,1,8,0:0:0:0:
256,192,305945,1,8,0:0:0:0:
256,192,306109,1,0,0:0:0:0:
256,192,306601,1,8,0:0:0:0:
256,192,306929,1,0,0:0:0:0:
256,192,307093,1,8,0:0:0:0:
256,192,307585,1,0,0:0:0:0:
256,192,307912,1,8,0:0:0:0:
256,192,308076,1,0,0:0:0:0:
256,192,308568,1,8,0:0:0:0:
256,192,309060,1,0,0:0:0:0:
256,192,309388,1,8,0:0:0:0:
256,192,309552,1,0,0:0:0:0:
256,192,310044,1,0,0:0:0:0:
256,192,310535,1,8,0:0:0:0:
256,192,311027,1,0,0:0:0:0:
256,192,311355,1,8,0:0:0:0:
256,192,311519,1,0,0:0:0:0:
256,192,312011,1,0,0:0:0:0:
256,192,312503,1,8,0:0:0:0:
256,192,312830,1,0,0:0:0:0:
256,192,312994,1,8,0:0:0:0:
256,192,313487,1,0,0:0:0:0:
256,192,313732,1,8,0:0:0:0:
256,192,313978,1,0,0:0:0:0:
256,192,314224,1,0,0:0:0:0:
256,192,314470,1,8,0:0:0:0:
256,192,314716,1,8,0:0:0:0:
256,192,314962,1,0,0:0:0:0:
256,192,315454,1,8,0:0:0:0:
256,192,315782,1,0,0:0:0:0:
256,192,315946,1,0,0:0:0:0:
256,192,316437,1,8,0:0:0:0:
256,192,316929,1,0,0:0:0:0:
256,192,317421,1,8,0:0:0:0:
256,192,317749,1,0,0:0:0:0:
256,192,317913,1,8,0:0:0:0:
256,192,318405,1,0,0:0:0:0:
256,192,318896,1,0,0:0:0:0:
256,192,319224,1,0,0:0:0:0:
256,192,319388,1,8,0:0:0:0:
256,192,319716,1,0,0:0:0:0:
256,192,319880,1,0,0:0:0:0:
256,192,320372,1,8,0:0:0:0:
256,192,320700,1,0,0:0:0:0:
256,192,320864,1,8,0:0:0:0:
256,192,321191,1,8,0:0:0:0:
256,192,321356,1,0,0:0:0:0:
256,192,321847,1,0,0:0:0:0:
256,192,322339,1,8,0:0:0:0:
256,192,322831,1,0,0:0:0:0:
256,192,323159,1,8,0:0:0:0:
256,192,323323,1,0,0:0:0:0:
256,192,323815,1,0,0:0:0:0:
256,192,324306,1,8,0:0:0:0:
256,192,325290,1,0,0:0:0:0:
256,192,325782,1,0,0:0:0:0:
256,192,326274,1,8,0:0:0:0:
256,192,326601,1,0,0:0:0:0:
256,192,326765,1,0,0:0:0:0:
256,192,327257,1,12,0:0:0:0:
256,192,328240,1,0,0:0:0:0:
256,192,328732,1,8,0:0:0:0:
256,192,329060,1,0,0:0:0:0:
256,192,329224,1,0,0:0:0:0:
256,192,329716,1,0,0:0:0:0:
256,192,330207,1,8,0:0:0:0:
256,192,331191,1,0,0:0:0:0:
256,192,331683,1,8,0:0:0:0:
256,192,332175,1,0,0:0:0:0:
256,192,332666,1,0,0:0:0:0:
256,192,333158,1,8,0:0:0:0:
256,192,333650,1,8,0:0:0:0:
256,192,334142,1,0,0:0:0:0:
256,192,335126,1,8,0:0:0:0:
256,192,336109,1,0,0:0:0:0:
256,192,337093,1,8,0:0:0:0:
256,192,337585,1,8,0:0:0:0:
256,192,338076,1,0,0:0:0:0:
256,192,339060,1,8,0:0:0:0:
256,192,340044,1,0,0:0:0:0:
256,192,340535,1,0,0:0:0:0:
256,192,341028,1,8,0:0:0:0:
