osu file format v14

[General]
AudioFilename: audio.mp3
AudioLeadIn: 0
PreviewTime: -1
Countdown: 1
SampleSet: Normal
StackLeniency: 0.7
Mode: 3
LetterboxInBreaks: 0
SpecialStyle: 0
WidescreenStoryboard: 0

[Editor]
DistanceSpacing: 0.8
BeatDivisor: 4
GridSize: 32
TimelineZoom: 1

[Metadata]
Title:Moth To A Flame
TitleUnicode:Moth To A Flame
Artist:Swedish House Mafia, The Weeknd
ArtistUnicode:Swedish House Mafia, The Weeknd
Creator:thefrenchrex
Version:Hard
Source:
Tags:
BeatmapID:3692966
BeatmapSetID:1801156

[Difficulty]
HPDrainRate:5
CircleSize:4
OverallDifficulty:5
ApproachRate:5
SliderMultiplier:1.4
SliderTickRate:1

[Events]
//Background and Video events
//Break Periods
2,161575,173112
//Storyboard Layer 0 (Background)
//Storyboard Layer 1 (Fail)
//Storyboard Layer 2 (Pass)
//Storyboard Layer 3 (Foreground)
//Storyboard Layer 4 (Overlay)
//Storyboard Sound Samples

[TimingPoints]
0,250,4,1,0,100,1,0

[HitObjects]
64,192,249,5,8,0:0:0:0:
64,192,1187,1,8,0:0:0:0:
64,192,2124,1,8,0:0:0:0:
64,192,3187,1,8,0:0:0:0:
64,192,3749,1,8,0:0:0:0:
192,192,4249,1,8,0:0:0:0:
192,192,5187,1,8,0:0:0:0:
192,192,6187,1,8,0:0:0:0:
192,192,7187,1,8,0:0:0:0:
192,192,7687,1,8,0:0:0:0:
64,192,8124,1,8,0:0:0:0:
64,192,9124,1,8,0:0:0:0:
64,192,10124,1,8,0:0:0:0:
64,192,11249,1,8,0:0:0:0:
192,192,11687,1,8,0:0:0:0:
64,192,12187,1,8,0:0:0:0:
64,192,13187,1,8,0:0:0:0:
64,192,14187,1,8,0:0:0:0:
192,192,14437,1,8,0:0:0:0:
320,192,14437,1,8,0:0:0:0:
192,192,14687,1,8,0:0:0:0:
320,192,14687,1,8,0:0:0:0:
320,192,15187,1,8,0:0:0:0:
192,192,15187,1,8,0:0:0:0:
64,192,15749,1,8,0:0:0:0:
192,192,15749,1,8,0:0:0:0:
320,192,15749,1,8,0:0:0:0:
448,192,15749,1,8,0:0:0:0:
192,192,16000,128,8,17500:0:0:0:0:
192,192,17749,1,8,0:0:0:0:
64,192,17749,1,8,0:0:0:0:
64,192,17999,1,8,0:0:0:0:
192,192,18250,128,8,20000:0:0:0:0:
64,192,18250,128,8,20000:0:0:0:0:
64,192,20249,1,8,0:0:0:0:
192,192,20249,1,8,0:0:0:0:
64,192,21124,1,8,0:0:0:0:
320,192,21437,128,8,22250:0:0:0:0:
192,192,21437,128,8,22250:0:0:0:0:
448,192,22249,1,8,0:0:0:0:
192,192,22624,1,8,0:0:0:0:
320,192,22624,1,8,0:0:0:0:
448,192,22624,1,8,0:0:0:0:
192,192,23187,1,8,0:0:0:0:
448,192,23187,1,8,0:0:0:0:
192,192,23687,1,8,0:0:0:0:
448,192,23687,1,8,0:0:0:0:
64,192,24187,1,8,0:0:0:0:
320,192,24187,1,8,0:0:0:0:
320,192,24625,128,8,25375:0:0:0:0:
448,192,24625,128,8,25375:0:0:0:0:
64,192,24625,128,8,25375:0:0:0:0:
64,192,25687,1,8,0:0:0:0:
192,192,25687,1,8,0:0:0:0:
320,192,25687,1,8,0:0:0:0:
448,192,25687,1,8,0:0:0:0:
64,192,25874,1,8,0:0:0:0:
192,192,25874,1,8,0:0:0:0:
192,192,26187,128,8,26812:0:0:0:0:
64,192,26187,128,8,26812:0:0:0:0:
320,192,26999,1,8,0:0:0:0:
64,192,26999,1,8,0:0:0:0:
192,192,26999,1,8,0:0:0:0:
448,192,27249,1,8,0:0:0:0:
320,192,27249,1,8,0:0:0:0:
64,192,27249,1,8,0:0:0:0:
64,192,27562,1,8,0:0:0:0:
192,192,27562,1,8,0:0:0:0:
448,192,27562,1,8,0:0:0:0:
64,192,28000,128,8,29875:0:0:0:0:
192,192,28000,128,8,29875:0:0:0:0:
448,192,28000,128,8,29875:0:0:0:0:
64,192,31624,1,8,0:0:0:0:
192,192,31624,1,8,0:0:0:0:
64,192,31874,1,8,0:0:0:0:
192,192,31874,1,8,0:0:0:0:
320,192,31874,1,8,0:0:0:0:
192,192,32187,128,8,33562:0:0:0:0:
64,192,32187,128,8,33562:0:0:0:0:
320,192,32187,128,8,33562:0:0:0:0:
64,192,33749,1,8,0:0:0:0:
448,192,33749,1,8,0:0:0:0:
64,192,33937,1,8,0:0:0:0:
448,192,33937,1,8,0:0:0:0:
448,192,34125,128,8,35125:0:0:0:0:
64,192,34125,128,8,35125:0:0:0:0:
192,192,35125,128,8,36562:0:0:0:0:
320,192,35125,128,8,36562:0:0:0:0:
448,192,36187,128,8,36562:0:0:0:0:
64,192,36187,128,8,36562:0:0:0:0:
64,192,37124,1,8,0:0:0:0:
448,192,37124,1,8,0:0:0:0:
320,192,37124,1,8,0:0:0:0:
64,192,37375,128,8,37687:0:0:0:0:
192,192,37375,128,8,37687:0:0:0:0:
448,192,37687,1,8,0:0:0:0:
64,192,38062,1,8,0:0:0:0:
192,192,38062,1,8,0:0:0:0:
448,192,38062,1,8,0:0:0:0:
64,192,38624,1,8,0:0:0:0:
448,192,38624,1,8,0:0:0:0:
448,192,39062,1,8,0:0:0:0:
64,192,39062,1,8,0:0:0:0:
192,192,39062,1,8,0:0:0:0:
320,192,39062,1,8,0:0:0:0:
64,192,39687,1,8,0:0:0:0:
448,192,39687,1,8,0:0:0:0:
320,192,39687,1,8,0:0:0:0:
64,192,40124,1,8,0:0:0:0:
320,192,40124,1,8,0:0:0:0:
192,192,40625,128,8,41437:0:0:0:0:
320,192,40625,128,8,41437:0:0:0:0:
64,192,40625,128,8,41437:0:0:0:0:
448,192,41562,1,8,0:0:0:0:
64,192,41562,1,8,0:0:0:0:
192,192,41562,1,8,0:0:0:0:
320,192,41562,1,8,0:0:0:0:
64,192,41749,1,8,0:0:0:0:
192,192,41749,1,8,0:0:0:0:
320,192,41749,1,8,0:0:0:0:
64,192,41999,1,8,0:0:0:0:
192,192,41999,1,8,0:0:0:0:
64,192,42125,128,8,42812:0:0:0:0:
192,192,42125,128,8,42812:0:0:0:0:
448,192,42874,1,8,0:0:0:0:
320,192,42874,1,8,0:0:0:0:
64,192,43187,1,8,0:0:0:0:
192,192,43187,1,8,0:0:0:0:
64,192,43562,128,8,44375:0:0:0:0:
192,192,43562,128,8,44375:0:0:0:0:
320,192,43562,128,8,44375:0:0:0:0:
448,192,43562,128,8,44375:0:0:0:0:
448,192,44437,128,8,45937:0:0:0:0:
64,192,44437,128,8,45937:0:0:0:0:
192,192,45999,1,8,0:0:0:0:
320,192,45999,1,8,0:0:0:0:
64,192,46249,1,8,0:0:0:0:
192,192,46249,1,8,0:0:0:0:
64,192,46437,1,8,0:0:0:0:
448,192,46437,1,8,0:0:0:0:
320,192,46437,1,8,0:0:0:0:
320,192,46749,1,8,0:0:0:0:
448,192,46749,1,8,0:0:0:0:
192,192,46749,1,8,0:0:0:0:
192,192,47374,1,8,0:0:0:0:
320,192,47374,1,8,0:0:0:0:
448,192,47374,1,8,0:0:0:0:
448,192,47937,1,8,0:0:0:0:
64,192,47937,1,8,0:0:0:0:
192,192,48375,1,8,0:0:0:0:
320,192,48375,1,8,0:0:0:0:
64,192,48375,1,0,0:0:0:0:
192,192,48750,1,8,0:0:0:0:
64,192,48750,1,8,0:0:0:0:
64,192,48875,1,0,0:0:0:0:
320,192,49125,1,8,0:0:0:0:
448,192,49125,1,8,0:0:0:0:
64,192,49375,1,0,0:0:0:0:
64,192,49875,1,0,0:0:0:0:
192,192,50125,1,8,0:0:0:0:
64,192,50125,1,8,0:0:0:0:
64,192,50375,1,0,0:0:0:0:
192,192,50437,1,8,0:0:0:0:
320,192,50437,1,8,0:0:0:0:
64,192,50875,1,0,0:0:0:0:
448,192,50937,1,8,0:0:0:0:
192,192,50937,1,8,0:0:0:0:
64,192,51375,1,0,0:0:0:0:
448,192,51500,1,8,0:0:0:0:
320,192,51500,1,8,0:0:0:0:
64,192,51875,1,0,0:0:0:0:
192,192,51937,1,8,0:0:0:0:
320,192,51937,1,8,0:0:0:0:
64,192,52375,1,0,0:0:0:0:
192,192,52500,128,8,52875:0:0:0:0:
448,192,52875,128,8,53187:0:0:0:0:
64,192,52875,1,0,0:0:0:0:
320,192,52875,128,8,53937:0:0:0:0:
192,192,53187,1,8,0:0:0:0:
192,192,53187,128,8,53937:0:0:0:0:
64,192,53375,1,0,0:0:0:0:
64,192,53875,1,0,0:0:0:0:
192,192,54125,1,8,0:0:0:0:
192,192,54125,128,8,54437:0:0:0:0:
320,192,54125,128,8,54875:0:0:0:0:
64,192,54375,1,0,0:0:0:0:
448,192,54437,128,8,55812:0:0:0:0:
192,192,54875,128,8,55375:0:0:0:0:
64,192,54937,1,0,0:0:0:0:
320,192,55375,128,8,55812:0:0:0:0:
64,192,55437,1,0,0:0:0:0:
192,192,55812,128,8,56375:0:0:0:0:
64,192,55937,1,0,0:0:0:0:
448,192,56375,1,8,0:0:0:0:
448,192,56375,128,8,56750:0:0:0:0:
320,192,56375,128,8,57187:0:0:0:0:
64,192,56437,1,0,0:0:0:0:
192,192,56750,128,8,58125:0:0:0:0:
64,192,56937,1,0,0:0:0:0:
448,192,57187,128,8,58125:0:0:0:0:
64,192,57437,1,0,0:0:0:0:
64,192,57937,1,0,0:0:0:0:
192,192,58187,1,8,0:0:0:0:
64,192,58187,1,8,0:0:0:0:
448,192,58437,1,8,0:0:0:0:
64,192,58437,1,0,0:0:0:0:
320,192,58437,1,8,0:0:0:0:
320,192,58750,1,8,0:0:0:0:
448,192,58750,1,8,0:0:0:0:
64,192,58937,1,0,0:0:0:0:
64,192,59125,128,8,60125:0:0:0:0:
192,192,59125,128,8,60125:0:0:0:0:
448,192,59437,1,0,0:0:0:0:
448,192,59937,1,0,0:0:0:0:
320,192,60187,128,8,62187:0:0:0:0:
448,192,60187,128,8,62187:0:0:0:0:
64,192,60250,1,8,0:0:0:0:
192,192,60250,1,8,0:0:0:0:
64,192,60437,1,0,0:0:0:0:
64,192,60937,1,0,0:0:0:0:
64,192,61125,1,8,0:0:0:0:
192,192,61125,1,8,0:0:0:0:
64,192,61437,1,0,0:0:0:0:
64,192,61937,1,0,0:0:0:0:
192,192,62000,1,8,0:0:0:0:
64,192,62187,1,8,0:0:0:0:
192,192,62187,1,8,0:0:0:0:
64,192,62437,1,8,0:0:0:0:
192,192,62437,1,8,0:0:0:0:
320,192,62437,1,8,0:0:0:0:
448,192,62437,1,8,0:0:0:0:
64,192,62750,1,8,0:0:0:0:
192,192,62750,1,8,0:0:0:0:
320,192,62750,1,8,0:0:0:0:
448,192,62750,1,8,0:0:0:0:
64,192,63125,1,8,0:0:0:0:
192,192,63125,1,8,0:0:0:0:
320,192,63125,1,8,0:0:0:0:
448,192,63125,1,8,0:0:0:0:
64,192,63625,1,8,0:0:0:0:
192,192,63625,1,8,0:0:0:0:
320,192,63625,1,8,0:0:0:0:
448,192,63625,1,8,0:0:0:0:
448,192,64125,128,8,65125:0:0:0:0:
64,192,64125,128,8,65125:0:0:0:0:
320,192,65125,128,8,66125:0:0:0:0:
192,192,65125,128,8,67187:0:0:0:0:
448,192,66125,128,8,67187:0:0:0:0:
320,192,67187,128,8,68125:0:0:0:0:
64,192,67187,128,8,68125:0:0:0:0:
448,192,68125,128,8,69687:0:0:0:0:
192,192,68125,128,8,69687:0:0:0:0:
64,192,69687,1,8,0:0:0:0:
320,192,69687,1,8,0:0:0:0:
64,192,70125,1,8,0:0:0:0:
192,192,70125,1,8,0:0:0:0:
320,192,70125,1,8,0:0:0:0:
448,192,70125,1,8,0:0:0:0:
64,192,70375,1,8,0:0:0:0:
448,192,70375,1,8,0:0:0:0:
448,192,70687,1,8,0:0:0:0:
64,192,70687,1,8,0:0:0:0:
448,192,71062,1,8,0:0:0:0:
320,192,71062,1,8,0:0:0:0:
64,192,71062,1,8,0:0:0:0:
448,192,71687,1,8,0:0:0:0:
320,192,71687,1,8,0:0:0:0:
192,192,71687,1,8,0:0:0:0:
448,192,72125,128,8,73062:0:0:0:0:
192,192,72125,128,8,73062:0:0:0:0:
64,192,73062,128,8,74125:0:0:0:0:
320,192,73062,128,8,74125:0:0:0:0:
192,192,74125,128,8,75062:0:0:0:0:
448,192,74125,128,8,76125:0:0:0:0:
320,192,75062,128,8,76125:0:0:0:0:
64,192,75062,128,8,77875:0:0:0:0:
192,192,76125,128,8,77875:0:0:0:0:
448,192,77875,1,8,0:0:0:0:
448,192,78125,1,8,0:0:0:0:
192,192,78125,1,8,0:0:0:0:
320,192,78437,1,8,0:0:0:0:
64,192,78437,1,8,0:0:0:0:
64,192,78812,1,8,0:0:0:0:
320,192,78812,1,8,0:0:0:0:
192,192,79125,1,8,0:0:0:0:
448,192,79125,1,8,0:0:0:0:
64,192,79125,1,8,0:0:0:0:
448,192,79625,1,8,0:0:0:0:
320,192,79625,1,8,0:0:0:0:
192,192,79625,1,8,0:0:0:0:
320,192,80125,128,8,81062:0:0:0:0:
64,192,80125,128,8,81062:0:0:0:0:
448,192,81062,128,8,82062:0:0:0:0:
192,192,81062,128,8,83062:0:0:0:0:
320,192,82062,128,8,83062:0:0:0:0:
64,192,82062,128,8,83062:0:0:0:0:
448,192,83062,128,8,84125:0:0:0:0:
64,192,84125,128,8,85937:0:0:0:0:
320,192,84125,128,8,85937:0:0:0:0:
448,192,86187,1,8,0:0:0:0:
192,192,86187,1,8,0:0:0:0:
320,192,86187,1,8,0:0:0:0:
448,192,86500,1,8,0:0:0:0:
320,192,86500,1,8,0:0:0:0:
64,192,86500,1,8,0:0:0:0:
64,192,86812,1,8,0:0:0:0:
448,192,86812,1,8,0:0:0:0:
192,192,86812,1,8,0:0:0:0:
192,192,87250,1,8,0:0:0:0:
64,192,87250,1,8,0:0:0:0:
320,192,87250,1,8,0:0:0:0:
192,192,87625,1,8,0:0:0:0:
64,192,87625,1,8,0:0:0:0:
448,192,87625,1,8,0:0:0:0:
64,192,88187,128,8,89125:0:0:0:0:
448,192,88187,128,8,89125:0:0:0:0:
320,192,88187,128,8,90125:0:0:0:0:
192,192,89187,128,8,90125:0:0:0:0:
448,192,90125,128,8,91125:0:0:0:0:
64,192,90125,128,8,92187:0:0:0:0:
320,192,91125,128,8,92187:0:0:0:0:
448,192,92187,128,8,93875:0:0:0:0:
192,192,92187,128,8,93875:0:0:0:0:
448,192,94375,1,8,0:0:0:0:
320,192,94375,1,8,0:0:0:0:
192,192,94375,1,8,0:0:0:0:
64,192,94375,1,8,0:0:0:0:
448,192,94750,1,8,0:0:0:0:
320,192,94750,1,8,0:0:0:0:
192,192,94750,1,8,0:0:0:0:
64,192,94750,1,8,0:0:0:0:
448,192,95125,1,8,0:0:0:0:
320,192,95125,1,8,0:0:0:0:
192,192,95125,1,8,0:0:0:0:
64,192,95125,1,8,0:0:0:0:
448,192,95500,1,8,0:0:0:0:
320,192,95500,1,8,0:0:0:0:
192,192,95500,1,8,0:0:0:0:
64,192,95500,1,8,0:0:0:0:
448,192,96187,128,8,97375:0:0:0:0:
320,192,96187,128,8,97375:0:0:0:0:
192,192,96187,128,8,97375:0:0:0:0:
64,192,96437,1,0,0:0:0:0:
64,192,96937,1,0,0:0:0:0:
64,192,97437,1,0,0:0:0:0:
64,192,97937,1,0,0:0:0:0:
64,192,98437,1,0,0:0:0:0:
64,192,98937,1,0,0:0:0:0:
320,192,98937,1,8,0:0:0:0:
448,192,98937,1,8,0:0:0:0:
320,192,99062,1,8,0:0:0:0:
448,192,99062,1,8,0:0:0:0:
64,192,99437,1,0,0:0:0:0:
448,192,99875,1,8,0:0:0:0:
64,192,99937,1,0,0:0:0:0:
320,192,99937,1,8,0:0:0:0:
192,192,100000,1,8,0:0:0:0:
192,192,100187,128,8,100812:0:0:0:0:
64,192,100437,1,0,0:0:0:0:
64,192,100937,1,0,0:0:0:0:
320,192,100937,1,8,0:0:0:0:
448,192,101125,1,8,0:0:0:0:
64,192,101437,1,0,0:0:0:0:
64,192,101937,1,0,0:0:0:0:
320,192,101937,1,8,0:0:0:0:
320,192,102125,128,8,102687:0:0:0:0:
64,192,102437,1,0,0:0:0:0:
64,192,102937,1,0,0:0:0:0:
320,192,102937,1,8,0:0:0:0:
448,192,102937,1,8,0:0:0:0:
448,192,103187,1,8,0:0:0:0:
320,192,103187,1,8,0:0:0:0:
64,192,103437,1,0,0:0:0:0:
64,192,103937,1,0,0:0:0:0:
448,192,103937,1,8,0:0:0:0:
192,192,103937,1,8,0:0:0:0:
320,192,104312,128,8,106687:0:0:0:0:
64,192,104437,1,0,0:0:0:0:
64,192,104937,1,0,0:0:0:0:
64,192,105437,1,0,0:0:0:0:
64,192,105937,1,0,0:0:0:0:
64,192,106437,1,0,0:0:0:0:
64,192,106937,1,0,0:0:0:0:
64,192,107437,1,0,0:0:0:0:
448,192,107875,1,8,0:0:0:0:
64,192,107937,1,0,0:0:0:0:
320,192,107937,1,8,0:0:0:0:
192,192,108000,1,8,0:0:0:0:
320,192,108062,1,8,0:0:0:0:
448,192,108125,128,8,108875:0:0:0:0:
64,192,108437,1,0,0:0:0:0:
64,192,108937,1,0,0:0:0:0:
320,192,108937,1,8,0:0:0:0:
320,192,109125,128,8,109812:0:0:0:0:
64,192,109437,1,0,0:0:0:0:
64,192,109937,1,0,0:0:0:0:
192,192,110250,1,8,0:0:0:0:
64,192,110250,1,8,0:0:0:0:
320,192,110437,1,8,0:0:0:0:
448,192,110437,1,8,0:0:0:0:
64,192,110437,1,0,0:0:0:0:
192,192,110750,1,8,0:0:0:0:
448,192,110750,1,8,0:0:0:0:
64,192,110937,1,0,0:0:0:0:
448,192,111375,1,8,0:0:0:0:
320,192,111375,1,8,0:0:0:0:
64,192,111437,1,0,0:0:0:0:
448,192,111937,1,8,0:0:0:0:
64,192,111937,1,0,0:0:0:0:
64,192,112375,1,0,0:0:0:0:
320,192,112375,1,8,0:0:0:0:
192,192,112375,1,8,0:0:0:0:
64,192,112750,1,8,0:0:0:0:
192,192,112750,1,8,0:0:0:0:
64,192,112875,1,0,0:0:0:0:
448,192,113125,1,8,0:0:0:0:
320,192,113125,1,8,0:0:0:0:
64,192,113375,1,0,0:0:0:0:
64,192,113875,1,0,0:0:0:0:
64,192,114125,1,8,0:0:0:0:
192,192,114125,1,8,0:0:0:0:
64,192,114375,1,0,0:0:0:0:
320,192,114437,1,8,0:0:0:0:
192,192,114437,1,8,0:0:0:0:
64,192,114875,1,0,0:0:0:0:
192,192,114937,1,8,0:0:0:0:
448,192,114937,1,8,0:0:0:0:
64,192,115375,1,0,0:0:0:0:
320,192,115500,1,8,0:0:0:0:
448,192,115500,1,8,0:0:0:0:
64,192,115875,1,0,0:0:0:0:
320,192,115937,1,8,0:0:0:0:
192,192,115937,1,8,0:0:0:0:
64,192,116375,1,0,0:0:0:0:
192,192,116500,128,8,116875:0:0:0:0:
320,192,116875,128,8,117937:0:0:0:0:
64,192,116875,1,0,0:0:0:0:
448,192,116875,128,8,117187:0:0:0:0:
192,192,117187,1,8,0:0:0:0:
64,192,117375,1,0,0:0:0:0:
64,192,117875,1,0,0:0:0:0:
320,192,118125,128,8,118875:0:0:0:0:
192,192,118125,1,8,0:0:0:0:
64,192,118375,1,0,0:0:0:0:
448,192,118437,128,8,119812:0:0:0:0:
192,192,118875,128,8,119375:0:0:0:0:
64,192,118937,1,0,0:0:0:0:
320,192,119375,128,8,119812:0:0:0:0:
64,192,119437,1,0,0:0:0:0:
192,192,119812,128,8,120375:0:0:0:0:
64,192,119937,1,0,0:0:0:0:
320,192,120375,128,8,121187:0:0:0:0:
448,192,120375,1,8,0:0:0:0:
64,192,120437,1,0,0:0:0:0:
192,192,120750,128,8,122187:0:0:0:0:
64,192,120937,1,0,0:0:0:0:
448,192,121187,128,8,122187:0:0:0:0:
64,192,121437,1,0,0:0:0:0:
64,192,121937,1,0,0:0:0:0:
320,192,122437,1,8,0:0:0:0:
64,192,122437,1,0,0:0:0:0:
448,192,122437,1,8,0:0:0:0:
448,192,122750,1,8,0:0:0:0:
320,192,122750,1,8,0:0:0:0:
64,192,122937,1,0,0:0:0:0:
192,192,123125,128,8,124125:0:0:0:0:
64,192,123125,128,8,124125:0:0:0:0:
448,192,123437,1,0,0:0:0:0:
448,192,123937,1,0,0:0:0:0:
448,192,124187,128,8,126187:0:0:0:0:
320,192,124187,128,8,126187:0:0:0:0:
192,192,124250,1,8,0:0:0:0:
64,192,124250,1,8,0:0:0:0:
64,192,124437,1,0,0:0:0:0:
64,192,124937,1,0,0:0:0:0:
192,192,125125,1,8,0:0:0:0:
64,192,125125,1,8,0:0:0:0:
64,192,125437,1,0,0:0:0:0:
64,192,125937,1,0,0:0:0:0:
64,192,126187,1,8,0:0:0:0:
192,192,126187,1,8,0:0:0:0:
320,192,126437,1,8,0:0:0:0:
448,192,126437,1,8,0:0:0:0:
64,192,126437,1,8,0:0:0:0:
192,192,126437,1,8,0:0:0:0:
320,192,126750,1,8,0:0:0:0:
448,192,126750,1,8,0:0:0:0:
64,192,126750,1,8,0:0:0:0:
192,192,126750,1,8,0:0:0:0:
320,192,127125,1,8,0:0:0:0:
448,192,127125,1,8,0:0:0:0:
64,192,127125,1,8,0:0:0:0:
192,192,127125,1,8,0:0:0:0:
320,192,127625,1,8,0:0:0:0:
448,192,127625,1,8,0:0:0:0:
64,192,127625,1,8,0:0:0:0:
192,192,127625,1,8,0:0:0:0:
64,192,128125,128,8,129125:0:0:0:0:
448,192,128125,128,8,129125:0:0:0:0:
192,192,129125,128,8,131187:0:0:0:0:
320,192,129125,128,8,130125:0:0:0:0:
448,192,130125,128,8,131187:0:0:0:0:
64,192,131187,128,8,132125:0:0:0:0:
320,192,131187,128,8,132125:0:0:0:0:
192,192,132125,128,8,133687:0:0:0:0:
448,192,132125,128,8,133687:0:0:0:0:
320,192,133687,1,8,0:0:0:0:
64,192,133687,1,8,0:0:0:0:
320,192,134125,1,8,0:0:0:0:
448,192,134125,1,8,0:0:0:0:
64,192,134125,1,8,0:0:0:0:
192,192,134125,1,8,0:0:0:0:
448,192,134375,1,8,0:0:0:0:
64,192,134375,1,8,0:0:0:0:
64,192,134687,1,8,0:0:0:0:
448,192,134687,1,8,0:0:0:0:
64,192,135062,1,8,0:0:0:0:
320,192,135062,1,8,0:0:0:0:
448,192,135062,1,8,0:0:0:0:
192,192,135687,1,8,0:0:0:0:
320,192,135687,1,8,0:0:0:0:
448,192,135687,1,8,0:0:0:0:
192,192,136125,128,8,137062:0:0:0:0:
448,192,136125,128,8,137062:0:0:0:0:
320,192,137062,128,8,138125:0:0:0:0:
64,192,137062,128,8,138125:0:0:0:0:
448,192,138125,128,8,140125:0:0:0:0:
192,192,138125,128,8,139062:0:0:0:0:
64,192,139062,128,8,141875:0:0:0:0:
320,192,139062,128,8,140125:0:0:0:0:
192,192,140125,128,8,141875:0:0:0:0:
448,192,141875,1,8,0:0:0:0:
64,192,142125,1,8,0:0:0:0:
192,192,142437,1,8,0:0:0:0:
320,192,142812,1,8,0:0:0:0:
448,192,143125,1,8,0:0:0:0:
320,192,143625,1,8,0:0:0:0:
64,192,144125,128,8,145062:0:0:0:0:
320,192,144125,128,8,145062:0:0:0:0:
192,192,145062,128,8,147062:0:0:0:0:
448,192,145062,128,8,146062:0:0:0:0:
64,192,146062,128,8,147062:0:0:0:0:
320,192,146062,128,8,147062:0:0:0:0:
448,192,147062,128,8,148125:0:0:0:0:
320,192,148125,128,8,149937:0:0:0:0:
64,192,148125,128,8,149937:0:0:0:0:
320,192,150187,1,8,0:0:0:0:
192,192,150187,1,8,0:0:0:0:
448,192,150187,1,8,0:0:0:0:
64,192,150500,1,8,0:0:0:0:
320,192,150500,1,8,0:0:0:0:
448,192,150500,1,8,0:0:0:0:
192,192,150812,1,8,0:0:0:0:
448,192,150812,1,8,0:0:0:0:
64,192,150812,1,8,0:0:0:0:
320,192,151250,1,8,0:0:0:0:
64,192,151250,1,8,0:0:0:0:
192,192,151250,1,8,0:0:0:0:
448,192,151625,1,8,0:0:0:0:
64,192,151625,1,8,0:0:0:0:
192,192,151625,1,8,0:0:0:0:
320,192,152187,128,8,154125:0:0:0:0:
448,192,152187,128,8,153125:0:0:0:0:
64,192,152187,128,8,153125:0:0:0:0:
192,192,153187,128,8,154125:0:0:0:0:
64,192,154125,128,8,156187:0:0:0:0:
448,192,154125,128,8,155125:0:0:0:0:
320,192,155125,128,8,156187:0:0:0:0:
192,192,156187,128,8,157875:0:0:0:0:
448,192,156187,128,8,157875:0:0:0:0:
192,192,158375,1,8,0:0:0:0:
64,192,158375,1,8,0:0:0:0:
448,192,158375,1,8,0:0:0:0:
320,192,158375,1,8,0:0:0:0:
192,192,158750,1,8,0:0:0:0:
64,192,158750,1,8,0:0:0:0:
448,192,158750,1,8,0:0:0:0:
320,192,158750,1,8,0:0:0:0:
192,192,159125,1,8,0:0:0:0:
64,192,159125,1,8,0:0:0:0:
448,192,159125,1,8,0:0:0:0:
320,192,159125,1,8,0:0:0:0:
192,192,159500,1,8,0:0:0:0:
64,192,159500,1,8,0:0:0:0:
448,192,159500,1,8,0:0:0:0:
320,192,159500,1,8,0:0:0:0:
320,192,160187,128,8,161375:0:0:0:0:
192,192,160187,128,8,161375:0:0:0:0:
64,192,160187,128,8,161375:0:0:0:0:
448,192,160187,128,8,161375:0:0:0:0:
448,192,174312,5,0,0:0:0:0:
448,192,174750,1,0,0:0:0:0:
448,192,175125,1,0,0:0:0:0:
448,192,175562,1,0,0:0:0:0:
64,192,176250,1,0,0:0:0:0:
448,192,176250,128,0,177125:0:0:0:0:
64,192,176875,1,0,0:0:0:0:
192,192,177125,1,0,0:0:0:0:
64,192,177875,1,0,0:0:0:0:
192,192,178125,1,0,0:0:0:0:
64,192,178875,1,0,0:0:0:0:
192,192,179125,1,0,0:0:0:0:
64,192,179937,1,0,0:0:0:0:
320,192,180187,1,0,0:0:0:0:
64,192,180875,1,0,0:0:0:0:
320,192,181125,1,0,0:0:0:0:
64,192,181875,1,0,0:0:0:0:
320,192,182125,1,0,0:0:0:0:
448,192,182375,1,0,0:0:0:0:
448,192,182812,1,0,0:0:0:0:
448,192,183187,1,0,0:0:0:0:
448,192,183625,1,0,0:0:0:0:
448,192,184125,128,0,185312:0:0:0:0:
320,192,184125,1,0,0:0:0:0:
192,192,184125,1,0,0:0:0:0:
64,192,184125,1,0,0:0:0:0:
64,192,184937,1,0,0:0:0:0:
192,192,185187,1,0,0:0:0:0:
320,192,185187,1,0,0:0:0:0:
64,192,185187,1,0,0:0:0:0:
64,192,186000,1,0,0:0:0:0:
192,192,186250,1,0,0:0:0:0:
320,192,186250,1,0,0:0:0:0:
64,192,186250,1,0,0:0:0:0:
64,192,187000,1,0,0:0:0:0:
192,192,187250,1,0,0:0:0:0:
64,192,187250,1,0,0:0:0:0:
320,192,187250,1,0,0:0:0:0:
320,192,187687,1,0,0:0:0:0:
192,192,188187,1,0,0:0:0:0:
64,192,188187,1,0,0:0:0:0:
320,192,188187,1,0,0:0:0:0:
192,192,189187,1,0,0:0:0:0:
320,192,189187,1,0,0:0:0:0:
64,192,189187,1,0,0:0:0:0:
64,192,190312,1,0,0:0:0:0:
192,192,190312,1,0,0:0:0:0:
320,192,190312,1,0,0:0:0:0:
448,192,190312,1,0,0:0:0:0:
64,192,190812,1,0,0:0:0:0:
192,192,190812,1,0,0:0:0:0:
320,192,190812,1,0,0:0:0:0:
448,192,190812,1,0,0:0:0:0:
64,192,191187,1,0,0:0:0:0:
192,192,191187,1,0,0:0:0:0:
320,192,191187,1,0,0:0:0:0:
448,192,191187,1,0,0:0:0:0:
64,192,191562,1,0,0:0:0:0:
192,192,191562,1,0,0:0:0:0:
320,192,191562,1,0,0:0:0:0:
448,192,191562,1,0,0:0:0:0:
64,192,192187,1,0,0:0:0:0:
192,192,192187,1,0,0:0:0:0:
320,192,192187,1,0,0:0:0:0:
448,192,192187,1,0,0:0:0:0:
64,192,193187,1,0,0:0:0:0:
64,192,194125,1,0,0:0:0:0:
64,192,195187,1,0,0:0:0:0:
192,192,196125,1,0,0:0:0:0:
192,192,197187,1,0,0:0:0:0:
192,192,198125,1,0,0:0:0:0:
192,192,199187,1,0,0:0:0:0:
192,192,199687,1,0,0:0:0:0:
320,192,200250,1,0,0:0:0:0:
320,192,201187,1,0,0:0:0:0:
320,192,202187,1,0,0:0:0:0:
320,192,203187,1,0,0:0:0:0:
448,192,203812,1,0,0:0:0:0:
192,192,204250,1,0,0:0:0:0:
192,192,205187,1,0,0:0:0:0:
192,192,206125,1,0,0:0:0:0:
320,192,206312,1,0,0:0:0:0:
448,192,206312,1,0,0:0:0:0:
64,192,206312,1,0,0:0:0:0:
192,192,206312,1,0,0:0:0:0:
320,192,206812,1,0,0:0:0:0:
448,192,206812,1,0,0:0:0:0:
64,192,206812,1,0,0:0:0:0:
192,192,206812,1,0,0:0:0:0:
320,192,207187,1,0,0:0:0:0:
448,192,207187,1,0,0:0:0:0:
64,192,207187,1,0,0:0:0:0:
192,192,207187,1,0,0:0:0:0:
320,192,207562,1,0,0:0:0:0:
448,192,207562,1,0,0:0:0:0:
64,192,207562,1,0,0:0:0:0:
192,192,207562,1,0,0:0:0:0:
320,192,208187,1,0,0:0:0:0:
448,192,208187,1,0,0:0:0:0:
64,192,208187,1,0,0:0:0:0:
192,192,208187,1,0,0:0:0:0:
64,192,209187,1,0,0:0:0:0:
64,192,210125,1,0,0:0:0:0:
64,192,211187,1,0,0:0:0:0:
192,192,212125,1,0,0:0:0:0:
192,192,213187,1,0,0:0:0:0:
192,192,214125,1,0,0:0:0:0:
192,192,215187,1,0,0:0:0:0:
192,192,215687,1,0,0:0:0:0:
320,192,216250,1,0,0:0:0:0:
320,192,217187,1,0,0:0:0:0:
320,192,218187,1,0,0:0:0:0:
320,192,219187,1,0,0:0:0:0:
448,192,219812,1,0,0:0:0:0:
192,192,220250,1,0,0:0:0:0:
192,192,221187,1,0,0:0:0:0:
192,192,222125,1,0,0:0:0:0:
