osu file format v14

[General]
AudioFilename: audio.mp3
AudioLeadIn: 0
PreviewTime: 135575
Countdown: 0
SampleSet: Normal
StackLeniency: 0.7
Mode: 1
LetterboxInBreaks: 0
WidescreenStoryboard: 0

[Editor]
Bookmarks: 50375,212225
DistanceSpacing: 0.1
BeatDivisor: 16
GridSize: 8
TimelineZoom: 3.1

[Metadata]
Title:Argentum Pluviam
TitleUnicode:Argentum Pluviam
Artist:Sven Noon
ArtistUnicode:Sven Noon
Creator:ZTH
Version:Scabra
Source:
Tags:7ooonn breakcore electronic instrumental experimental atmospheric
BeatmapID:3117736
BeatmapSetID:1523642

[Difficulty]
HPDrainRate:6
CircleSize:5
OverallDifficulty:7
ApproachRate:5
SliderMultiplier:1.4
SliderTickRate:1

[Events]
//Background and Video events
0,0,"a.jpg",0,0
//Break Periods
//Storyboard Layer 0 (Background)
//Storyboard Layer 1 (Fail)
//Storyboard Layer 2 (Pass)
//Storyboard Layer 3 (Foreground)
//Storyboard Layer 4 (Overlay)
//Storyboard Sound Samples

[TimingPoints]
-25,300,8,1,0,80,1,0
-25,-133.333333333333,4,1,0,80,0,0
4175,300,8,1,0,80,1,0
4175,-133.333333333333,4,1,0,80,0,0
8375,300,8,1,0,80,1,0
8375,-133.333333333333,4,1,0,80,0,0
12575,300,8,1,0,80,1,0
12575,-133.333333333333,4,1,0,80,0,0
16775,300,8,1,0,80,1,0
16775,-133.333333333333,4,1,0,80,0,0
20975,300,8,1,0,80,1,0
20975,-133.333333333333,4,1,0,80,0,0
25175,300,8,1,0,80,1,0
25175,-133.333333333333,4,1,0,80,0,0
29375,300,8,1,0,80,1,0
29375,-133.333333333333,4,1,0,80,0,0
33575,300,8,1,0,80,1,0
33575,-133.333333333333,4,1,0,80,0,0
37775,300,8,1,0,80,1,0
37775,-133.333333333333,4,1,0,80,0,0
41975,300,8,1,0,80,1,0
41975,-133.333333333333,4,1,0,80,0,0
46175,300,8,1,0,80,1,0
46175,-133.333333333333,4,1,0,80,0,0
50375,300,8,1,0,80,1,0
50375,-93.4579439252336,4,1,0,80,0,0
54575,300,8,1,0,80,1,0
54575,-93.4579439252336,4,1,0,80,0,0
58775,300,8,1,0,80,1,0
58775,-93.4579439252336,4,1,0,80,0,0
62975,300,8,1,0,80,1,0
62975,-93.4579439252336,4,1,0,80,0,0
67175,300,8,1,0,80,1,0
67175,-93.4579439252336,4,1,0,80,0,0
71375,300,8,1,0,80,1,0
71375,-93.4579439252336,4,1,0,80,0,0
75575,300,8,1,0,80,1,0
75575,-93.4579439252336,4,1,0,80,0,0
79775,300,8,1,0,80,1,0
79775,-93.4579439252336,4,1,0,80,0,0
82325,-20,4,1,0,80,0,0
83975,300,8,1,0,85,1,0
83975,-84.0336134453781,4,1,0,85,0,0
88175,300,8,1,0,85,1,0
88175,-84.0336134453781,4,1,0,85,0,0
92375,300,8,1,0,85,1,0
92375,-84.0336134453781,4,1,0,85,0,0
96575,300,8,1,0,85,1,0
96575,-84.0336134453781,4,1,0,85,0,0
100775,300,8,1,0,85,1,0
100775,-84.0336134453781,4,1,0,85,0,0
104975,300,8,1,0,85,1,0
104975,-84.0336134453781,4,1,0,85,0,0
109175,300,8,1,0,85,1,0
109175,-84.0336134453781,4,1,0,85,0,0
113375,300,8,1,0,85,1,0
113375,-84.0336134453781,4,1,0,85,0,0
117575,300,8,1,0,80,1,0
117575,-75.187969924812,4,1,0,80,0,0
121775,300,8,1,0,85,1,0
121775,-75.187969924812,4,1,0,85,0,0
122075,-76.1878640351378,4,1,0,85,0,0
122225,-76.6978213216875,4,1,0,85,0,0
122525,-77.7384939255141,4,1,0,85,0,0
122600,-78.003120124805,4,1,0,85,0,0
122675,-78.2695540826965,4,1,0,85,0,0
122750,-78.5377527050365,4,1,0,85,0,0
122825,-78.8078577738829,4,1,0,85,0,0
122975,-79.3536171759317,4,1,0,85,0,0
123050,-79.6293730460943,4,1,0,85,0,0
123125,-79.9069882656588,4,1,0,85,0,0
123175,-80.0932285179949,4,1,0,85,0,0
123225,-80.2802744943146,4,1,0,85,0,0
123275,-80.4681961524937,4,1,0,85,0,0
123350,-80.7517014383493,4,1,0,85,0,0
123425,-81.0372771474878,4,1,0,85,0,0
123500,-81.3248798831524,4,1,0,85,0,0
123575,-81.6144646948068,4,1,0,85,0,0
123725,-82.200000822,4,1,0,85,0,0
123800,-82.4958628324789,4,1,0,85,0,0
123875,-82.7939308736912,4,1,0,85,0,0
123950,-83.0940915946172,4,1,0,85,0,0
124025,-83.3965061867698,4,1,0,85,0,0
124175,-72.463768115942,4,1,0,85,0,0
124475,-84.0336134453781,4,1,0,85,0,0
125975,300,8,1,0,85,1,0
125975,-84.0336134453781,4,1,0,85,0,0
134225,-72.463768115942,4,1,0,85,0,0
134525,-84.0336134453781,4,1,0,85,0,0
144575,-84.0336134453781,4,1,0,85,0,0
144675,-85.4700854700855,4,1,0,85,0,0
144775,-86.9565217391304,4,1,0,85,0,0
144875,-88.4955752212389,4,1,0,85,0,0
144975,-90.0900900900901,4,1,0,85,0,0
145075,-91.743119266055,4,1,0,85,0,0
145175,-93.4579439252336,4,1,0,80,0,0
164375,-67.5675675675676,4,1,0,85,0,0
164675,-72.992700729927,4,1,0,85,0,0
164975,-79.3650793650794,4,1,0,85,0,0
165125,-69.4444444444444,4,1,0,85,0,0
165425,-74.6268656716418,4,1,0,85,0,0
165575,-79.3650793650794,4,1,0,85,0,0
166775,-69.4444444444444,4,1,0,85,0,0
167075,-74.6268656716418,4,1,0,85,0,0
167225,-79.3650793650794,4,1,0,85,0,0
168575,300,8,1,0,85,1,0
168575,-71.9424460431655,4,1,0,85,0,0
168725,-79.3650793650794,4,1,0,85,0,0
169175,-71.9424460431655,4,1,0,85,0,0
169325,-79.3650793650794,4,1,0,85,0,0
169475,-71.9424460431655,4,1,0,85,0,0
169625,-79.3650793650794,4,1,0,85,0,0
170975,-71.9424460431655,4,1,0,85,0,0
171125,-79.3650793650794,4,1,0,85,0,0
171275,-71.9424460431655,4,1,0,85,0,0
171425,-79.3650793650794,4,1,0,85,0,0
172775,300,8,1,0,85,1,0
172775,-67.5675675675676,4,1,0,85,0,0
173075,-72.992700729927,4,1,0,85,0,0
173375,-79.3650793650794,4,1,0,85,0,0
173525,-69.4444444444444,4,1,0,85,0,0
173825,-74.6268656716418,4,1,0,85,0,0
174125,-79.3650793650794,4,1,0,85,0,0
175175,-69.4444444444444,4,1,0,85,0,0
175475,-74.6268656716418,4,1,0,85,0,0
175625,-79.3650793650794,4,1,0,85,0,0
176975,300,8,1,0,85,1,0
176975,-71.9424460431655,4,1,0,85,0,0
177125,-79.3650793650794,4,1,0,85,0,0
177275,-71.9424460431655,4,1,0,85,0,0
177425,-79.3650793650794,4,1,0,85,0,0
177725,-67.5675675675676,4,1,0,85,0,0
178025,-72.992700729927,4,1,0,85,0,0
178325,-79.3650793650794,4,1,0,85,0,0
179375,-71.9424460431655,4,1,0,85,0,0
179525,-79.3650793650794,4,1,0,85,0,0
181175,300,8,1,0,85,1,0
181175,-71.9424460431655,4,1,0,85,0,0
181325,-79.3650793650794,4,1,0,85,0,0
182375,-71.9424460431655,4,1,0,85,0,0
182825,-79.3650793650794,4,1,0,85,0,0
183575,-71.9424460431655,4,1,0,85,0,0
183725,-79.3650793650794,4,1,0,85,0,0
184775,-71.9424460431655,4,1,0,85,0,0
185225,-79.3650793650794,4,1,0,85,0,0
185375,300,8,1,0,85,1,0
185375,-79.3650793650794,4,1,0,85,0,0
189575,300,8,1,0,85,1,0
189575,-79.3650793650794,4,1,0,85,0,0
193775,300,8,1,0,85,1,0
193775,-79.3650793650794,4,1,0,85,0,0
196625,-69.4444444444444,4,1,0,85,0,0
196925,-79.3650793650794,4,1,0,85,0,0
198575,-84.0336134453782,4,1,0,80,0,0
198725,-84.3606349656273,4,1,0,80,0,0
198875,-84.6902833990953,4,1,0,79,0,0
199025,-85.0224459257244,4,1,0,79,0,0
199175,-85.3572242513531,4,1,0,78,0,0
199325,-85.6946493974809,4,1,0,78,0,0
199475,-86.0348268979283,4,1,0,78,0,0
199625,-86.3776413202995,4,1,0,77,0,0
199775,-86.7231986290797,4,1,0,77,0,0
199925,-87.0715318755817,4,1,0,77,0,0
200075,-87.4227510715844,4,1,0,76,0,0
200150,-87.5993486112437,4,1,0,76,0,0
200225,-87.7767381110797,4,1,0,75,0,0
200300,-87.9548474994877,4,1,0,75,0,0
200375,-88.1336034922059,4,1,0,75,0,0
200450,-88.3131655500939,4,1,0,74,0,0
200525,-88.493460775716,4,1,0,74,0,0
200600,-88.6744150370526,4,1,0,74,0,0
200675,-88.8561898110384,4,1,0,73,0,0
200750,-89.0386320816876,4,1,0,73,0,0
200825,-89.221904691377,4,1,0,72,0,0
200975,-89.5906424365788,4,1,0,72,0,0
201125,-89.9625216134958,4,1,0,72,0,0
201275,-90.337419294808,4,1,0,71,0,0
201425,-90.7154546477156,4,1,0,71,0,0
201575,-91.0966672284295,4,1,0,71,0,0
201725,-91.4811809488611,4,1,0,70,0,0
201875,-91.8688700496459,4,1,0,70,0,0
202025,-92.2598591191951,4,1,0,69,0,0
202175,-92.6542763191421,4,1,0,69,0,0
202325,-93.0519937320177,4,1,0,69,0,0
202475,-93.4531402591456,4,1,0,68,0,0
202550,-93.6550571857779,4,1,0,68,0,0
202625,-93.8577604412066,4,1,0,68,0,0
202700,-94.0614315209263,4,1,0,67,0,0
202775,300,8,1,0,67,1,0
202775,-94.2659884543017,4,1,0,67,0,0
202925,-94.6776934620319,4,1,0,66,0,0
203075,-95.0930104735442,4,1,0,66,0,0
203225,-95.5119872319575,4,1,0,66,0,0
203375,-95.934764360235,4,1,0,65,0,0
203525,-96.3612080611932,4,1,0,65,0,0
203675,-96.7914598959105,4,1,0,64,0,0
203825,-97.2256656312133,4,1,0,64,0,0
203975,-97.6636892263278,4,1,0,64,0,0
204125,-98.1056774736611,4,1,0,63,0,0
204275,-98.5516844453905,4,1,0,63,0,0
204350,-98.7762609036645,4,1,0,63,0,0
204425,-99.0018632150657,4,1,0,62,0,0
204500,-99.2283999618963,4,1,0,62,0,0
204575,-99.4560747273163,4,1,0,61,0,0
204650,-99.6847966729202,4,1,0,61,0,0
204725,-99.9144732109314,4,1,0,61,0,0
204800,-100.145310846038,4,1,0,60,0,0
204875,-100.377116827923,4,1,0,60,0,0
204950,-100.610099644243,4,1,0,60,0,0
205025,-100.844166517922,4,1,0,59,0,0
205175,-101.31548019485,4,1,0,59,0,0
205325,-101.791220100101,4,1,0,58,0,0
205475,-102.271553474216,4,1,0,58,0,0
205625,-102.756335955675,4,1,0,58,0,0
205775,-103.245736209209,4,1,0,57,0,0
205925,-103.73982053011,4,1,0,57,0,0
206000,-103.98869434915,4,1,0,57,0,0
206075,-104.238765145893,4,1,0,56,0,0
206150,-104.489932395014,4,1,0,56,0,0
206225,-104.742422671288,4,1,0,55,0,0
206300,-104.99613614219,4,1,0,55,0,0
206375,-105.250970940207,4,1,0,55,0,0
206525,-105.764481537223,4,1,0,54,0,0
206600,-106.023176666419,4,1,0,54,0,0
206675,-106.28314041172,4,1,0,54,0,0
206750,-106.544268610886,4,1,0,53,0,0
206825,-106.806797184573,4,1,0,53,0,0
206900,-107.070622712035,4,1,0,52,0,0
206975,300,8,1,0,52,1,0
206975,-107.335639618443,4,1,0,52,0,0
207125,-107.869861484311,4,1,0,52,0,0
207275,-108.409310191559,4,1,0,51,0,0
207425,-108.954181498055,4,1,0,51,0,0
207575,-109.504557579686,4,1,0,51,0,0
207725,-110.060643414521,4,1,0,50,0,0
207875,-110.62228353155,4,1,0,50,0,0
208025,-111.189685155288,4,1,0,49,0,0
208175,-111.762937398226,4,1,0,49,0,0
208325,-112.342257427789,4,1,0,49,0,0
208475,-112.927487002046,4,1,0,48,0,0
208550,-113.222458353949,4,1,0,48,0,0
208625,-113.518845831191,4,1,0,47,0,0
208700,-113.816918657325,4,1,0,47,0,0
208775,-114.116560937673,4,1,0,47,0,0
208850,-114.41765418637,4,1,0,46,0,0
208925,-114.720472097687,4,1,0,46,0,0
209000,-115.024764831868,4,1,0,46,0,0
209075,-115.330809126358,4,1,0,45,0,0
209150,-115.638486338469,4,1,0,45,0,0
209225,-115.947675133166,4,1,0,44,0,0
209300,-116.25865691024,4,1,0,44,0,0
209375,-116.571311333995,4,1,0,44,0,0
209525,-117.201555030232,4,1,0,43,0,0
209675,-117.838650606044,4,1,0,43,0,0
209825,-118.482710410483,4,1,0,43,0,0
209975,-119.133991191233,4,1,0,42,0,0
210125,-119.792328020144,4,1,0,42,0,0
210275,-120.457981244692,4,1,0,41,0,0
210425,-121.131220239573,4,1,0,41,0,0
210575,-121.811878607154,4,1,0,41,0,0
210650,-122.155009821263,4,1,0,40,0,0
210725,-122.500229687931,4,1,0,40,0,0
210800,-122.84740632271,4,1,0,40,0,0
210875,-123.196404636127,4,1,0,39,0,0
210950,-123.54754418369,4,1,0,39,0,0
211025,-123.900691118055,4,1,0,38,0,0
211100,-124.25570830724,4,1,0,38,0,0
211175,300,8,1,0,38,1,0
211175,-124.61292111379,4,1,0,38,0,0
211325,-125.333386808912,4,1,0,37,0,0
211475,-126.062231881391,4,1,0,37,0,0
211625,-126.799764152439,4,1,0,37,0,0
211775,-127.545814456553,4,1,0,36,0,0
211925,-128.300695774673,4,1,0,36,0,0
212075,-129.064732416544,4,1,0,35,0,0
212225,-129.837754741675,4,1,0,35,0,0

[HitObjects]
254,200,50375,5,4,0:0:0:0:
253,209,50675,1,8,0:0:0:0:
253,209,50825,1,0,0:0:0:0:
253,209,50900,1,8,0:0:0:0:
253,209,50975,1,0,0:0:0:0:
253,209,51125,1,0,0:0:0:0:
262,214,51275,1,8,0:0:0:0:
265,213,51425,1,8,0:0:0:0:
274,200,51800,1,0,0:0:0:0:
268,205,51875,1,0,0:0:0:0:
268,205,51950,1,8,0:0:0:0:
268,205,52025,1,0,0:0:0:0:
268,204,52100,1,0,0:0:0:0:
268,204,52175,1,8,0:0:0:0:
265,213,52250,1,8,0:0:0:0:
265,213,52325,1,0,0:0:0:0:
261,213,52475,1,8,0:0:0:0:
261,213,52550,1,0,0:0:0:0:
261,213,52625,1,8,0:0:0:0:
259,200,52737,1,0,0:0:0:0:
260,200,52775,1,0,0:0:0:0:
261,200,52887,1,8,0:0:0:0:
272,215,52925,1,0,0:0:0:0:
272,215,53075,1,0,0:0:0:0:
267,209,53112,1,0,0:0:0:0:
265,213,53150,1,8,0:0:0:0:
267,209,53375,1,0,0:0:0:0:
262,207,53525,1,0,0:0:0:0:
262,207,53562,1,8,0:0:0:0:
262,207,53600,1,8,0:0:0:0:
262,207,53825,1,0,0:0:0:0:
262,207,53975,1,8,0:0:0:0:
267,209,54125,1,0,0:0:0:0:
244,188,54162,1,0,0:0:0:0:
244,189,54200,1,8,0:0:0:0:
267,209,54275,1,0,0:0:0:0:
256,192,54350,1,0,0:0:0:0:
256,192,54425,1,8,0:0:0:0:
256,192,54500,1,8,0:0:0:0:
256,192,54575,5,0,0:0:0:0:
256,192,54875,1,8,0:0:0:0:
262,188,55025,1,0,0:0:0:0:
262,188,55100,1,0,0:0:0:0:
262,188,55175,1,8,0:0:0:0:
257,196,55250,1,8,0:0:0:0:
262,188,55325,1,0,0:0:0:0:
269,192,55475,1,0,0:0:0:0:
265,192,55550,1,8,0:0:0:0:
265,192,55625,1,8,0:0:0:0:
265,192,55775,1,0,0:0:0:0:
265,192,55925,1,8,0:0:0:0:
265,192,56000,1,0,0:0:0:0:
265,192,56075,1,8,0:0:0:0:
265,192,56225,1,0,0:0:0:0:
265,192,56300,1,8,0:0:0:0:
269,192,56375,1,0,0:0:0:0:
265,192,56450,1,0,0:0:0:0:
265,192,56525,1,8,0:0:0:0:
265,192,56600,1,8,0:0:0:0:
265,192,56675,1,0,0:0:0:0:
265,192,56750,1,0,0:0:0:0:
265,192,56825,1,8,0:0:0:0:
272,188,56975,1,0,0:0:0:0:
272,188,57125,1,0,0:0:0:0:
272,188,57275,1,8,0:0:0:0:
261,209,57312,1,8,0:0:0:0:
252,193,57350,1,8,0:0:0:0:
272,188,57725,1,0,0:0:0:0:
269,221,57875,1,0,0:0:0:0:
243,202,57912,1,8,0:0:0:0:
243,202,57950,1,8,0:0:0:0:
276,204,58175,1,0,0:0:0:0:
224,192,58250,1,8,0:0:0:0:
222,191,58287,1,8,0:0:0:0:
264,209,58325,1,8,0:0:0:0:
277,204,58400,1,0,0:0:0:0:
277,204,58475,1,0,0:0:0:0:
277,204,58550,1,8,0:0:0:0:
277,204,58625,1,8,0:0:0:0:
277,204,58775,5,4,0:0:0:0:
256,214,58925,1,0,0:0:0:0:
256,214,59075,1,8,0:0:0:0:
259,202,59225,1,0,0:0:0:0:
259,202,59300,1,8,0:0:0:0:
259,202,59375,1,0,0:0:0:0:
265,206,59450,1,0,0:0:0:0:
265,206,59525,1,8,0:0:0:0:
265,206,59600,1,8,0:0:0:0:
265,206,59675,1,0,0:0:0:0:
265,206,59825,1,8,0:0:0:0:
265,206,59975,1,0,0:0:0:0:
257,208,60050,1,0,0:0:0:0:
265,206,60125,1,8,0:0:0:0:
266,193,60162,1,8,0:0:0:0:
268,208,60200,1,0,0:0:0:0:
268,208,60275,1,8,0:0:0:0:
266,193,60350,1,0,0:0:0:0:
270,208,60425,1,0,0:0:0:0:
270,208,60500,1,8,0:0:0:0:
270,208,60575,1,0,0:0:0:0:
270,208,60650,1,0,0:0:0:0:
270,208,60725,1,8,0:0:0:0:
270,208,60875,1,0,0:0:0:0:
270,208,60950,1,8,0:0:0:0:
270,208,61025,1,8,0:0:0:0:
231,191,61175,1,4,0:0:0:0:
231,191,61475,1,8,0:0:0:0:
231,191,61550,1,8,0:0:0:0:
231,191,61625,1,0,0:0:0:0:
228,201,61775,1,0,0:0:0:0:
228,201,61850,1,0,0:0:0:0:
228,201,61925,1,8,0:0:0:0:
228,201,62000,1,8,0:0:0:0:
228,201,62075,1,0,0:0:0:0:
228,201,62225,1,0,0:0:0:0:
228,201,62375,1,8,0:0:0:0:
252,208,62525,1,8,0:0:0:0:
227,215,62600,1,8,0:0:0:0:
247,211,62675,1,0,0:0:0:0:
247,211,62750,1,8,0:0:0:0:
247,211,62825,1,0,0:0:0:0:
247,211,62975,5,8,0:0:0:0:
247,211,63125,1,0,0:0:0:0:
247,211,63200,1,0,0:0:0:0:
247,211,63275,1,8,0:0:0:0:
247,211,63425,1,8,0:0:0:0:
247,211,63500,1,8,0:0:0:0:
247,211,63575,1,0,0:0:0:0:
251,218,63650,1,0,0:0:0:0:
251,218,63725,1,8,0:0:0:0:
247,211,63800,1,8,0:0:0:0:
251,218,63875,1,0,0:0:0:0:
247,211,63950,1,8,0:0:0:0:
254,208,64025,1,0,0:0:0:0:
254,208,64100,1,0,0:0:0:0:
254,208,64175,1,8,0:0:0:0:
254,208,64250,1,8,0:0:0:0:
254,208,64325,1,0,0:0:0:0:
254,208,64400,1,0,0:0:0:0:
254,208,64475,1,8,0:0:0:0:
254,208,64550,1,0,0:0:0:0:
254,208,64625,1,8,0:0:0:0:
254,208,64700,1,8,0:0:0:0:
254,208,64775,1,0,0:0:0:0:
254,208,64850,1,0,0:0:0:0:
254,208,64925,1,8,0:0:0:0:
254,208,65000,1,8,0:0:0:0:
254,208,65075,1,0,0:0:0:0:
180,167,65300,1,8,0:0:0:0:
248,208,65375,1,0,0:0:0:0:
248,171,65525,1,0,0:0:0:0:
248,209,65675,1,8,0:0:0:0:
248,209,65750,1,8,0:0:0:0:
248,209,65825,1,0,0:0:0:0:
248,209,65900,1,0,0:0:0:0:
248,209,65975,1,8,0:0:0:0:
254,203,66125,1,0,0:0:0:0:
254,203,66275,1,8,0:0:0:0:
254,203,66425,1,8,0:0:0:0:
254,203,66500,1,0,0:0:0:0:
254,203,66725,1,8,0:0:0:0:
263,212,66875,1,0,0:0:0:0:
263,212,66950,1,8,0:0:0:0:
263,212,67025,1,8,0:0:0:0:
263,212,67100,1,8,0:0:0:0:
263,212,67175,5,0,0:0:0:0:
264,212,67325,1,0,0:0:0:0:
264,212,67475,1,8,0:0:0:0:
264,212,67625,1,0,0:0:0:0:
264,212,67700,1,8,0:0:0:0:
263,212,67775,1,0,0:0:0:0:
263,212,67925,1,8,0:0:0:0:
263,212,68000,1,0,0:0:0:0:
263,212,68075,1,8,0:0:0:0:
258,213,68187,1,0,0:0:0:0:
264,212,68225,1,8,0:0:0:0:
264,212,68375,1,0,0:0:0:0:
262,203,68525,1,8,0:0:0:0:
262,203,68562,1,0,0:0:0:0:
262,203,68600,1,0,0:0:0:0:
262,203,68675,1,8,0:0:0:0:
242,219,68750,1,8,0:0:0:0:
272,225,68825,1,0,0:0:0:0:
268,229,68975,1,8,0:0:0:0:
268,229,69050,1,0,0:0:0:0:
268,229,69125,1,0,0:0:0:0:
268,229,69200,1,0,0:0:0:0:
268,229,69275,1,8,0:0:0:0:
292,233,69350,1,0,0:0:0:0:
268,229,69425,1,8,0:0:0:0:
264,212,69575,1,0,0:0:0:0:
276,226,69650,1,0,0:0:0:0:
275,236,69725,1,8,0:0:0:0:
275,236,69800,1,0,0:0:0:0:
275,235,69875,1,8,0:0:0:0:
279,232,70025,1,0,0:0:0:0:
279,232,70175,1,8,0:0:0:0:
279,232,70250,1,8,0:0:0:0:
279,232,70325,1,0,0:0:0:0:
279,232,70475,1,8,0:0:0:0:
279,232,70550,1,8,0:0:0:0:
279,232,70625,1,0,0:0:0:0:
279,232,70700,1,8,0:0:0:0:
279,232,70775,1,0,0:0:0:0:
281,217,70850,1,0,0:0:0:0:
275,223,70925,1,8,0:0:0:0:
276,223,71075,1,0,0:0:0:0:
276,223,71150,1,8,0:0:0:0:
276,223,71225,1,0,0:0:0:0:
274,203,71375,5,8,0:0:0:0:
274,203,71525,1,0,0:0:0:0:
274,203,71675,1,8,0:0:0:0:
274,203,71750,1,0,0:0:0:0:
274,203,71825,1,8,0:0:0:0:
274,203,71975,1,8,0:0:0:0:
274,202,72125,1,0,0:0:0:0:
274,203,72275,1,8,0:0:0:0:
274,203,72350,1,8,0:0:0:0:
274,203,72425,1,0,0:0:0:0:
274,203,72500,1,0,0:0:0:0:
274,203,72575,1,8,0:0:0:0:
274,203,72650,1,0,0:0:0:0:
274,203,72725,1,0,0:0:0:0:
274,203,72800,1,8,0:0:0:0:
274,203,72875,1,0,0:0:0:0:
274,202,73025,1,8,0:0:0:0:
274,203,73175,1,0,0:0:0:0:
274,203,73250,1,8,0:0:0:0:
274,203,73325,1,0,0:0:0:0:
274,203,73400,1,0,0:0:0:0:
274,203,73475,1,8,0:0:0:0:
274,203,73550,1,0,0:0:0:0:
274,203,73625,1,8,0:0:0:0:
274,203,73700,1,8,0:0:0:0:
274,203,73775,1,0,0:0:0:0:
274,202,73925,1,0,0:0:0:0:
274,203,74075,1,8,0:0:0:0:
278,218,74150,1,0,0:0:0:0:
274,203,74225,1,8,0:0:0:0:
278,218,74300,1,8,0:0:0:0:
288,216,74375,1,0,0:0:0:0:
280,216,74675,1,0,0:0:0:0:
280,208,74825,1,8,0:0:0:0:
275,216,74900,1,8,0:0:0:0:
280,216,74975,1,0,0:0:0:0:
280,208,75125,1,8,0:0:0:0:
262,233,75200,1,0,0:0:0:0:
280,208,75275,1,0,0:0:0:0:
280,216,75350,1,8,0:0:0:0:
280,216,75425,1,8,0:0:0:0:
280,216,75575,5,4,0:0:0:0:
280,208,75725,1,0,0:0:0:0:
280,216,75875,1,8,0:0:0:0:
272,205,76025,1,0,0:0:0:0:
272,205,76100,1,8,0:0:0:0:
272,205,76175,1,0,0:0:0:0:
272,205,76325,1,8,0:0:0:0:
272,205,76475,1,0,0:0:0:0:
283,213,76550,1,0,0:0:0:0:
275,201,76625,1,8,0:0:0:0:
276,207,76775,1,0,0:0:0:0:
276,207,76850,1,8,0:0:0:0:
276,207,76925,1,0,0:0:0:0:
276,207,77000,1,0,0:0:0:0:
276,207,77075,1,8,0:0:0:0:
269,213,77150,1,0,0:0:0:0:
276,207,77225,1,8,0:0:0:0:
269,213,77375,1,8,0:0:0:0:
269,213,77450,1,8,0:0:0:0:
269,213,77525,1,0,0:0:0:0:
269,212,77600,1,8,0:0:0:0:
269,213,77675,1,0,0:0:0:0:
235,211,77750,1,0,0:0:0:0:
269,212,77825,1,8,0:0:0:0:
258,216,77900,1,8,0:0:0:0:
269,212,77975,1,0,0:0:0:0:
269,212,78125,1,0,0:0:0:0:
269,213,78275,1,8,0:0:0:0:
269,213,78350,1,8,0:0:0:0:
269,213,78425,1,0,0:0:0:0:
269,212,78500,1,0,0:0:0:0:
269,213,78575,1,8,0:0:0:0:
269,212,78725,1,0,0:0:0:0:
269,212,78800,1,0,0:0:0:0:
269,212,78875,1,8,0:0:0:0:
269,212,78950,1,8,0:0:0:0:
269,212,79025,1,0,0:0:0:0:
269,213,79100,1,8,0:0:0:0:
269,213,79175,1,0,0:0:0:0:
269,213,79325,1,0,0:0:0:0:
269,213,79400,1,0,0:0:0:0:
269,212,79475,1,8,0:0:0:0:
269,212,79625,1,8,0:0:0:0:
269,212,79775,5,0,0:0:0:0:
303,249,79850,1,0,0:0:0:0:
277,213,79925,1,8,0:0:0:0:
277,213,80000,1,0,0:0:0:0:
277,213,80075,1,8,0:0:0:0:
277,213,80225,1,8,0:0:0:0:
268,205,80300,1,8,0:0:0:0:
277,213,80375,1,0,0:0:0:0:
280,217,80525,1,8,0:0:0:0:
280,217,80675,1,0,0:0:0:0:
280,217,80825,1,8,0:0:0:0:
280,217,81125,1,8,0:0:0:0:
280,217,81275,1,0,0:0:0:0:
280,217,81425,1,8,0:0:0:0:
280,217,81575,1,0,0:0:0:0:
280,217,81650,1,8,0:0:0:0:
280,217,81725,1,0,0:0:0:0:
280,217,81800,1,0,0:0:0:0:
280,217,81875,1,8,0:0:0:0:
280,217,82025,1,8,0:0:0:0:
280,217,82175,1,4,0:0:0:0:
256,192,82325,8,0,83825,0:0:0:0:
254,195,83975,5,4,0:0:0:0:
261,209,84125,1,0,0:0:0:0:
261,209,84200,1,0,0:0:0:0:
261,209,84275,1,8,0:0:0:0:
258,210,84425,1,0,0:0:0:0:
258,210,84575,1,0,0:0:0:0:
246,195,84725,1,8,0:0:0:0:
246,195,84875,1,8,0:0:0:0:
246,195,84950,1,0,0:0:0:0:
246,195,85025,1,8,0:0:0:0:
246,195,85175,1,0,0:0:0:0:
253,197,85250,1,0,0:0:0:0:
246,195,85325,1,8,0:0:0:0:
262,192,85475,1,0,0:0:0:0:
262,192,85550,1,8,0:0:0:0:
262,192,85625,1,0,0:0:0:0:
262,192,85700,1,0,0:0:0:0:
262,192,85775,1,8,0:0:0:0:
265,190,85887,1,0,0:0:0:0:
265,190,85925,1,8,0:0:0:0:
268,204,86075,1,0,0:0:0:0:
246,195,86225,1,8,0:0:0:0:
262,192,86375,1,0,0:0:0:0:
262,192,86525,1,0,0:0:0:0:
262,192,86675,1,8,0:0:0:0:
261,209,86750,1,0,0:0:0:0:
265,190,86825,1,8,0:0:0:0:
264,193,86975,1,0,0:0:0:0:
264,193,87125,1,8,0:0:0:0:
273,210,87175,1,0,0:0:0:0:
273,210,87225,1,0,0:0:0:0:
262,192,87275,1,8,0:0:0:0:
262,192,87350,1,0,0:0:0:0:
262,192,87425,1,8,0:0:0:0:
257,200,87475,1,8,0:0:0:0:
258,200,87525,1,0,0:0:0:0:
258,200,87575,1,0,0:0:0:0:
257,194,87650,1,8,0:0:0:0:
258,194,87725,1,0,0:0:0:0:
259,194,87800,1,8,0:0:0:0:
259,194,87875,1,0,0:0:0:0:
259,194,87950,1,0,0:0:0:0:
259,194,88025,1,8,0:0:0:0:
265,203,88175,5,0,0:0:0:0:
262,192,88325,1,8,0:0:0:0:
257,193,88400,1,0,0:0:0:0:
257,193,88475,1,8,0:0:0:0:
258,194,88625,1,0,0:0:0:0:
254,204,88775,1,8,0:0:0:0:
254,204,88850,1,0,0:0:0:0:
254,204,88925,1,8,0:0:0:0:
254,213,88962,1,8,0:0:0:0:
254,204,89000,1,0,0:0:0:0:
254,204,89075,1,0,0:0:0:0:
254,204,89150,1,8,0:0:0:0:
254,204,89225,1,8,0:0:0:0:
254,207,89375,1,0,0:0:0:0:
254,207,89450,1,8,0:0:0:0:
254,204,89600,1,0,0:0:0:0:
254,204,89675,1,8,0:0:0:0:
254,204,89750,1,8,0:0:0:0:
254,204,89825,1,0,0:0:0:0:
254,204,89900,1,0,0:0:0:0:
254,204,89975,1,8,0:0:0:0:
254,204,90050,1,0,0:0:0:0:
254,204,90125,1,8,0:0:0:0:
254,207,90200,1,0,0:0:0:0:
254,207,90275,1,8,0:0:0:0:
254,204,90350,1,0,0:0:0:0:
254,204,90425,1,8,0:0:0:0:
265,211,90462,1,8,0:0:0:0:
263,209,90500,1,8,0:0:0:0:
254,204,90575,1,0,0:0:0:0:
254,204,90725,1,0,0:0:0:0:
256,212,90875,1,8,0:0:0:0:
256,212,91025,1,0,0:0:0:0:
256,212,91100,1,8,0:0:0:0:
256,211,91175,1,0,0:0:0:0:
256,211,91325,1,8,0:0:0:0:
269,200,91362,1,8,0:0:0:0:
256,208,91400,1,0,0:0:0:0:
256,208,91475,1,8,0:0:0:0:
265,216,91550,1,0,0:0:0:0:
256,214,91625,1,0,0:0:0:0:
256,212,91700,1,8,0:0:0:0:
256,212,91775,1,8,0:0:0:0:
256,212,91850,1,0,0:0:0:0:
256,212,91925,1,0,0:0:0:0:
256,212,92000,1,8,0:0:0:0:
256,212,92075,1,0,0:0:0:0:
256,211,92150,1,0,0:0:0:0:
256,211,92225,1,8,0:0:0:0:
253,230,92300,1,8,0:0:0:0:
256,214,92375,5,0,0:0:0:0:
263,208,92525,1,0,0:0:0:0:
256,212,92675,1,8,0:0:0:0:
256,212,92825,1,0,0:0:0:0:
256,212,92900,1,0,0:0:0:0:
256,212,92975,1,8,0:0:0:0:
256,212,93050,1,8,0:0:0:0:
256,211,93125,1,0,0:0:0:0:
256,214,93200,1,0,0:0:0:0:
256,214,93275,1,8,0:0:0:0:
256,214,93350,1,0,0:0:0:0:
255,209,93425,1,8,0:0:0:0:
256,212,93575,1,0,0:0:0:0:
262,213,93725,1,8,0:0:0:0:
262,213,93775,1,8,0:0:0:0:
262,213,93825,1,0,0:0:0:0:
262,213,93875,1,8,0:0:0:0:
262,213,93925,1,0,0:0:0:0:
262,213,93975,1,0,0:0:0:0:
262,213,94025,1,8,0:0:0:0:
225,187,94100,1,8,0:0:0:0:
234,188,94175,1,0,0:0:0:0:
238,191,94250,1,0,0:0:0:0:
238,191,94325,1,8,0:0:0:0:
235,203,94375,1,0,0:0:0:0:
235,203,94425,1,0,0:0:0:0:
235,203,94475,1,8,0:0:0:0:
254,196,94550,1,0,0:0:0:0:
254,196,94625,1,8,0:0:0:0:
237,186,94675,1,8,0:0:0:0:
237,186,94725,1,0,0:0:0:0:
237,186,94775,1,0,0:0:0:0:
218,201,94925,1,8,0:0:0:0:
260,186,95000,1,0,0:0:0:0:
260,186,95075,1,8,0:0:0:0:
260,186,95225,1,0,0:0:0:0:
251,200,95300,1,8,0:0:0:0:
251,200,95375,1,0,0:0:0:0:
251,200,95450,1,0,0:0:0:0:
251,200,95525,1,8,0:0:0:0:
251,200,95675,1,8,0:0:0:0:
251,200,95750,1,0,0:0:0:0:
251,200,95825,1,8,0:0:0:0:
251,200,95900,1,8,0:0:0:0:
251,200,95975,1,0,0:0:0:0:
251,200,96125,1,8,0:0:0:0:
251,200,96275,1,0,0:0:0:0:
251,200,96350,1,0,0:0:0:0:
251,200,96425,1,8,0:0:0:0:
258,203,96575,5,0,0:0:0:0:
258,203,96725,1,0,0:0:0:0:
258,203,96875,1,8,0:0:0:0:
258,203,97025,1,8,0:0:0:0:
258,203,97175,1,0,0:0:0:0:
258,203,97250,1,0,0:0:0:0:
258,203,97325,1,8,0:0:0:0:
258,203,97400,1,0,0:0:0:0:
258,203,97475,1,8,0:0:0:0:
258,203,97550,1,8,0:0:0:0:
258,203,97625,1,0,0:0:0:0:
258,203,97700,1,8,0:0:0:0:
258,203,97775,1,0,0:0:0:0:
258,203,97925,1,8,0:0:0:0:
258,203,98000,1,8,0:0:0:0:
258,203,98075,1,0,0:0:0:0:
258,203,98150,1,0,0:0:0:0:
258,203,98225,1,8,0:0:0:0:
258,203,98300,1,0,0:0:0:0:
258,203,98375,1,8,0:0:0:0:
258,203,98450,1,8,0:0:0:0:
258,203,98525,1,0,0:0:0:0:
258,203,98600,1,0,0:0:0:0:
258,203,98675,1,8,0:0:0:0:
258,203,98750,1,0,0:0:0:0:
258,203,98825,1,8,0:0:0:0:
258,203,98975,1,0,0:0:0:0:
258,203,99125,1,8,0:0:0:0:
258,203,99200,1,0,0:0:0:0:
258,203,99275,1,8,0:0:0:0:
258,203,99425,1,0,0:0:0:0:
258,203,99575,1,8,0:0:0:0:
258,203,99650,1,8,0:0:0:0:
258,203,99725,1,0,0:0:0:0:
266,202,99800,1,8,0:0:0:0:
258,203,99875,1,0,0:0:0:0:
258,203,100025,1,8,0:0:0:0:
258,203,100175,1,0,0:0:0:0:
258,203,100250,1,8,0:0:0:0:
258,203,100325,1,0,0:0:0:0:
258,203,100400,1,0,0:0:0:0:
257,210,100475,1,8,0:0:0:0:
257,210,100512,1,0,0:0:0:0:
257,210,100550,1,0,0:0:0:0:
270,218,100625,1,8,0:0:0:0:
271,213,100775,5,4,0:0:0:0:
289,224,100925,1,8,0:0:0:0:
289,224,101000,1,0,0:0:0:0:
289,224,101075,1,8,0:0:0:0:
257,209,101150,1,8,0:0:0:0:
266,219,101225,1,0,0:0:0:0:
266,218,101375,1,0,0:0:0:0:
272,218,101450,1,0,0:0:0:0:
272,218,101525,1,8,0:0:0:0:
270,218,101600,1,8,0:0:0:0:
272,218,101675,1,0,0:0:0:0:
288,210,101750,1,8,0:0:0:0:
289,224,101787,1,8,0:0:0:0:
289,224,101825,1,0,0:0:0:0:
302,225,101975,1,8,0:0:0:0:
326,212,102050,1,0,0:0:0:0:
284,214,102125,1,0,0:0:0:0:
284,214,102200,1,8,0:0:0:0:
284,214,102275,1,0,0:0:0:0:
284,214,102350,1,0,0:0:0:0:
284,214,102425,1,8,0:0:0:0:
284,214,102500,1,8,0:0:0:0:
284,214,102575,1,0,0:0:0:0:
284,214,102725,1,8,0:0:0:0:
284,214,102800,1,8,0:0:0:0:
284,214,102875,1,0,0:0:0:0:
284,214,102950,1,0,0:0:0:0:
284,214,103025,1,8,0:0:0:0:
284,214,103100,1,0,0:0:0:0:
284,214,103175,1,0,0:0:0:0:
284,214,103325,1,8,0:0:0:0:
284,214,103400,1,0,0:0:0:0:
284,214,103475,1,8,0:0:0:0:
284,214,103625,1,0,0:0:0:0:
284,214,103775,1,8,0:0:0:0:
284,214,103850,1,0,0:0:0:0:
284,214,103925,1,8,0:0:0:0:
290,214,104075,1,0,0:0:0:0:
276,240,104150,1,0,0:0:0:0:
290,213,104225,1,8,0:0:0:0:
290,213,104300,1,8,0:0:0:0:
290,213,104375,1,0,0:0:0:0:
290,213,104525,1,0,0:0:0:0:
290,213,104675,1,8,0:0:0:0:
290,213,104750,1,0,0:0:0:0:
290,213,104825,1,8,0:0:0:0:
288,220,104900,1,8,0:0:0:0:
290,214,104975,5,0,0:0:0:0:
290,213,105125,1,8,0:0:0:0:
290,213,105200,1,0,0:0:0:0:
290,213,105275,1,8,0:0:0:0:
284,202,105425,1,0,0:0:0:0:
284,202,105500,1,8,0:0:0:0:
284,202,105575,1,0,0:0:0:0:
284,202,105650,1,0,0:0:0:0:
284,202,105725,1,8,0:0:0:0:
315,197,105800,1,0,0:0:0:0:
284,202,105875,1,8,0:0:0:0:
284,202,105950,1,0,0:0:0:0:
284,202,106025,1,8,0:0:0:0:
284,202,106100,1,8,0:0:0:0:
284,202,106175,1,0,0:0:0:0:
284,202,106325,1,0,0:0:0:0:
284,202,106475,1,8,0:0:0:0:
284,202,106625,1,0,0:0:0:0:
284,202,106700,1,0,0:0:0:0:
284,202,106775,1,8,0:0:0:0:
284,202,106850,1,8,0:0:0:0:
268,187,106925,1,0,0:0:0:0:
276,197,106962,1,0,0:0:0:0:
276,197,107000,1,8,0:0:0:0:
284,202,107056,1,8,0:0:0:0:
285,209,107112,1,0,0:0:0:0:
285,208,107187,1,0,0:0:0:0:
285,208,107243,1,8,0:0:0:0:
284,202,107318,1,8,0:0:0:0:
284,202,107375,1,0,0:0:0:0:
274,181,107525,1,8,0:0:0:0:
274,181,107675,1,0,0:0:0:0:
267,196,107750,1,0,0:0:0:0:
267,195,107825,1,8,0:0:0:0:
267,195,107900,1,0,0:0:0:0:
267,195,107975,1,8,0:0:0:0:
267,195,108050,1,8,0:0:0:0:
267,195,108125,1,0,0:0:0:0:
273,199,108175,1,0,0:0:0:0:
273,199,108225,1,8,0:0:0:0:
273,199,108275,1,8,0:0:0:0:
278,195,108350,1,0,0:0:0:0:
278,195,108425,1,8,0:0:0:0:
278,195,108500,1,0,0:0:0:0:
278,195,108575,1,0,0:0:0:0:
278,195,108650,1,0,0:0:0:0:
278,195,108725,1,8,0:0:0:0:
276,207,108875,1,8,0:0:0:0:
270,201,108950,1,0,0:0:0:0:
270,201,109025,1,8,0:0:0:0:
273,199,109100,1,8,0:0:0:0:
273,199,109175,5,0,0:0:0:0:
276,203,109325,1,0,0:0:0:0:
278,195,109475,1,8,0:0:0:0:
290,208,109550,1,0,0:0:0:0:
278,195,109625,1,0,0:0:0:0:
278,195,109700,1,8,0:0:0:0:
278,195,109775,1,8,0:0:0:0:
278,195,109850,1,8,0:0:0:0:
278,195,109925,1,0,0:0:0:0:
278,195,110000,1,0,0:0:0:0:
278,195,110075,1,8,0:0:0:0:
254,179,110225,1,0,0:0:0:0:
254,179,110300,1,0,0:0:0:0:
254,179,110375,1,8,0:0:0:0:
254,179,110450,1,8,0:0:0:0:
254,179,110525,1,0,0:0:0:0:
263,200,110675,1,8,0:0:0:0:
263,200,110750,1,0,0:0:0:0:
263,200,110825,1,8,0:0:0:0:
263,200,110900,1,8,0:0:0:0:
263,200,110975,1,0,0:0:0:0:
263,200,111050,1,0,0:0:0:0:
263,200,111125,1,8,0:0:0:0:
263,200,111200,1,0,0:0:0:0:
263,200,111275,1,8,0:0:0:0:
263,200,111350,1,0,0:0:0:0:
263,200,111425,1,0,0:0:0:0:
263,200,111500,1,8,0:0:0:0:
263,200,111575,1,0,0:0:0:0:
257,196,111725,1,0,0:0:0:0:
257,196,111875,1,8,0:0:0:0:
268,202,112025,1,0,0:0:0:0:
268,202,112100,1,8,0:0:0:0:
268,202,112175,1,0,0:0:0:0:
268,202,112250,1,0,0:0:0:0:
268,202,112325,1,8,0:0:0:0:
268,202,112400,1,0,0:0:0:0:
268,202,112475,1,8,0:0:0:0:
263,200,112550,1,8,0:0:0:0:
265,203,112625,1,0,0:0:0:0:
265,203,112700,1,0,0:0:0:0:
265,203,112775,1,8,0:0:0:0:
268,202,112925,1,8,0:0:0:0:
273,208,113000,1,8,0:0:0:0:
268,202,113075,1,0,0:0:0:0:
273,208,113150,1,8,0:0:0:0:
273,208,113225,1,0,0:0:0:0:
272,211,113300,1,8,0:0:0:0:
273,208,113375,5,0,0:0:0:0:
273,208,113525,1,8,0:0:0:0:
273,208,113600,1,0,0:0:0:0:
273,208,113675,1,8,0:0:0:0:
273,208,113750,1,8,0:0:0:0:
273,208,113825,1,0,0:0:0:0:
273,208,113900,1,8,0:0:0:0:
273,208,113975,1,0,0:0:0:0:
273,208,114050,1,0,0:0:0:0:
273,208,114125,1,8,0:0:0:0:
273,208,114200,1,0,0:0:0:0:
273,208,114275,1,8,0:0:0:0:
273,208,114350,1,8,0:0:0:0:
273,208,114425,1,0,0:0:0:0:
273,208,114500,1,0,0:0:0:0:
273,208,114575,1,8,0:0:0:0:
273,208,114650,1,0,0:0:0:0:
273,208,114725,1,0,0:0:0:0:
273,208,114800,1,8,0:0:0:0:
272,198,114837,1,8,0:0:0:0:
273,208,114875,1,0,0:0:0:0:
273,208,114950,1,0,0:0:0:0:
273,208,115025,1,8,0:0:0:0:
273,208,115175,1,8,0:0:0:0:
279,217,115250,1,0,0:0:0:0:
273,208,115325,1,0,0:0:0:0:
262,207,115400,1,0,0:0:0:0:
273,208,115475,1,8,0:0:0:0:
273,208,115550,1,0,0:0:0:0:
273,208,115625,1,8,0:0:0:0:
273,208,115700,1,8,0:0:0:0:
273,208,115775,1,0,0:0:0:0:
273,208,115925,1,8,0:0:0:0:
280,204,116075,1,0,0:0:0:0:
280,204,116150,1,8,0:0:0:0:
280,204,116225,1,0,0:0:0:0:
280,204,116375,1,8,0:0:0:0:
280,204,116525,1,8,0:0:0:0:
280,204,116600,1,8,0:0:0:0:
280,204,116675,1,0,0:0:0:0:
280,204,116750,1,8,0:0:0:0:
280,204,116825,1,0,0:0:0:0:
272,216,116900,1,0,0:0:0:0:
280,204,116975,1,8,0:0:0:0:
280,204,117050,1,0,0:0:0:0:
280,204,117125,1,8,0:0:0:0:
280,204,117275,1,0,0:0:0:0:
262,206,117350,1,0,0:0:0:0:
280,204,117425,1,8,0:0:0:0:
258,217,117575,5,0,0:0:0:0:
258,217,117650,1,0,0:0:0:0:
258,217,117725,1,8,0:0:0:0:
258,217,117800,1,8,0:0:0:0:
258,217,117875,1,0,0:0:0:0:
258,217,117950,1,0,0:0:0:0:
258,217,118025,1,8,0:0:0:0:
258,217,118100,1,8,0:0:0:0:
258,217,118175,1,8,0:0:0:0:
258,217,118250,1,0,0:0:0:0:
258,217,118325,1,0,0:0:0:0:
249,213,118400,1,8,0:0:0:0:
249,213,118475,1,8,0:0:0:0:
249,213,118550,1,0,0:0:0:0:
258,217,118625,1,0,0:0:0:0:
249,213,118700,1,8,0:0:0:0:
249,213,118775,1,0,0:0:0:0:
249,213,118850,1,0,0:0:0:0:
249,213,118925,1,8,0:0:0:0:
249,213,119000,1,8,0:0:0:0:
249,213,119075,1,0,0:0:0:0:
249,213,119150,1,0,0:0:0:0:
246,213,119225,1,8,0:0:0:0:
246,213,119300,1,8,0:0:0:0:
249,213,119375,1,8,0:0:0:0:
249,213,119450,1,0,0:0:0:0:
249,213,119525,1,0,0:0:0:0:
246,213,119600,1,8,0:0:0:0:
249,213,119675,1,8,0:0:0:0:
249,213,119750,1,0,0:0:0:0:
249,213,119825,1,0,0:0:0:0:
249,213,119900,1,8,0:0:0:0:
249,213,119975,1,0,0:0:0:0:
249,213,120050,1,0,0:0:0:0:
249,213,120125,1,8,0:0:0:0:
246,213,120200,1,8,0:0:0:0:
246,213,120275,1,0,0:0:0:0:
249,213,120350,1,0,0:0:0:0:
249,213,120425,1,8,0:0:0:0:
249,213,120500,1,8,0:0:0:0:
246,213,120575,1,8,0:0:0:0:
249,213,120650,1,0,0:0:0:0:
249,213,120725,1,0,0:0:0:0:
249,213,120800,1,8,0:0:0:0:
249,213,120875,1,8,0:0:0:0:
249,213,120950,1,0,0:0:0:0:
249,213,121025,1,0,0:0:0:0:
249,213,121100,1,8,0:0:0:0:
249,213,121175,1,0,0:0:0:0:
246,213,121250,1,0,0:0:0:0:
249,213,121325,1,8,0:0:0:0:
249,213,121400,1,8,0:0:0:0:
249,213,121475,1,0,0:0:0:0:
246,213,121550,1,0,0:0:0:0:
249,213,121625,1,8,0:0:0:0:
255,218,121700,1,8,0:0:0:0:
230,191,121775,5,0,0:0:0:0:
244,205,122075,1,8,0:0:0:0:
244,205,122225,1,0,0:0:0:0:
238,200,122525,1,0,0:0:0:0:
248,200,122600,1,8,0:0:0:0:
238,200,122675,1,8,0:0:0:0:
238,200,122750,1,0,0:0:0:0:
248,200,122825,1,8,0:0:0:0:
248,200,122975,1,0,0:0:0:0:
269,225,123050,1,8,0:0:0:0:
267,242,123125,1,0,0:0:0:0:
268,229,123175,1,0,0:0:0:0:
268,229,123225,1,8,0:0:0:0:
268,229,123275,1,8,0:0:0:0:
268,204,123350,1,0,0:0:0:0:
268,204,123425,1,8,0:0:0:0:
254,211,123500,1,8,0:0:0:0:
254,211,123575,1,0,0:0:0:0:
259,223,123725,1,8,0:0:0:0:
259,223,123800,1,8,0:0:0:0:
259,223,123875,1,0,0:0:0:0:
259,223,123950,1,0,0:0:0:0:
259,223,124025,1,8,0:0:0:0:
259,223,124175,1,4,0:0:0:0:
258,224,124475,1,0,0:0:0:0:
258,224,124550,1,0,0:0:0:0:
258,224,124625,1,8,0:0:0:0:
259,223,124700,1,0,0:0:0:0:
259,223,124775,1,8,0:0:0:0:
274,234,124850,1,8,0:0:0:0:
274,234,124925,1,0,0:0:0:0:
263,211,125000,1,8,0:0:0:0:
263,211,125075,1,0,0:0:0:0:
263,211,125150,1,0,0:0:0:0:
263,211,125225,1,8,0:0:0:0:
263,211,125300,1,0,0:0:0:0:
280,220,125375,1,8,0:0:0:0:
275,219,125525,1,0,0:0:0:0:
275,219,125600,1,8,0:0:0:0:
280,225,125675,1,0,0:0:0:0:
280,225,125825,1,8,0:0:0:0:
276,186,125975,5,4,0:0:0:0:
271,214,126125,1,0,0:0:0:0:
271,214,126200,1,0,0:0:0:0:
271,214,126275,1,8,0:0:0:0:
285,207,126425,1,0,0:0:0:0:
285,207,126500,1,8,0:0:0:0:
285,207,126575,1,0,0:0:0:0:
285,207,126650,1,0,0:0:0:0:
285,207,126725,1,8,0:0:0:0:
285,207,126800,1,8,0:0:0:0:
285,207,126875,1,0,0:0:0:0:
285,207,127025,1,8,0:0:0:0:
285,207,127100,1,8,0:0:0:0:
285,207,127175,1,0,0:0:0:0:
285,207,127325,1,8,0:0:0:0:
285,207,127475,1,8,0:0:0:0:
285,207,127575,1,0,0:0:0:0:
268,201,127675,1,8,0:0:0:0:
268,201,127775,1,0,0:0:0:0:
268,201,127875,1,0,0:0:0:0:
268,201,127975,1,8,0:0:0:0:
268,201,128075,1,0,0:0:0:0:
268,201,128175,1,8,0:0:0:0:
268,201,128275,1,0,0:0:0:0:
268,201,128325,1,8,0:0:0:0:
268,201,128375,5,0,0:0:0:0:
264,200,128525,1,0,0:0:0:0:
268,201,128600,1,0,0:0:0:0:
268,201,128675,1,8,0:0:0:0:
248,216,128825,1,0,0:0:0:0:
272,208,128900,1,0,0:0:0:0:
272,208,128975,1,8,0:0:0:0:
272,208,129050,1,0,0:0:0:0:
272,208,129125,1,8,0:0:0:0:
272,208,129200,1,0,0:0:0:0:
272,208,129275,1,0,0:0:0:0:
272,208,129350,1,8,0:0:0:0:
266,208,129425,1,0,0:0:0:0:
272,208,129500,1,8,0:0:0:0:
272,208,129575,1,0,0:0:0:0:
272,208,129725,1,8,0:0:0:0:
272,208,129875,1,0,0:0:0:0:
272,208,129950,1,8,0:0:0:0:
272,208,130025,1,8,0:0:0:0:
272,208,130100,1,0,0:0:0:0:
272,208,130175,1,8,0:0:0:0:
272,208,130250,1,0,0:0:0:0:
272,208,130325,1,0,0:0:0:0:
272,208,130400,1,8,0:0:0:0:
272,208,130475,1,8,0:0:0:0:
272,208,130550,1,0,0:0:0:0:
272,208,130625,1,8,0:0:0:0:
272,208,130700,1,8,0:0:0:0:
272,208,130775,5,0,0:0:0:0:
272,208,130925,1,0,0:0:0:0:
264,200,131075,1,8,0:0:0:0:
264,200,131225,1,0,0:0:0:0:
264,200,131300,1,8,0:0:0:0:
264,200,131450,1,8,0:0:0:0:
272,208,131525,1,0,0:0:0:0:
272,208,131600,1,0,0:0:0:0:
272,208,131675,1,8,0:0:0:0:
272,208,131750,1,0,0:0:0:0:
272,208,131825,1,8,0:0:0:0:
272,208,131900,1,8,0:0:0:0:
272,208,131975,1,0,0:0:0:0:
264,208,132125,1,8,0:0:0:0:
264,208,132200,1,8,0:0:0:0:
264,208,132275,1,0,0:0:0:0:
264,208,132425,1,8,0:0:0:0:
264,208,132500,1,0,0:0:0:0:
264,208,132575,1,8,0:0:0:0:
264,208,132650,1,8,0:0:0:0:
264,208,132725,1,0,0:0:0:0:
264,208,132875,1,8,0:0:0:0:
264,208,132950,1,0,0:0:0:0:
264,208,133025,1,0,0:0:0:0:
264,208,133100,1,8,0:0:0:0:
264,208,133175,5,0,0:0:0:0:
264,208,133325,1,0,0:0:0:0:
256,192,133475,1,8,0:0:0:0:
256,192,133550,1,0,0:0:0:0:
256,192,133625,1,0,0:0:0:0:
256,192,133775,1,8,0:0:0:0:
256,192,133850,1,8,0:0:0:0:
264,200,133925,1,0,0:0:0:0:
256,192,134000,1,8,0:0:0:0:
240,192,134075,1,8,0:0:0:0:
272,160,134225,1,4,0:0:0:0:
256,200,134525,1,0,0:0:0:0:
256,200,134600,1,0,0:0:0:0:
256,200,134675,1,8,0:0:0:0:
280,192,134750,1,8,0:0:0:0:
280,192,134825,1,0,0:0:0:0:
264,200,134862,1,0,0:0:0:0:
288,176,134900,1,0,0:0:0:0:
272,192,134975,1,8,0:0:0:0:
272,192,135050,1,8,0:0:0:0:
272,192,135125,1,0,0:0:0:0:
272,192,135162,1,0,0:0:0:0:
272,192,135200,1,8,0:0:0:0:
272,192,135275,1,8,0:0:0:0:
264,200,135387,1,0,0:0:0:0:
264,192,135425,1,8,0:0:0:0:
264,192,135575,5,0,0:0:0:0:
272,192,135650,1,0,0:0:0:0:
272,192,135725,1,8,0:0:0:0:
272,192,135800,1,8,0:0:0:0:
272,192,135875,1,0,0:0:0:0:
272,192,135950,1,0,0:0:0:0:
272,192,136025,1,8,0:0:0:0:
272,192,136175,1,8,0:0:0:0:
272,192,136250,1,8,0:0:0:0:
264,192,136325,1,0,0:0:0:0:
264,192,136400,1,0,0:0:0:0:
264,192,136475,1,8,0:0:0:0:
280,176,136625,1,8,0:0:0:0:
272,184,136775,1,0,0:0:0:0:
280,184,136850,1,0,0:0:0:0:
280,184,136925,1,8,0:0:0:0:
280,184,137000,1,8,0:0:0:0:
280,184,137075,1,8,0:0:0:0:
280,184,137150,1,0,0:0:0:0:
280,184,137225,1,0,0:0:0:0:
280,184,137300,1,8,0:0:0:0:
280,184,137375,1,0,0:0:0:0:
280,184,137450,1,8,0:0:0:0:
280,184,137525,1,0,0:0:0:0:
280,184,137600,1,0,0:0:0:0:
280,184,137675,1,8,0:0:0:0:
312,184,137712,1,0,0:0:0:0:
312,184,137787,1,8,0:0:0:0:
296,160,137881,1,0,0:0:0:0:
264,176,137975,5,8,0:0:0:0:
264,176,138125,1,0,0:0:0:0:
264,176,138200,1,0,0:0:0:0:
264,176,138275,1,8,0:0:0:0:
288,192,138425,1,0,0:0:0:0:
288,192,138500,1,8,0:0:0:0:
264,192,138575,1,0,0:0:0:0:
264,192,138612,1,0,0:0:0:0:
264,192,138650,1,8,0:0:0:0:
264,192,138725,1,8,0:0:0:0:
248,208,138800,1,0,0:0:0:0:
264,192,138875,1,8,0:0:0:0:
240,192,139025,1,0,0:0:0:0:
240,184,139100,1,8,0:0:0:0:
242,191,139175,1,0,0:0:0:0:
242,191,139325,1,8,0:0:0:0:
242,191,139400,1,0,0:0:0:0:
242,191,139475,1,8,0:0:0:0:
242,191,139625,1,0,0:0:0:0:
242,191,139700,1,8,0:0:0:0:
242,191,139775,1,0,0:0:0:0:
227,202,139825,1,0,0:0:0:0:
227,202,139875,1,0,0:0:0:0:
227,202,139925,1,0,0:0:0:0:
236,187,139962,1,8,0:0:0:0:
237,186,140037,1,8,0:0:0:0:
231,195,140075,1,0,0:0:0:0:
232,167,140150,1,0,0:0:0:0:
233,166,140225,1,8,0:0:0:0:
241,177,140300,1,8,0:0:0:0:
253,200,140375,5,0,0:0:0:0:
238,175,140487,1,8,0:0:0:0:
238,202,140543,1,0,0:0:0:0:
242,216,140600,1,0,0:0:0:0:
241,196,140675,1,8,0:0:0:0:
241,196,140750,1,0,0:0:0:0:
241,196,140825,1,8,0:0:0:0:
241,196,140975,1,8,0:0:0:0:
241,196,141050,1,8,0:0:0:0:
241,196,141125,1,0,0:0:0:0:
240,208,141200,1,0,0:0:0:0:
238,197,141275,1,8,0:0:0:0:
242,196,141425,1,0,0:0:0:0:
232,184,141575,1,8,0:0:0:0:
232,184,141650,1,8,0:0:0:0:
232,184,141725,1,0,0:0:0:0:
237,184,141800,1,8,0:0:0:0:
238,184,141875,1,0,0:0:0:0:
239,184,141950,1,0,0:0:0:0:
239,184,142025,1,8,0:0:0:0:
239,184,142100,1,8,0:0:0:0:
240,184,142175,1,0,0:0:0:0:
240,184,142250,1,8,0:0:0:0:
248,191,142400,1,0,0:0:0:0:
248,191,142475,1,8,0:0:0:0:
248,191,142550,1,8,0:0:0:0:
249,191,142625,1,0,0:0:0:0:
249,191,142700,1,8,0:0:0:0:
251,186,142775,5,0,0:0:0:0:
256,190,142887,1,8,0:0:0:0:
251,186,142943,1,8,0:0:0:0:
251,186,143000,1,0,0:0:0:0:
243,182,143075,1,0,0:0:0:0:
271,187,143225,1,8,0:0:0:0:
262,181,143300,1,0,0:0:0:0:
251,186,143375,1,8,0:0:0:0:
261,176,143431,1,8,0:0:0:0:
227,181,143525,1,0,0:0:0:0:
258,199,143637,1,8,0:0:0:0:
251,186,143693,1,8,0:0:0:0:
251,186,143750,1,8,0:0:0:0:
270,180,143825,1,0,0:0:0:0:
264,186,143937,1,8,0:0:0:0:
272,199,143993,1,8,0:0:0:0:
261,187,144050,1,0,0:0:0:0:
261,187,144125,1,8,0:0:0:0:
261,187,144200,1,8,0:0:0:0:
261,187,144275,1,0,0:0:0:0:
261,187,144350,1,8,0:0:0:0:
261,187,144425,1,8,0:0:0:0:
261,187,144500,1,0,0:0:0:0:
259,184,144575,1,8,0:0:0:0:
259,184,144675,1,0,0:0:0:0:
259,184,144775,1,0,0:0:0:0:
264,178,144875,1,8,0:0:0:0:
264,178,144975,1,0,0:0:0:0:
264,178,145075,1,0,0:0:0:0:
264,178,145175,5,0,0:0:0:0:
261,190,145287,1,8,0:0:0:0:
259,184,145343,1,8,0:0:0:0:
259,184,145400,1,0,0:0:0:0:
262,183,145475,1,8,0:0:0:0:
263,178,145550,1,0,0:0:0:0:
259,184,145700,1,8,0:0:0:0:
258,184,145850,1,8,0:0:0:0:
258,184,146000,1,0,0:0:0:0:
262,185,146112,1,8,0:0:0:0:
281,180,146225,1,0,0:0:0:0:
272,188,146337,1,8,0:0:0:0:
278,201,146412,1,0,0:0:0:0:
269,204,146506,1,0,0:0:0:0:
275,208,146581,1,8,0:0:0:0:
274,195,146675,1,0,0:0:0:0:
270,199,146750,1,8,0:0:0:0:
270,194,146825,1,0,0:0:0:0:
270,194,146900,1,8,0:0:0:0:
270,194,146975,1,8,0:0:0:0:
270,191,147050,1,8,0:0:0:0:
270,191,147125,1,0,0:0:0:0:
274,200,147237,1,8,0:0:0:0:
284,182,147350,1,0,0:0:0:0:
281,196,147425,1,8,0:0:0:0:
285,193,147481,1,8,0:0:0:0:
284,192,147575,5,0,0:0:0:0:
302,229,147687,1,8,0:0:0:0:
300,216,147743,1,0,0:0:0:0:
276,201,147800,1,8,0:0:0:0:
302,193,147875,1,8,0:0:0:0:
286,205,147950,1,0,0:0:0:0:
291,208,148100,1,8,0:0:0:0:
272,206,148250,1,8,0:0:0:0:
276,204,148362,1,0,0:0:0:0:
294,208,148437,1,0,0:0:0:0:
281,195,148550,1,8,0:0:0:0:
280,195,148700,1,0,0:0:0:0:
280,195,148775,1,8,0:0:0:0:
279,202,148900,1,0,0:0:0:0:
279,202,148981,1,8,0:0:0:0:
281,209,149056,1,0,0:0:0:0:
268,198,149093,1,0,0:0:0:0:
268,198,149187,1,0,0:0:0:0:
268,200,149225,1,0,0:0:0:0:
265,198,149318,1,8,0:0:0:0:
240,193,149375,1,8,0:0:0:0:
292,187,149450,1,0,0:0:0:0:
284,185,149525,1,8,0:0:0:0:
258,172,149600,1,0,0:0:0:0:
290,213,149675,1,8,0:0:0:0:
294,194,149775,1,0,0:0:0:0:
294,193,149875,1,8,0:0:0:0:
294,193,149975,5,0,0:0:0:0:
255,187,150087,1,8,0:0:0:0:
255,187,150143,1,8,0:0:0:0:
255,187,150200,1,0,0:0:0:0:
251,195,150275,1,8,0:0:0:0:
260,191,150350,1,0,0:0:0:0:
255,192,150500,1,8,0:0:0:0:
255,192,150575,1,0,0:0:0:0:
251,191,150650,1,8,0:0:0:0:
249,194,150800,1,0,0:0:0:0:
285,205,150912,1,8,0:0:0:0:
201,190,150987,1,0,0:0:0:0:
232,192,151025,1,0,0:0:0:0:
255,187,151100,1,8,0:0:0:0:
257,188,151175,1,0,0:0:0:0:
241,195,151325,1,8,0:0:0:0:
242,195,151475,1,8,0:0:0:0:
235,201,151550,1,0,0:0:0:0:
238,201,151625,1,8,0:0:0:0:
248,203,151700,1,8,0:0:0:0:
230,186,151775,1,0,0:0:0:0:
257,196,151875,1,8,0:0:0:0:
257,196,151925,1,0,0:0:0:0:
221,190,152037,1,8,0:0:0:0:
258,187,152150,1,8,0:0:0:0:
237,179,152262,1,8,0:0:0:0:
220,176,152375,5,0,0:0:0:0:
244,201,152487,1,8,0:0:0:0:
249,191,152543,1,0,0:0:0:0:
249,191,152600,1,8,0:0:0:0:
233,180,152675,1,8,0:0:0:0:
243,202,152750,1,0,0:0:0:0:
221,190,152900,1,8,0:0:0:0:
217,192,153050,1,0,0:0:0:0:
217,192,153125,1,8,0:0:0:0:
217,192,153200,1,0,0:0:0:0:
225,201,153312,1,8,0:0:0:0:
231,198,153425,1,0,0:0:0:0:
216,196,153537,1,8,0:0:0:0:
216,196,153612,1,0,0:0:0:0:
228,195,153706,1,8,0:0:0:0:
222,199,153781,1,8,0:0:0:0:
255,190,153875,1,0,0:0:0:0:
247,185,153912,1,8,0:0:0:0:
195,188,154025,1,0,0:0:0:0:
226,181,154100,1,8,0:0:0:0:
222,190,154175,1,8,0:0:0:0:
222,190,154287,1,0,0:0:0:0:
238,193,154381,1,0,0:0:0:0:
246,191,154475,1,8,0:0:0:0:
246,191,154575,1,0,0:0:0:0:
246,191,154643,1,8,0:0:0:0:
221,176,154718,1,0,0:0:0:0:
229,186,154775,5,0,0:0:0:0:
251,198,154887,1,8,0:0:0:0:
251,198,154943,1,8,0:0:0:0:
232,188,155000,1,0,0:0:0:0:
232,187,155075,1,8,0:0:0:0:
232,192,155150,1,0,0:0:0:0:
238,193,155300,1,8,0:0:0:0:
241,196,155425,1,0,0:0:0:0:
241,196,155475,1,0,0:0:0:0:
241,196,155525,1,8,0:0:0:0:
246,191,155600,1,0,0:0:0:0:
246,193,155712,1,8,0:0:0:0:
241,182,155825,1,8,0:0:0:0:
241,182,155937,1,0,0:0:0:0:
241,182,156012,1,0,0:0:0:0:
241,185,156106,1,8,0:0:0:0:
246,178,156181,1,8,0:0:0:0:
247,183,156275,1,0,0:0:0:0:
247,182,156350,1,8,0:0:0:0:
244,188,156425,1,0,0:0:0:0:
244,181,156500,1,8,0:0:0:0:
244,181,156575,1,8,0:0:0:0:
232,181,156650,1,8,0:0:0:0:
251,177,156725,1,0,0:0:0:0:
233,179,156837,1,8,0:0:0:0:
245,175,156950,1,0,0:0:0:0:
245,175,157062,1,8,0:0:0:0:
245,175,157175,5,0,0:0:0:0:
243,185,157287,1,8,0:0:0:0:
244,188,157343,1,0,0:0:0:0:
244,181,157400,1,8,0:0:0:0:
254,185,157475,1,8,0:0:0:0:
254,185,157550,1,0,0:0:0:0:
253,195,157700,1,8,0:0:0:0:
254,188,157850,1,0,0:0:0:0:
254,188,157925,1,8,0:0:0:0:
254,188,158000,1,0,0:0:0:0:
244,191,158112,1,8,0:0:0:0:
250,185,158225,1,0,0:0:0:0:
250,185,158337,1,8,0:0:0:0:
254,185,158412,1,0,0:0:0:0:
249,188,158506,1,8,0:0:0:0:
247,194,158581,1,8,0:0:0:0:
247,193,158675,1,0,0:0:0:0:
238,196,158712,1,8,0:0:0:0:
203,184,158825,1,0,0:0:0:0:
222,203,158900,1,8,0:0:0:0:
236,209,158975,1,0,0:0:0:0:
243,213,159012,1,0,0:0:0:0:
175,176,159050,1,8,0:0:0:0:
216,197,159125,1,8,0:0:0:0:
242,216,159200,1,0,0:0:0:0:
226,194,159275,1,8,0:0:0:0:
224,214,159350,1,0,0:0:0:0:
224,209,159425,1,0,0:0:0:0:
224,209,159500,1,8,0:0:0:0:
224,209,159575,5,0,0:0:0:0:
242,205,159687,1,8,0:0:0:0:
242,205,159743,1,8,0:0:0:0:
242,205,159800,1,0,0:0:0:0:
236,209,159875,1,8,0:0:0:0:
236,204,159950,1,0,0:0:0:0:
222,204,160100,1,8,0:0:0:0:
233,208,160250,1,0,0:0:0:0:
233,208,160325,1,8,0:0:0:0:
233,208,160400,1,0,0:0:0:0:
235,198,160512,1,8,0:0:0:0:
236,209,160625,1,0,0:0:0:0:
235,207,160737,1,8,0:0:0:0:
236,209,160812,1,0,0:0:0:0:
236,204,160906,1,0,0:0:0:0:
236,207,160981,1,8,0:0:0:0:
233,208,161075,1,0,0:0:0:0:
233,208,161150,1,8,0:0:0:0:
233,208,161225,1,0,0:0:0:0:
233,208,161300,1,0,0:0:0:0:
236,207,161375,1,8,0:0:0:0:
236,209,161525,1,0,0:0:0:0:
235,207,161637,1,8,0:0:0:0:
236,209,161750,1,8,0:0:0:0:
231,209,161862,1,0,0:0:0:0:
212,210,161900,1,8,0:0:0:0:
216,209,161975,5,0,0:0:0:0:
228,212,162087,1,8,0:0:0:0:
228,212,162143,1,0,0:0:0:0:
228,212,162200,1,8,0:0:0:0:
228,212,162275,1,8,0:0:0:0:
226,212,162350,1,0,0:0:0:0:
227,208,162500,1,8,0:0:0:0:
231,213,162650,1,8,0:0:0:0:
231,213,162725,1,8,0:0:0:0:
240,212,162800,1,0,0:0:0:0:
243,208,162912,1,0,0:0:0:0:
246,209,163025,1,8,0:0:0:0:
226,182,164375,5,4,0:0:0:0:
240,200,164675,1,4,0:0:0:0:
232,160,164975,1,8,0:0:0:0:
232,192,165125,1,4,0:0:0:0:
232,200,165425,1,4,0:0:0:0:
211,186,165575,1,0,0:0:0:0:
248,200,165725,1,8,0:0:0:0:
248,208,165875,1,0,0:0:0:0:
248,208,165950,1,8,0:0:0:0:
248,208,166025,1,0,0:0:0:0:
248,208,166100,1,0,0:0:0:0:
248,208,166175,1,8,0:0:0:0:
248,208,166250,1,8,0:0:0:0:
248,208,166325,1,0,0:0:0:0:
248,208,166400,1,0,0:0:0:0:
248,208,166475,1,8,0:0:0:0:
248,208,166625,1,8,0:0:0:0:
248,208,166775,1,4,0:0:0:0:
272,208,167075,1,4,0:0:0:0:
256,196,167225,1,0,0:0:0:0:
272,200,167375,1,8,0:0:0:0:
272,200,167450,1,8,0:0:0:0:
272,200,167525,1,0,0:0:0:0:
285,212,167600,1,0,0:0:0:0:
272,200,167675,1,8,0:0:0:0:
272,208,167825,1,0,0:0:0:0:
272,200,167975,1,8,0:0:0:0:
256,200,168125,1,8,0:0:0:0:
280,224,168200,1,8,0:0:0:0:
264,208,168275,1,0,0:0:0:0:
280,200,168425,1,8,0:0:0:0:
280,200,168575,5,4,0:0:0:0:
288,208,168725,1,8,0:0:0:0:
288,208,168875,1,0,0:0:0:0:
288,208,168950,1,0,0:0:0:0:
288,208,169025,1,8,0:0:0:0:
288,208,169175,1,4,0:0:0:0:
272,200,169325,1,8,0:0:0:0:
272,208,169475,1,4,0:0:0:0:
288,208,169625,1,8,0:0:0:0:
288,208,169700,1,0,0:0:0:0:
288,208,169775,1,0,0:0:0:0:
280,208,169850,1,0,0:0:0:0:
288,208,169925,1,8,0:0:0:0:
280,208,170075,1,0,0:0:0:0:
288,208,170225,1,8,0:0:0:0:
288,208,170300,1,8,0:0:0:0:
288,208,170375,1,0,0:0:0:0:
288,208,170525,1,8,0:0:0:0:
288,200,170600,1,8,0:0:0:0:
288,200,170675,1,0,0:0:0:0:
292,198,170712,1,0,0:0:0:0:
288,200,170750,1,0,0:0:0:0:
288,200,170825,1,8,0:0:0:0:
288,200,170975,1,4,0:0:0:0:
288,192,171125,1,8,0:0:0:0:
288,200,171275,1,4,0:0:0:0:
296,200,171425,1,8,0:0:0:0:
288,200,171725,1,8,0:0:0:0:
288,200,171800,1,0,0:0:0:0:
288,200,171875,1,0,0:0:0:0:
278,199,171950,1,0,0:0:0:0:
288,200,172025,1,8,0:0:0:0:
288,200,172175,1,0,0:0:0:0:
278,198,172250,1,8,0:0:0:0:
288,200,172325,1,0,0:0:0:0:
288,200,172475,1,0,0:0:0:0:
288,200,172550,1,8,0:0:0:0:
288,200,172625,1,8,0:0:0:0:
288,200,172775,5,4,0:0:0:0:
280,208,173075,1,4,0:0:0:0:
296,216,173375,1,8,0:0:0:0:
299,214,173525,1,4,0:0:0:0:
299,214,173825,1,4,0:0:0:0:
301,226,174125,1,0,0:0:0:0:
301,226,174200,1,0,0:0:0:0:
301,226,174275,1,8,0:0:0:0:
301,226,174425,1,0,0:0:0:0:
323,242,174575,1,8,0:0:0:0:
323,242,174650,1,0,0:0:0:0:
323,242,174725,1,8,0:0:0:0:
312,232,174800,1,8,0:0:0:0:
323,242,174875,1,0,0:0:0:0:
308,238,174950,1,0,0:0:0:0:
308,238,175025,1,8,0:0:0:0:
328,241,175175,1,4,0:0:0:0:
326,248,175475,1,4,0:0:0:0:
324,235,175625,1,0,0:0:0:0:
312,245,175775,1,8,0:0:0:0:
312,245,175850,1,8,0:0:0:0:
312,245,175925,1,0,0:0:0:0:
302,229,176000,1,0,0:0:0:0:
308,238,176075,1,8,0:0:0:0:
308,238,176225,1,8,0:0:0:0:
312,224,176375,1,0,0:0:0:0:
312,224,176525,1,0,0:0:0:0:
312,223,176675,1,8,0:0:0:0:
312,223,176750,1,0,0:0:0:0:
312,223,176825,1,8,0:0:0:0:
312,223,176975,5,4,0:0:0:0:
312,223,177125,1,8,0:0:0:0:
312,224,177275,1,4,0:0:0:0:
312,232,177425,1,8,0:0:0:0:
312,232,177575,1,8,0:0:0:0:
312,232,177725,1,4,0:0:0:0:
303,238,178025,1,4,0:0:0:0:
253,181,178325,1,8,0:0:0:0:
232,194,178400,1,8,0:0:0:0:
253,181,178475,1,0,0:0:0:0:
253,181,178625,1,8,0:0:0:0:
253,181,178700,1,0,0:0:0:0:
253,181,178775,1,8,0:0:0:0:
264,205,178850,1,8,0:0:0:0:
291,174,178925,1,0,0:0:0:0:
281,211,179000,1,0,0:0:0:0:
253,181,179075,1,8,0:0:0:0:
299,224,179225,1,8,0:0:0:0:
246,216,179375,1,4,0:0:0:0:
264,215,179525,1,0,0:0:0:0:
255,207,179675,1,8,0:0:0:0:
267,219,179825,1,0,0:0:0:0:
267,219,179900,1,0,0:0:0:0:
258,219,179975,1,8,0:0:0:0:
258,219,180125,1,0,0:0:0:0:
258,219,180200,1,8,0:0:0:0:
258,219,180275,1,0,0:0:0:0:
258,219,180350,1,8,0:0:0:0:
258,219,180425,1,8,0:0:0:0:
258,219,180500,1,8,0:0:0:0:
258,219,180575,1,0,0:0:0:0:
255,229,180725,1,8,0:0:0:0:
255,229,180800,1,8,0:0:0:0:
255,229,180875,1,0,0:0:0:0:
255,229,180950,1,8,0:0:0:0:
255,229,181025,1,8,0:0:0:0:
255,229,181175,5,4,0:0:0:0:
254,235,181325,1,0,0:0:0:0:
257,246,181475,1,8,0:0:0:0:
278,243,181625,1,0,0:0:0:0:
265,241,181775,1,8,0:0:0:0:
265,241,181925,1,0,0:0:0:0:
265,241,182000,1,8,0:0:0:0:
265,241,182075,1,0,0:0:0:0:
262,235,182225,1,8,0:0:0:0:
262,235,182375,1,4,0:0:0:0:
263,219,182525,1,4,0:0:0:0:
263,219,182675,1,4,0:0:0:0:
262,219,182825,1,8,0:0:0:0:
268,228,182900,1,0,0:0:0:0:
268,228,182975,1,8,0:0:0:0:
268,228,183050,1,8,0:0:0:0:
268,228,183125,1,0,0:0:0:0:
262,226,183200,1,0,0:0:0:0:
262,226,183275,1,8,0:0:0:0:
259,225,183350,1,0,0:0:0:0:
259,225,183425,1,8,0:0:0:0:
259,225,183575,1,4,0:0:0:0:
263,226,183725,1,8,0:0:0:0:
238,204,183800,1,0,0:0:0:0:
263,226,183875,1,8,0:0:0:0:
263,223,184025,1,0,0:0:0:0:
262,226,184175,1,8,0:0:0:0:
269,229,184325,1,0,0:0:0:0:
269,229,184475,1,8,0:0:0:0:
262,178,184625,1,8,0:0:0:0:
274,218,184775,1,4,0:0:0:0:
274,218,184925,1,4,0:0:0:0:
274,218,185075,1,4,0:0:0:0:
261,211,185225,1,8,0:0:0:0:
260,211,185300,1,8,0:0:0:0:
260,211,185375,5,0,0:0:0:0:
260,211,185525,1,8,0:0:0:0:
260,211,185675,1,0,0:0:0:0:
260,211,185825,1,8,0:0:0:0:
260,211,185975,1,8,0:0:0:0:
261,211,186125,1,8,0:0:0:0:
260,211,186275,1,0,0:0:0:0:
260,211,186425,1,8,0:0:0:0:
260,211,186575,1,0,0:0:0:0:
260,211,186725,1,0,0:0:0:0:
260,211,186875,1,8,0:0:0:0:
260,211,186950,1,8,0:0:0:0:
261,211,187025,1,0,0:0:0:0:
261,211,187100,1,0,0:0:0:0:
260,211,187175,1,8,0:0:0:0:
260,211,187250,1,0,0:0:0:0:
260,211,187325,1,0,0:0:0:0:
260,211,187400,1,8,0:0:0:0:
260,211,187475,1,0,0:0:0:0:
260,211,187550,1,0,0:0:0:0:
260,211,187625,1,8,0:0:0:0:
260,211,187775,1,0,0:0:0:0:
239,208,187925,1,0,0:0:0:0:
239,208,188075,1,8,0:0:0:0:
233,213,188225,1,0,0:0:0:0:
260,211,188375,1,8,0:0:0:0:
256,219,188525,1,0,0:0:0:0:
256,219,188600,1,8,0:0:0:0:
256,219,188675,1,0,0:0:0:0:
256,219,188750,1,8,0:0:0:0:
256,219,188825,1,0,0:0:0:0:
256,219,188900,1,8,0:0:0:0:
256,219,188975,1,0,0:0:0:0:
256,219,189125,1,8,0:0:0:0:
256,219,189200,1,0,0:0:0:0:
256,219,189275,1,8,0:0:0:0:
256,219,189350,1,8,0:0:0:0:
256,219,189425,1,0,0:0:0:0:
256,219,189500,1,8,0:0:0:0:
256,219,189575,5,0,0:0:0:0:
256,219,189725,1,0,0:0:0:0:
256,219,189875,1,8,0:0:0:0:
256,219,190025,1,0,0:0:0:0:
256,219,190175,1,8,0:0:0:0:
256,219,190325,1,0,0:0:0:0:
266,233,190475,1,0,0:0:0:0:
266,233,190625,1,8,0:0:0:0:
266,233,190775,1,0,0:0:0:0:
266,233,190925,1,0,0:0:0:0:
266,233,191075,1,8,0:0:0:0:
266,233,191150,1,8,0:0:0:0:
266,233,191225,1,0,0:0:0:0:
266,233,191300,1,8,0:0:0:0:
266,233,191375,1,8,0:0:0:0:
266,233,191450,1,0,0:0:0:0:
266,233,191525,1,0,0:0:0:0:
266,233,191600,1,8,0:0:0:0:
266,233,191675,1,0,0:0:0:0:
266,233,191750,1,0,0:0:0:0:
266,233,191825,1,8,0:0:0:0:
266,233,191975,1,0,0:0:0:0:
280,238,192125,1,0,0:0:0:0:
280,238,192275,1,8,0:0:0:0:
280,238,192425,1,0,0:0:0:0:
280,238,192575,1,8,0:0:0:0:
280,238,192725,1,8,0:0:0:0:
280,238,192875,1,0,0:0:0:0:
280,238,193025,1,8,0:0:0:0:
280,238,193175,1,0,0:0:0:0:
280,238,193325,1,0,0:0:0:0:
280,238,193475,1,8,0:0:0:0:
280,238,193550,1,8,0:0:0:0:
280,238,193625,1,0,0:0:0:0:
280,238,193700,1,8,0:0:0:0:
280,238,193775,5,0,0:0:0:0:
283,225,193925,1,0,0:0:0:0:
283,225,194075,1,8,0:0:0:0:
283,225,194225,1,0,0:0:0:0:
283,225,194375,1,8,0:0:0:0:
283,225,194525,1,8,0:0:0:0:
283,225,194675,1,0,0:0:0:0:
283,225,194825,1,8,0:0:0:0:
283,225,194975,1,0,0:0:0:0:
283,225,195125,1,0,0:0:0:0:
283,225,195275,1,8,0:0:0:0:
283,225,195350,1,8,0:0:0:0:
283,225,195425,1,0,0:0:0:0:
283,225,195500,1,0,0:0:0:0:
283,225,195575,1,8,0:0:0:0:
283,225,195650,1,0,0:0:0:0:
283,225,195725,1,8,0:0:0:0:
283,225,195800,1,0,0:0:0:0:
283,225,195875,1,0,0:0:0:0:
283,225,195950,1,0,0:0:0:0:
283,225,196025,1,8,0:0:0:0:
283,225,196175,1,0,0:0:0:0:
283,225,196325,1,0,0:0:0:0:
283,225,196475,1,0,0:0:0:0:
283,225,196625,1,12,0:0:0:0:
283,225,196925,1,0,0:0:0:0:
283,225,197000,1,8,0:0:0:0:
283,225,197075,1,0,0:0:0:0:
283,225,197150,1,8,0:0:0:0:
283,225,197225,1,8,0:0:0:0:
283,225,197300,1,8,0:0:0:0:
283,225,197375,1,0,0:0:0:0:
283,225,197525,1,8,0:0:0:0:
283,225,197600,1,0,0:0:0:0:
283,225,197675,1,8,0:0:0:0:
283,225,197750,1,8,0:0:0:0:
283,225,197825,1,0,0:0:0:0:
283,225,197900,1,8,0:0:0:0:
292,231,198575,5,4,0:0:0:0:
307,227,198725,1,0,0:0:0:0:
307,227,198875,1,8,0:0:0:0:
294,225,199025,1,0,0:0:0:0:
294,225,199175,1,8,0:0:0:0:
294,225,199325,1,8,0:0:0:0:
294,225,199475,1,0,0:0:0:0:
294,225,199625,1,8,0:0:0:0:
294,225,199775,1,0,0:0:0:0:
294,225,199925,1,0,0:0:0:0:
294,225,200075,1,8,0:0:0:0:
294,225,200150,1,8,0:0:0:0:
294,225,200225,1,0,0:0:0:0:
294,225,200300,1,0,0:0:0:0:
294,225,200375,1,8,0:0:0:0:
294,225,200450,1,0,0:0:0:0:
294,225,200525,1,8,0:0:0:0:
294,225,200600,1,8,0:0:0:0:
294,225,200675,1,0,0:0:0:0:
294,225,200750,1,0,0:0:0:0:
294,225,200825,1,8,0:0:0:0:
294,225,200975,1,0,0:0:0:0:
294,225,201125,1,0,0:0:0:0:
294,225,201275,1,8,0:0:0:0:
294,225,201425,1,0,0:0:0:0:
294,225,201575,1,8,0:0:0:0:
294,225,201725,1,0,0:0:0:0:
294,225,201875,1,8,0:0:0:0:
294,225,202025,1,8,0:0:0:0:
294,225,202175,1,0,0:0:0:0:
294,225,202325,1,0,0:0:0:0:
294,225,202475,1,8,0:0:0:0:
294,225,202550,1,0,0:0:0:0:
294,225,202625,1,0,0:0:0:0:
294,225,202700,1,8,0:0:0:0:
294,225,202775,5,0,0:0:0:0:
294,225,202925,1,0,0:0:0:0:
294,225,203075,1,8,0:0:0:0:
294,225,203225,1,0,0:0:0:0:
294,225,203375,1,8,0:0:0:0:
294,225,203525,1,8,0:0:0:0:
294,225,203675,1,0,0:0:0:0:
294,225,203825,1,8,0:0:0:0:
294,225,203975,1,0,0:0:0:0:
294,225,204125,1,0,0:0:0:0:
294,225,204275,1,8,0:0:0:0:
294,225,204350,1,8,0:0:0:0:
294,225,204425,1,0,0:0:0:0:
294,225,204500,1,8,0:0:0:0:
294,225,204575,1,8,0:0:0:0:
294,225,204650,1,0,0:0:0:0:
294,225,204725,1,8,0:0:0:0:
294,225,204800,1,0,0:0:0:0:
294,225,204875,1,0,0:0:0:0:
294,225,204950,1,0,0:0:0:0:
294,225,205025,1,8,0:0:0:0:
294,225,205175,1,0,0:0:0:0:
294,225,205325,1,8,0:0:0:0:
294,225,205475,1,8,0:0:0:0:
294,225,205625,1,0,0:0:0:0:
294,225,205775,1,8,0:0:0:0:
294,225,205925,1,0,0:0:0:0:
304,227,206000,1,8,0:0:0:0:
294,225,206075,1,0,0:0:0:0:
304,227,206150,1,8,0:0:0:0:
304,227,206225,1,0,0:0:0:0:
304,227,206300,1,8,0:0:0:0:
304,227,206375,1,0,0:0:0:0:
304,227,206525,1,8,0:0:0:0:
304,227,206600,1,0,0:0:0:0:
304,227,206675,1,8,0:0:0:0:
304,227,206750,1,8,0:0:0:0:
304,227,206825,1,0,0:0:0:0:
304,227,206900,1,8,0:0:0:0:
304,227,206975,5,0,0:0:0:0:
307,220,207125,1,0,0:0:0:0:
305,220,207275,1,8,0:0:0:0:
305,219,207425,1,0,0:0:0:0:
305,219,207575,1,8,0:0:0:0:
305,219,207725,1,0,0:0:0:0:
305,219,207875,1,0,0:0:0:0:
307,220,208025,1,8,0:0:0:0:
305,220,208175,1,0,0:0:0:0:
305,219,208325,1,0,0:0:0:0:
305,219,208475,1,8,0:0:0:0:
305,219,208550,1,8,0:0:0:0:
305,219,208625,1,0,0:0:0:0:
305,219,208700,1,0,0:0:0:0:
305,219,208775,1,8,0:0:0:0:
307,220,208850,1,0,0:0:0:0:
307,220,208925,1,0,0:0:0:0:
305,220,209000,1,8,0:0:0:0:
305,220,209075,1,0,0:0:0:0:
305,220,209150,1,0,0:0:0:0:
310,232,209225,1,8,0:0:0:0:
310,232,209300,1,8,0:0:0:0:
310,232,209375,1,0,0:0:0:0:
303,233,209525,1,0,0:0:0:0:
303,233,209675,1,8,0:0:0:0:
303,233,209825,1,0,0:0:0:0:
303,233,209975,1,8,0:0:0:0:
303,233,210125,1,8,0:0:0:0:
303,233,210275,1,0,0:0:0:0:
303,233,210425,1,8,0:0:0:0:
316,244,210575,1,0,0:0:0:0:
316,244,210650,1,8,0:0:0:0:
316,244,210725,1,0,0:0:0:0:
316,244,210800,1,0,0:0:0:0:
316,244,210875,1,8,0:0:0:0:
316,244,210950,1,0,0:0:0:0:
316,244,211025,1,8,0:0:0:0:
316,244,211100,1,8,0:0:0:0:
316,244,211175,5,0,0:0:0:0:
298,230,211325,1,0,0:0:0:0:
298,230,211475,1,8,0:0:0:0:
298,230,211625,1,0,0:0:0:0:
298,230,211775,1,8,0:0:0:0:
298,230,211925,1,8,0:0:0:0:
298,230,212075,1,0,0:0:0:0:
298,230,212225,1,8,0:0:0:0:
