osu file format v14

[General]
AudioFilename: audio.mp3
AudioLeadIn: 0
PreviewTime: 3276
Countdown: 0
SampleSet: Normal
StackLeniency: 0.2
Mode: 0
LetterboxInBreaks: 0
WidescreenStoryboard: 1

[Editor]
DistanceSpacing: 1.4
BeatDivisor: 16
GridSize: 4
TimelineZoom: 1.4

[Metadata]
Title:Behemon (Pokemon X Svdden Death)
TitleUnicode:Behemon (Pokemon X Svdden Death)
Artist:Svdden Death
ArtistUnicode:Svdden Death
Creator:Mister
Version:Shake the body
Source:
Tags:pokemon, trap, dubstep
BeatmapID:2118069
BeatmapSetID:1011993

[Difficulty]
HPDrainRate:5
CircleSize:4.5
OverallDifficulty:7
ApproachRate:9.4
SliderMultiplier:1.4
SliderTickRate:1

[Events]
//Background and Video events
0,0,"bg.jpg",0,0
//Break Periods
//Storyboard Layer 0 (Background)
//Storyboard Layer 1 (Fail)
//Storyboard Layer 2 (Pass)
//Storyboard Layer 3 (Foreground)
//Storyboard Sound Samples

[TimingPoints]
62,428.571428571429,4,1,0,40,1,0
7133,-50,4,1,0,40,0,0
10347,-33.3333333333333,4,1,0,40,0,1
10562,-33.3333333333333,4,1,0,40,0,0
17204,-28.5714285714286,4,1,0,40,0,1
17419,-28.5714285714286,4,1,0,40,0,0
24062,-28.5714285714286,4,1,0,40,0,1
24276,-28.5714285714286,4,1,0,40,0,0
24704,-100,4,1,0,40,0,0
24919,-28.5714285714286,4,1,0,40,0,0
30704,-33.3333333333333,4,1,0,40,0,0
30919,-25,4,1,0,40,0,1
31133,-25,4,1,0,40,0,0
31562,-100,4,1,0,40,0,0
31776,-25,4,1,0,40,0,0
32419,-100,4,1,0,40,0,0
32633,-25,4,1,0,40,0,0
34133,-100,4,1,0,40,0,0
34347,-25,4,1,0,40,0,0
37294,-100,4,1,0,40,0,0
37776,-44.4444444444445,4,1,0,40,0,0

[Colours]
Combo1 : 189,62,62
Combo2 : 205,148,29

[HitObjects]
0,0,62,5,0,0:0:0:0:
67,18,276,1,0,0:0:0:0:
134,36,490,1,0,0:0:0:0:
201,18,704,1,0,0:0:0:0:
268,36,919,1,0,0:0:0:0:
335,54,1133,1,0,0:0:0:0:
402,72,1347,1,0,0:0:0:0:
469,90,1562,1,0,0:0:0:0:
487,157,1776,1,0,0:0:0:0:
487,157,2204,2,0,L|481:197,1,35
434,246,2419,2,0,L|439:280,1,35
399,340,2633,1,0,0:0:0:0:
399,340,3490,5,0,0:0:0:0:
330,269,3704,1,0,0:0:0:0:
331,170,3919,1,0,0:0:0:0:
223,223,4347,1,0,0:0:0:0:
233,124,4561,1,0,0:0:0:0:
309,61,4776,1,0,0:0:0:0:
193,322,5204,1,0,0:0:0:0:
124,251,5418,1,0,0:0:0:0:
125,152,5633,1,0,0:0:0:0:
125,152,6062,1,0,0:0:0:0:
124,251,6277,1,0,0:0:0:0:
193,322,6491,1,0,0:0:0:0:
193,322,6919,5,0,0:0:0:0:
262,251,7133,2,0,L|272:292,1,35
261,152,7347,2,0,L|297:173,1,35
390,209,7776,6,0,L|403:248,1,35
379,110,7990,2,0,L|416:128,1,35
303,47,8204,2,0,L|342:33,1,35
303,47,8419,1,0,0:0:0:0:
128,92,8633,6,0,L|90:110,1,35
204,29,8847,2,0,L|164:15,1,35
117,191,9061,2,0,L|103:230,1,35
128,92,9276,2,0,L|90:110,1,35
180,269,9490,2,0,L|198:306,1,35
180,269,9704,1,0,0:0:0:0:
280,280,9919,1,0,0:0:0:0:
280,280,10347,6,0,L|280:91,1,157.500006008148
284,52,10561,2,0,P|295:123|369:167,1,157.500006008148
380,170,10776,2,0,P|311:180|271:237,1,105.000004005432
286,360,11204,6,0,L|286:171,1,157.500006008148
282,132,11418,2,0,P|271:203|197:247,1,157.500006008148
186,250,11633,2,0,P|254:260|294:317,1,105.000004005432
443,202,12062,6,0,L|254:202,1,157.500006008148
212,194,12276,2,0,P|277:154|291:79,1,157.500006008148
291,79,12490,2,0,P|225:118|211:193,1,157.500006008148
216,256,12704,2,0,P|202:180|147:147,1,105.000004005432
26,162,12919,6,0,L|215:162,1,157.500006008148
264,163,13133,2,0,P|198:202|184:277,1,157.500006008148
206,327,13347,2,0,P|186:279|139:257,1,105.000004005432
140,99,13776,6,0,L|140:288,1,157.500006008148
135,327,13990,2,0,P|174:261|249:247,1,157.500006008148
331,264,14204,2,0,P|255:249|217:183,1,157.500006008148
226,170,14419,2,0,P|291:161|331:184,1,105.000004005432
324,335,14633,6,0,L|324:177,1,157.500006008148
319,110,14847,2,0,P|358:176|433:190,1,157.500006008148
432,190,15062,2,0,P|393:124|318:110,1,157.500006008148
258,144,15276,2,0,P|300:114|320:66,1,105.000004005432
477,66,15490,6,0,L|319:66,1,157.500006008148
242,59,15704,2,0,P|315:79|348:148,1,157.500006008148
336,185,15919,2,0,P|273:228|198:209,1,157.500006008148
195,261,16133,2,0,L|201:168,1,52.5000020027161
129,286,16240,2,0,L|199:224,1,52.5000020027161
66,306,16347,6,0,L|223:306,1,157.500006008148
313,288,16562,2,0,P|239:308|206:377,1,157.500006008148
206,377,16776,2,0,P|279:356|312:287,1,157.500006008148
382,177,16990,2,0,P|389:231|364:182,1,157.500006008148
376,101,17204,6,0,L|165:135,1,183.750001752377
101,128,17419,2,0,L|282:157,1,183.750001752377
267,275,17633,2,0,B|226:38|226:38|131:226,1,428.750004088879
114,282,18062,6,0,L|295:311,1,183.750001752377
368,328,18276,2,0,P|294:308|261:239,1,157.500006008148
308,137,18490,2,0,B|446:332|446:332|246:267,1,428.750004088879
176,244,18919,6,0,L|205:63,1,183.750001752377
135,0,19133,2,0,L|164:181,1,183.750001752377
258,196,19347,2,0,L|76:166,1,183.750001752377
19,225,19562,2,0,L|200:195,1,183.750001752377
324,172,19776,6,0,L|353:353,1,183.750001752377
228,377,19990,2,0,L|257:196,1,183.750001752377
281,102,20204,2,0,B|511:39|511:39|381:204,1,428.750004088879
318,248,20633,6,0,L|136:218,1,183.750001752377
30,261,20847,2,0,L|211:231,1,183.750001752377
271,173,21062,2,0,L|241:354,1,183.750001752377
237,384,21276,2,0,P|217:310|148:277,1,157.500006008148
30,261,21490,6,0,L|211:231,1,183.750001752377
291,257,21704,2,0,P|217:237|184:168,1,157.500006008148
172,94,21919,2,0,L|201:275,1,183.750001752377
135,335,22133,2,0,L|164:153,1,183.750001752377
48,49,22347,6,0,L|229:78,1,183.750001752377
353,64,22562,2,0,L|171:93,1,183.750001752377
85,141,22776,2,0,P|153:174|173:247,1,157.500006008148
157,307,22990,2,0,L|177:232,1,61.2500005841255
275,350,23097,2,0,L|236:282,1,61.2500005841255
373,365,23204,6,0,L|191:335,1,183.750001752377
157,307,23419,2,0,P|229:308|274:238,1,122.500001168251
285,189,23633,5,0,0:0:0:0:
285,189,23687,1,0,0:0:0:0:
373,365,23901,5,0,0:0:0:0:
457,173,24062,6,0,P|343:143|332:52,1,183.750001752377
332,6,24276,2,0,P|273:108|182:95,1,183.750001752377
138,83,24490,2,0,P|217:163|214:211,1,122.500001168251
192,247,24704,2,0,L|237:241,1,35
226,328,24919,6,0,P|158:231|69:251,1,183.750001752377
26,267,25133,2,0,P|102:177|58:96,1,183.750001752377
32,59,25347,2,0,P|138:109|181:86,1,122.500001168251
252,69,25669,1,0,0:0:0:0:
252,69,25776,6,0,P|308:136|396:127,1,183.750001752377
512,83,25990,2,0,P|455:150|367:141,1,183.750001752377
292,91,26204,2,0,P|283:178|352:234,1,183.750001752377
443,253,26419,2,0,P|386:320|298:311,1,183.750001752377
139,209,26633,6,0,P|205:223|234:274,1,122.500001168251
180,346,26847,2,0,P|113:331|85:281,1,122.500001168251
117,135,27062,2,0,P|183:149|212:200,1,122.500001168251
58,198,27383,1,0,0:0:0:0:
58,198,27490,6,0,P|35:112|102:50,1,183.750001752377
137,51,27704,2,0,P|198:113|175:197,1,183.750001752377
128,247,27919,2,0,P|212:223|274:285,1,183.750001752377
281,363,28133,2,0,P|304:287|350:260,1,122.500001168251
486,338,28347,6,0,P|435:257|330:240,1,183.750001752377
278,239,28562,2,0,P|364:213|409:136,1,183.750001752377
356,71,28776,2,0,P|269:96|224:173,1,183.750001752377
194,290,28990,2,0,P|163:214|105:183,1,122.500001168251
31,158,29204,6,0,P|117:180|196:137,1,183.750001752377
295,106,29419,2,0,P|208:128|129:85,1,183.750001752377
178,7,29633,2,0,P|220:85|198:172,1,183.750001752377
275,220,29847,2,0,P|246:248|194:265,1,61.2500005841255
186,328,29954,2,0,P|215:335|246:334,1,61.2500005841255
362,293,30062,6,0,P|384:206|341:127,1,183.750001752377
234,84,30276,2,0,P|320:106|399:63,1,183.750001752377
370,0,30490,2,0,L|380:194,1,183.750001752377
437,257,30704,2,0,P|491:265|441:241,1,157.500006008148
364,361,30919,6,0,L|199:224,1,210
284,81,31133,2,0,L|247:292,1,210
82,291,31347,2,0,L|235:234,1,140
336,196,31562,2,0,P|316:189|295:188,1,35
284,81,31776,6,0,L|247:292,1,210
82,291,31990,2,0,L|283:216,1,210
415,129,32204,2,0,L|271:76,1,140
185,166,32419,2,0,P|187:148|193:132,1,35
85,43,32633,6,0,L|121:254,1,210
250,320,32847,2,0,L|53:247,1,210
0,380,33062,2,0,L|196:307,1,210
315,232,33276,2,0,L|470:289,1,140
504,384,33490,6,0,L|468:177,1,210
478,15,33704,2,0,L|442:221,1,210
406,353,33919,2,0,L|266:236,1,140
269,110,34133,2,0,P|262:126|260:143,1,35
156,195,34347,6,0,L|352:122,1,210
404,3,34562,2,0,L|207:75,1,210
72,37,34776,2,0,L|268:109,1,210
234,224,34990,2,0,L|74:164,1,140
97,357,35204,6,0,L|293:284,1,210
370,139,35419,2,0,L|297:335,1,210
140,275,35633,2,0,L|336:347,1,210
425,291,35847,2,0,L|352:94,1,210
243,58,36062,6,0,P|259:126|260:62,1,210
127,75,36276,2,0,L|54:271,1,210
377,219,36490,2,0,L|242:57,1,210
127,363,36704,2,0,L|233:344,1,70
333,327,36812,2,0,L|222:346,1,70
122,341,36919,2,0,L|366:299,1,210
314,223,37133,2,0,L|107:258,1,210
54,197,37347,6,0,P|95:179|143:188,1,87.5
236,236,37776,6,0,B|455:216|453:-56|239:-124|94:-3|79:131|200:254|316:162|319:88|242:82|272:82,1,630.000024032594
