osu file format v14

[General]
AudioFilename: eds.mp3
AudioLeadIn: 0
PreviewTime: 67688
Countdown: 0
SampleSet: Soft
StackLeniency: 0.4
Mode: 0
LetterboxInBreaks: 0
WidescreenStoryboard: 1

[Editor]
Bookmarks: 25380,43841,68457,93072,105380,142303,148457,154611
DistanceSpacing: 1.1
BeatDivisor: 4
GridSize: 16
TimelineZoom: 0.5999998

[Metadata]
Title:forked road (Game Size)
TitleUnicode:forked road (Game Size)
Artist:Suzuyu
ArtistUnicode:鈴湯
Creator:Starlights
Version:Normal
Source:FLOWERS -le volume sur automne-
Tags:yuri Innocent Grey the of autumn MANYO
BeatmapID:1940098
BeatmapSetID:928713

[Difficulty]
HPDrainRate:4
CircleSize:3
OverallDifficulty:5
ApproachRate:5.5
SliderMultiplier:1.6
SliderTickRate:1

[Events]
//Background and Video events
0,0,"bg.jpg",0,0
//Break Periods
2,93272,104255
//Storyboard Layer 0 (Background)
//Storyboard Layer 1 (Fail)
//Storyboard Layer 2 (Pass)
//Storyboard Layer 3 (Foreground)
//Storyboard Layer 4 (Overlay)
//Storyboard Sound Samples

[TimingPoints]
765,769.230769230769,4,2,0,40,1,0
68457,-100,4,2,0,40,0,1
93072,-100,4,2,0,40,0,0

[Colours]
Combo1 : 92,100,114
Combo2 : 180,174,152

[HitObjects]
449,337,765,6,0,P|395:297|391:379,2,160
341,197,3072,1,0,0:0:0:0:
235,59,3841,2,0,L|213:253,2,160
235,59,6149,1,0,0:0:0:0:
59,67,6918,6,0,P|4:124|108:128,1,240
193,108,8457,2,0,P|150:220|34:256,1,240
68,341,9995,2,0,L|319:364,1,240
392,340,11534,2,0,P|368:254|393:172,1,160
458,27,13072,6,0,P|465:86|447:176,2,120
376,61,14611,2,0,P|313:73|231:64,1,120
133,25,15764,1,0,0:0:0:0:
133,25,16149,2,0,L|149:175,1,120
71,253,17303,1,0,0:0:0:0:
159,245,17688,2,0,L|175:395,2,120
233,197,19226,6,0,P|158:158|85:194,1,160
49,114,20380,1,0,0:0:0:0:
49,114,20764,2,0,P|198:83|290:141,1,240
340,64,22303,2,0,L|361:184,1,120
424,66,23457,1,0,0:0:0:0:
440,152,23841,2,0,L|468:315,1,160
304,241,25380,5,0,0:0:0:0:
384,275,25764,2,0,L|418:187,1,80
477,139,26534,2,0,L|308:91,1,160
331,185,27688,2,0,L|221:154,1,80
167,140,28457,1,0,0:0:0:0:
163,227,28841,2,0,L|159:306,2,80
171,51,30380,2,0,P|203:117|265:92,1,120
354,45,31534,6,0,L|360:169,1,120
359,164,32495,1,0,0:0:0:0:
366,251,32880,2,0,P|422:187|432:278,1,200
295,345,34611,2,0,P|257:278|264:201,1,120
268,149,35572,1,0,0:0:0:0:
255,61,35957,2,0,P|155:68|213:132,1,200
179,125,37688,5,0,0:0:0:0:
179,125,38072,1,0,0:0:0:0:
115,185,38457,2,0,L|73:54,2,120
194,222,39995,2,0,P|246:212|296:227,1,80
238,298,40764,1,0,0:0:0:0:
149,300,41149,2,0,P|105:319|43:318,2,80
270,172,42688,2,0,L|276:82,1,80
451,93,43841,6,0,L|443:237,1,120
438,300,44803,2,0,L|334:262,1,80
240,229,45764,2,0,L|246:109,1,120
158,207,46918,2,0,L|37:216,1,120
68,132,47880,2,0,L|171:125,1,80
191,125,48457,1,0,0:0:0:0:
278,118,48841,2,0,L|273:28,2,80
284,205,49995,5,0,0:0:0:0:
237,279,50380,2,0,P|323:282|372:199,1,160
404,149,51534,2,0,L|410:319,2,160
401,60,53457,1,0,0:0:0:0:
328,109,53841,2,0,L|214:101,1,80
197,30,54611,2,0,P|182:91|101:48,2,160
281,55,56534,2,0,P|256:128|169:179,1,160
102,178,57688,2,0,L|77:307,2,120
102,178,59226,5,0,0:0:0:0:
144,255,59611,2,0,P|233:257|320:310,1,160
363,343,60764,2,0,L|393:177,1,160
216,166,62303,2,0,P|280:155|326:97,2,120
147,110,63841,2,0,P|131:182|196:254,1,160
264,273,64995,2,0,L|355:246,1,80
290,178,65764,2,0,L|381:151,1,80
433,97,66534,1,0,0:0:0:0:
448,183,66918,2,0,L|430:358,1,160
303,220,68457,6,0,B|312:352,2,120
224,259,69995,2,0,P|157:284|75:266,1,120
147,153,71149,1,0,0:0:0:0:
134,65,71534,2,0,P|60:99|1:94,2,120
205,13,73072,2,0,L|375:36,1,160
450,49,74226,1,0,0:0:0:0:
393,116,74611,6,0,P|353:167|363:247,2,120
434,193,76149,2,0,L|274:140,1,160
199,113,77303,1,0,0:0:0:0:
146,183,77688,2,0,L|263:223,2,120
118,99,79226,2,0,P|61:159|80:246,1,160
222,316,80764,6,0,L|99:334,2,120
306,341,82303,2,0,P|298:265|320:206,1,120
390,118,83457,1,0,0:0:0:0:
467,76,83841,2,0,P|476:131|425:198,2,120
390,118,85380,2,0,L|228:144,1,160
219,230,86534,1,0,0:0:0:0:
295,272,86918,6,0,P|354:243|417:262,2,120
361,329,88457,2,0,L|343:168,1,160
333,82,89611,1,0,0:0:0:0:
265,137,89995,2,0,B|160:153|196:85|78:115,2,160
265,137,92303,1,0,0:0:0:0:
265,137,93072,1,0,0:0:0:0:
331,99,105380,6,0,P|315:205|385:138,1,240
458,217,106918,2,0,P|331:293|249:266,1,240
180,216,108457,2,0,L|168:356,2,120
189,132,109995,1,0,0:0:0:0:
189,132,110764,1,0,0:0:0:0:
26,63,111534,6,0,P|46:164|13:148,1,240
8,237,113072,2,0,P|114:199|247:215,1,240
322,240,114611,2,0,L|463:288,2,120
259,301,116149,1,0,0:0:0:0:
259,301,116918,1,0,0:0:0:0:
98,373,117688,6,0,P|171:318|73:298,1,240
11,358,119226,2,0,P|49:245|49:105,1,240
130,85,120764,2,0,L|-5:45,2,120
213,113,122303,1,0,0:0:0:0:
213,113,123072,1,0,0:0:0:0:
365,24,123841,6,0,P|358:134|271:237,1,240
220,166,125380,2,0,P|135:160|203:243,1,240
224,331,126918,2,0,P|364:337|490:379,1,240
486,281,128457,1,0,0:0:0:0:
354,164,129226,1,0,0:0:0:0:
354,164,129995,6,0,B|264:186|264:186|187:138|125:214,1,240
207,252,131534,2,0,P|72:267|60:156,1,240
87,111,133072,2,0,P|225:99|353:51,1,240
405,43,134611,2,0,P|443:109|373:124,1,160
256,192,136149,12,0,148457,0:0:0:0:
