osu file format v14

[General]
AudioFilename: audio.mp3
AudioLeadIn: 0
PreviewTime: 61480
Countdown: 0
SampleSet: Soft
StackLeniency: 0.7
Mode: 2
LetterboxInBreaks: 0
WidescreenStoryboard: 0

[Editor]
DistanceSpacing: 1.5
BeatDivisor: 4
GridSize: 8
TimelineZoom: 2.3

[Metadata]
Title:Syndetos
TitleUnicode:Syndetos
Artist:Suzuyu
ArtistUnicode:鈴湯
Creator:-Luminate
Version:Special Recipe
Source:ソフィーのアトリエ2 ~不思議な夢の錬金術士~
Tags:atelier sophie 2 Fushigi na Yume no Renkinjutsushi Alchemist of the Mysterious Dream video game japanese opening tatsuya yano 矢野 達也 tam yasushi asada 浅田 靖 takahiro umeda 梅田 貴博 koei tecmo gust ガスト folk
BeatmapID:3509905
BeatmapSetID:1717533

[Difficulty]
HPDrainRate:6
CircleSize:4.2
OverallDifficulty:9.4
ApproachRate:9.4
SliderMultiplier:1.9
SliderTickRate:2

[Events]
//Background and Video events
0,0,"bg.jpg",0,0
//Break Periods
2,200853,207659
//Storyboard Layer 0 (Background)
//Storyboard Layer 1 (Fail)
//Storyboard Layer 2 (Pass)
//Storyboard Layer 3 (Foreground)
//Storyboard Layer 4 (Overlay)
//Storyboard Sound Samples

[TimingPoints]
952,322.58064516129,3,2,4,60,1,0
1113,-100,3,2,1,60,0,0
7887,-100,3,2,1,40,0,0
16758,-100,3,2,2,55,0,0
23210,-100,3,2,1,55,0,0
23532,-100,3,2,2,55,0,0
25145,468.75,4,2,1,45,1,0
25145,-66.6666666666667,4,2,2,45,0,0
30770,-66.6666666666667,4,2,2,60,0,0
47652,312.5,3,2,2,65,1,1
60777,-100,3,2,2,65,0,0
61722,468.75,4,2,2,65,1,0
61722,-71.4285714285714,4,2,2,65,0,0
62659,468.75,4,2,2,70,1,1
62659,-66.6666666666667,4,2,2,70,0,1
69221,-62.5,4,2,2,70,0,1
70159,-66.6666666666667,4,2,2,58,0,0
73909,312.5,3,2,2,70,1,0
85140,312.5,3,2,4,58,1,0
85140,-100,3,2,4,58,0,0
85296,-100,3,2,2,58,0,0
92640,-100,3,2,2,65,0,0
100140,454.545454545455,4,2,3,60,1,0
100140,-71.4285714285714,4,2,3,60,0,0
103775,441.176470588235,4,2,3,60,1,0
103775,-74.0740740740741,4,2,3,60,0,0
107304,-74.0740740740741,4,2,3,46,0,0
121422,-74.0740740740741,4,2,3,58,0,0
142598,-74.0740740740741,4,2,2,60,0,0
152524,-74.0740740740741,4,2,2,48,0,0
153186,-71.4285714285714,4,2,2,68,0,1
166863,-71.4285714285714,4,2,2,68,0,0
167304,-71.4285714285714,4,2,2,68,0,1
197304,-66.6666666666667,4,2,2,70,0,1
198186,-50,4,2,2,70,0,1
199069,-33.3333333333333,4,2,2,75,0,1
199730,-66.6666666666667,4,2,2,75,0,1
199951,-66.6666666666667,4,2,2,58,0,0
200853,459.182502085454,4,2,2,60,1,0
208199,-62.5,4,2,2,40,0,0
214628,-62.5,4,2,2,48,0,0
215546,306.122448979592,3,2,2,57,1,0
232382,-33.3333333333333,3,2,2,57,0,0
233913,459.182502085454,4,2,2,45,1,0
239423,306.122448979592,3,2,2,55,1,0
241259,-83.3333333333333,3,2,5,70,0,1
248300,-83.3333333333333,3,2,5,70,0,0
248606,-83.3333333333333,3,2,5,65,0,1
263300,-83.3333333333333,3,2,5,63,0,0
285647,-83.3333333333333,3,2,5,70,0,1
285724,-83.3333333333333,3,2,5,63,0,0
290009,-83.3333333333333,3,2,5,47,0,0
290851,-133.333333333333,3,2,2,50,0,0
290928,-133.333333333333,3,2,2,5,0,0
292688,-133.333333333333,3,2,2,35,0,0
292841,-133.333333333333,3,2,2,30,0,0
294525,-133.333333333333,3,2,2,20,0,0
296361,-133.333333333333,3,2,2,10,0,0
297280,-133.333333333333,3,2,2,5,0,0

[Colours]
Combo1 : 204,204,204
Combo2 : 81,255,255
Combo3 : 89,234,133
Combo4 : 255,255,38

[HitObjects]
208,304,629,6,0,L|80:304,1,95,12|0,0:3|0:0,0:0:0:0:
344,176,952,2,0,L|456:176,2,95,14|2|2,0:0|0:0|0:0,0:0:0:0:
96,176,1436,2,0,P|64:56|120:32,1,190,2|2,0:0|0:0,0:0:0:0:
336,72,1920,2,0,L|216:72,1,95,14|2,0:1|0:0,0:0:0:0:
384,96,2162,1,2,0:0:0:0:
440,104,2242,1,2,0:0:0:0:
496,176,2404,1,8,0:3:0:0:
496,272,2564,1,0,0:3:0:0:
408,312,2726,1,4,0:3:0:0:
152,304,2887,6,0,L|368:304,1,190,6|0,0:0|0:0,0:0:0:0:
88,208,3371,2,0,P|40:144|104:64,1,190,2|0,0:1|0:0,0:0:0:0:
344,64,3855,1,12,0:0:0:0:
232,64,4017,1,0,0:0:0:0:
480,144,4178,1,8,0:3:0:0:
344,304,4339,1,0,0:0:0:0:
248,264,4500,1,4,0:3:0:0:
392,256,4662,1,4,0:3:0:0:
144,176,4823,6,0,L|32:176,2,95,6|2|2,0:1|0:0|0:0,0:0:0:0:
392,176,5307,2,0,P|424:56|368:32,1,190,2|2,0:0|0:0,0:0:0:0:
152,72,5791,2,0,L|272:72,1,95,6|0,0:1|0:0,0:0:0:0:
104,96,6033,1,0,0:0:0:0:
40,104,6113,1,2,0:0:0:0:
24,176,6275,1,8,0:3:0:0:
32,264,6436,1,0,0:0:0:0:
112,304,6597,1,4,0:3:0:0:
336,312,6758,6,0,P|408:288|440:168,1,190,6|2,0:1|0:1,0:0:0:0:
384,184,7162,1,2,0:0:0:0:
216,176,7242,2,0,P|168:144|232:40,1,190,0|2,0:0|0:0,0:0:0:0:
368,40,7726,5,14,0:1:0:0:
256,272,7887,2,0,L|248:216,1,47.5,0|0,3:0|3:0,3:0:0:0:
320,224,8049,2,0,L|328:160,1,47.5,0|0,3:0|3:0,3:0:0:0:
256,152,8210,2,0,L|328:152,1,47.5,0|0,3:0|3:0,3:0:0:0:
360,120,8371,2,0,L|288:120,1,47.5,0|0,3:0|3:0,3:0:0:0:
136,64,8533,2,0,L|192:64,1,47.5,0|0,3:0|3:0,3:0:0:0:
360,56,8694,5,8,0:1:0:0:
208,160,9017,1,8,0:3:0:0:
432,240,9339,1,4,0:3:0:0:
48,312,9662,5,2,0:0:0:0:
224,312,9984,2,0,L|232:96,1,190,2|2,0:0|0:0,0:0:0:0:
136,128,10468,1,0,0:0:0:0:
231,122,10629,2,0,L|15:122,1,190,2|0,0:0|0:0,0:0:0:0:
176,312,11113,2,0,P|216:208|160:176,1,190,2|0,0:0|0:0,0:0:0:0:
24,128,11597,6,0,L|240:128,1,190,2|0,0:0|0:0,0:0:0:0:
344,344,12081,2,0,P|264:312|240:192,1,190,2|0,0:0|0:0,0:0:0:0:
384,216,12565,1,2,0:0:0:0:
280,152,12887,1,2,0:1:0:0:
464,128,13210,2,0,L|472:16,1,95,2|0,0:0|0:0,0:0:0:0:
328,320,13532,6,0,P|280:272|352:192,1,190,2|0,0:0|0:0,0:0:0:0:
464,152,14016,2,0,L|256:152,1,190,2|0,0:0|0:0,0:0:0:0:
392,120,14500,1,2,0:0:0:0:
216,120,14823,1,2,0:1:0:0:
392,256,15145,2,0,L|272:256,1,95,2|0,0:0|0:0,0:0:0:0:
160,184,15468,6,0,L|320:40,1,190,2|0,0:0|0:0,0:0:0:0:
168,192,15952,2,0,P|120:96|184:56,1,190,2|0,0:0|0:0,0:0:0:0:
304,56,16436,1,2,0:0:0:0:
88,240,16758,1,8,0:3:0:0:
480,240,17081,1,4,0:3:0:0:
88,352,17403,6,0,P|16:320|16:224,1,142.5,14|0,0:0|0:0,0:0:0:0:
176,240,17726,2,0,L|312:240,1,95,10|2,0:0|0:0,0:0:0:0:
152,144,18049,1,2,0:0:0:0:
400,120,18210,1,8,0:0:0:0:
152,88,18371,1,10,0:1:0:0:
280,72,18532,1,2,0:0:0:0:
152,88,18694,2,0,L|144:200,1,95,2|2,0:0|0:0,0:0:0:0:
16,256,19178,1,2,0:0:0:0:
271,324,19339,6,0,L|143:180,1,190,10|0,0:0|0:0,0:0:0:0:
368,336,19823,2,0,P|424:264|344:192,1,190,2|2,0:0|0:0,0:0:0:0:
112,192,20307,1,8,0:1:0:0:
328,136,20629,1,10,0:0:0:0:
192,72,20952,2,0,L|312:72,1,95,2|2,0:0|0:0,0:0:0:0:
56,328,21274,6,0,P|104:200|176:192,1,190,10|2,0:0|0:0,0:0:0:0:
280,144,21758,2,0,L|64:144,1,190,2|2,0:0|0:0,0:0:0:0:
368,336,22242,2,0,L|184:224,2,190,8|2|2,0:1|0:0|0:0,0:0:0:0:
472,336,23049,1,8,0:0:0:0:
224,344,23210,6,0,L|88:344,2,95,2|0|0,3:2|3:0|0:0,0:0:0:0:
368,200,23694,2,0,P|456:152|472:56,1,190,2|0,0:0|0:0,0:0:0:0:
344,72,24178,1,10,0:1:0:0:
464,288,24500,1,8,0:0:0:0:
336,280,24661,2,0,L|424:224,2,95,8|4|0,0:3|0:3|0:0,0:0:0:0:
80,272,25145,6,0,P|8:200|104:56,1,285.000010871888,14|0,0:0|0:0,0:0:0:0:
240,56,25848,2,0,L|320:56,1,71.2500027179719,8|0,0:0|0:0,0:0:0:0:
200,272,26082,2,0,L|32:88,2,213.750008153916,10|2|10,0:0|0:0|0:0,0:0:0:0:
400,352,27020,6,0,L|200:128,1,285.000010871888,10|0,0:0|0:0,0:0:0:0:
368,136,27723,1,8,0:0:0:0:
144,344,27957,2,0,L|320:168,2,213.750008153916,10|2|2,0:0|0:0|0:0,0:0:0:0:
480,344,28895,6,0,P|352:232|368:176,2,213.750008153916,10|2|2,0:0|0:0|0:0,0:0:0:0:
408,344,29715,1,2,0:0:0:0:
480,344,29832,2,0,L|488:56,1,285.000010871888,10|0,0:0|0:0,0:0:0:0:
72,320,30770,6,0,L|248:320,1,142.500005435944,6|0,0:0|0:0,0:0:0:0:
464,240,31121,2,0,L|312:240,1,142.500005435944,8|0,0:3|0:0,0:0:0:0:
208,176,31473,2,0,L|328:176,1,71.2500027179719,4|0,0:3|0:0,0:0:0:0:
464,80,31707,2,0,L|256:80,1,142.500005435944,8|8,0:1|0:0,0:0:0:0:
400,144,32059,1,0,0:0:0:0:
208,344,32176,2,0,L|200:256,1,71.2500027179719,8|4,0:1|0:3,0:0:0:0:
304,272,32410,2,0,L|312:192,1,71.2500027179719,12|0,0:3|0:0,0:0:0:0:
112,232,32645,6,0,P|64:160|160:80,1,213.750008153916,14|8,0:0|0:0,0:0:0:0:
240,80,33113,1,8,0:0:0:0:
48,80,33348,1,8,0:1:0:0:
240,256,33582,1,0,0:0:0:0:
240,256,33699,1,8,0:0:0:0:
144,208,33816,2,0,L|304:200,1,142.500005435944,8|8,0:0|0:1,0:0:0:0:
128,336,34285,2,0,L|224:328,1,71.2500027179719,10|2,0:0|0:0,0:0:0:0:
432,280,34520,6,0,L|224:280,1,142.500005435944,10|0,0:0|0:0,0:0:0:0:
392,240,34871,2,0,P|480:168|480:64,1,213.750008153916,8|2,0:1|0:0,0:0:0:0:
128,88,35457,2,0,L|40:88,2,71.2500027179719,10|0|0,0:0|0:0|0:0,0:0:0:0:
224,128,35809,1,8,0:0:0:0:
120,152,35926,2,0,L|112:304,1,142.500005435944,8|0,0:1|0:0,0:0:0:0:
208,296,36277,1,2,0:0:0:0:
400,336,36395,6,0,L|248:168,2,213.750008153916,14|2|2,0:0|0:0|0:0,0:0:0:0:
400,336,37215,1,2,0:0:0:0:
464,336,37332,2,0,L|272:336,1,142.500005435944,10|0,0:1|0:0,0:0:0:0:
321,336,37684,1,2,0:0:0:0:
240,288,37801,2,0,L|232:192,1,71.2500027179719
328,200,38035,2,0,L|408:200,1,71.2500027179719,2|0,0:0|0:0,0:0:0:0:
176,56,38270,6,0,L|8:56,1,142.500005435944,2|8,0:0|0:0,0:0:0:0:
120,192,38621,1,2,0:0:0:0:
144,280,38738,1,0,0:0:0:0:
240,256,38855,1,0,0:0:0:0:
64,352,38973,1,8,0:1:0:0:
232,352,39207,2,0,L|240:248,1,71.2500027179719,2|0,0:0|0:0,0:0:0:0:
136,304,39441,2,0,L|128:216,1,71.2500027179719,8|0,0:0|0:0,0:0:0:0:
240,176,39676,2,0,L|48:176,1,142.500005435944,8|0,0:1|0:0,0:0:0:0:
416,352,40145,6,0,L|240:192,1,213.750008153916,14|2,0:0|0:0,0:0:0:0:
376,256,40613,2,0,L|456:256,1,71.2500027179719,8|0,0:0|0:0,0:0:0:0:
224,144,40848,2,0,L|96:144,1,71.2500027179719,8|0,0:1|0:0,0:0:0:0:
376,256,41082,2,0,P|416:176|320:104,1,213.750008153916,14|10,0:0|0:0,0:0:0:0:
112,96,41551,2,0,L|224:96,1,71.2500027179719,8|0,0:3|0:0,0:0:0:0:
392,40,41785,2,0,L|288:40,1,71.2500027179719,4|0,0:3|0:0,0:0:0:0:
112,40,42020,5,14,0:0:0:0:
304,320,42371,1,8,0:1:0:0:
208,312,42488,2,0,L|200:208,1,71.2500027179719,10|0,0:0|0:0,0:0:0:0:
392,216,42723,2,0,P|424:160|368:96,1,142.500005435944,8|8,0:1|0:0,0:0:0:0:
288,64,43074,1,8,0:1:0:0:
384,32,43191,1,8,0:0:0:0:
384,104,43309,1,8,0:0:0:0:
192,184,43426,1,8,0:1:0:0:
336,184,43660,2,0,L|432:184,1,71.2500027179719,10|0,0:0|0:0,0:0:0:0:
160,360,43895,6,0,P|128:296|192:240,1,142.500005435944,14|0,0:0|0:0,0:0:0:0:
376,224,44246,2,0,L|224:224,1,142.500005435944,8|0,0:3|0:0,0:0:0:0:
408,96,44598,2,0,L|312:96,1,71.2500027179719,8|0,0:3|0:0,0:0:0:0:
512,320,44832,2,0,L|352:320,1,142.500005435944,8|0,0:1|0:0,0:0:0:0:
168,232,45184,2,0,L|344:232,1,142.500005435944,8|0,0:3|0:0,0:0:0:0:
104,88,45535,2,0,L|8:88,1,71.2500027179719,4|0,0:3|0:0,0:0:0:0:
240,232,45770,5,14,0:0:0:0:
128,192,45926,1,0,0:0:0:0:
352,120,46082,1,8,0:0:0:0:
240,88,46238,1,0,0:0:0:0:
456,328,46395,1,8,0:0:0:0:
240,336,46551,1,0,0:0:0:0:
456,216,46707,5,8,0:1:0:0:
184,200,47020,1,10,0:3:0:0:
400,184,47176,1,8,0:3:0:0:
288,112,47332,1,4,0:3:0:0:
400,72,47488,1,4,0:3:0:0:
120,328,47652,6,0,P|72:248|152:184,1,190,14|10,0:0|0:0,0:0:0:0:
344,184,48120,1,8,0:1:0:0:
224,168,48277,2,0,L|216:40,1,95,10|8,0:0|0:0,0:0:0:0:
432,320,48589,2,0,L|504:248,1,95,10|0,0:1|0:0,0:0:0:0:
248,312,48902,2,0,L|144:312,1,95,10|0,0:0|0:1,0:0:0:0:
416,136,49214,2,0,P|376:216|296:224,1,142.5,8|0,0:0|0:0,0:0:0:0:
160,200,49527,6,0,L|304:64,1,190,14|0,0:0|0:0,0:0:0:0:
32,304,49995,1,10,0:1:0:0:
136,232,50152,1,2,0:0:0:0:
32,296,50308,1,8,0:0:0:0:
360,336,50464,2,0,L|152:336,1,190,12|8,0:1|0:0,0:0:0:0:
264,312,50933,1,8,0:1:0:0:
48,192,51089,2,0,L|144:192,1,95,10|0,0:0|0:1,0:0:0:0:
440,248,51402,5,14,0:0:0:0:
336,192,51558,1,2,0:0:0:0:
440,144,51714,1,8,0:0:0:0:
224,352,51870,2,0,P|120:320|112:208,1,190,2|8,0:0|0:0,0:0:0:0:
336,192,52339,2,0,L|448:192,1,95,14|0,0:1|0:0,0:0:0:0:
152,88,52652,2,0,L|32:88,1,95,10|8,0:0|0:0,0:0:0:0:
352,200,52964,2,0,P|384:144|328:96,1,142.5,8|0,0:1|0:0,0:0:0:0:
144,264,53277,6,0,P|64:240|24:128,1,190,14|2,0:0|0:0,0:0:0:0:
176,176,53745,1,8,0:1:0:0:
24,136,53902,1,10,0:0:0:0:
128,80,54058,1,8,0:0:0:0:
24,32,54214,2,0,L|136:32,1,95,8|0,0:1|0:0,0:0:0:0:
296,312,54474,1,0,3:0:0:0:
336,304,54527,1,8,0:3:0:0:
338,272,54579,1,8,0:3:0:0:
342,209,54683,1,8,0:3:0:0:
472,208,54839,1,4,0:3:0:0:
256,216,54995,1,4,0:3:0:0:
40,256,55152,6,0,P|56:160|152:128,1,190,14|2,0:0|0:0,0:0:0:0:
432,128,55620,1,8,0:1:0:0:
312,128,55777,2,0,L|200:128,1,95,10|8,0:0|0:0,0:0:0:0:
456,288,56089,2,0,L|328:288,1,95,12|0,0:1|0:0,0:0:0:0:
120,224,56402,2,0,L|208:144,1,95,10|8,0:0|0:1,0:0:0:0:
56,64,56714,2,0,L|200:64,1,142.5,10|0,0:0|0:0,0:0:0:0:
392,224,57027,6,0,P|440:176|376:96,1,190,10|0,0:0|0:0,0:0:0:0:
248,240,57495,1,8,0:1:0:0:
104,192,57652,2,0,L|184:128,1,95,10|8,0:0|0:0,0:0:0:0:
424,32,57964,2,0,L|296:32,1,95,8|0,0:1|0:0,0:0:0:0:
208,136,58277,2,0,L|312:200,1,95,10|0,0:0|0:0,0:0:0:0:
64,320,58589,2,0,P|40:240|88:200,1,142.5,10|0,0:0|0:0,0:0:0:0:
306,196,58902,6,0,P|362:132|282:52,1,190,14|0,0:0|0:0,0:0:0:0:
80,72,59370,1,10,0:1:0:0:
176,64,59527,1,8,0:0:0:0:
280,56,59683,1,10,0:0:0:0:
48,272,59839,2,0,P|64:192|144:168,1,142.5,14|0,0:1|0:0,0:0:0:0:
200,144,60152,2,0,L|64:56,1,142.5,8|0,0:0|0:0,0:0:0:0:
224,64,60464,1,8,0:1:0:0:
464,64,60620,1,8,0:1:0:0:
224,80,60777,6,0,L|16:80,1,190,14|0,0:0|3:0,0:0:0:0:
224,224,61167,2,0,L|296:224,1,47.5,0|0,3:0|3:0,3:0:0:0:
168,312,61480,1,2,0:0:0:0:
272,312,61597,1,2,0:0:0:0:
40,352,61722,6,0,L|32:208,1,132.999995941162,14|0,0:0|0:0,0:0:0:0:
112,216,62073,1,8,0:0:0:0:
296,168,62190,2,0,L|136:136,1,132.999995941162,12|0,0:1|0:0,0:0:0:0:
464,144,62659,6,0,L|472:296,1,142.500005435944,14|0,0:0|0:0,0:0:0:0:
272,40,63010,1,8,0:1:0:0:
176,152,63127,2,0,L|168:48,1,71.2500027179719,8|0,0:0|0:0,0:0:0:0:
376,208,63362,2,0,L|472:208,1,71.2500027179719,10|0,0:1|0:0,0:0:0:0:
264,352,63596,1,10,0:0:0:0:
192,312,63713,1,8,0:1:0:0:
264,280,63830,1,2,0:0:0:0:
447,208,63948,1,8,0:0:0:0:
264,208,64065,2,0,L|120:208,1,142.500005435944,10|10,0:1|0:0,0:0:0:0:
200,184,64416,1,0,0:0:0:0:
408,104,64534,6,0,L|224:104,1,142.500005435944,10|0,0:0|0:0,0:0:0:0:
344,160,64885,1,8,0:1:0:0:
136,328,65002,2,0,L|48:328,1,71.2500027179719,10|0,0:0|0:0,0:0:0:0:
280,280,65237,2,0,L|368:280,1,71.2500027179719,10|0,0:1|0:0,0:0:0:0:
161,200,65471,2,0,L|273:96,1,142.500005435944,10|0,0:0|0:0,0:0:0:0:
88,80,65823,2,0,L|8:80,2,71.2500027179719,2|8|0,0:0|0:1|0:0,0:0:0:0:
352,80,66174,2,0,L|424:80,1,71.2500027179719,2|0,0:0|0:0,0:0:0:0:
200,336,66409,5,14,0:0:0:0:
136,306,66526,1,0,0:0:0:0:
108,242,66643,1,8,0:0:0:0:
128,175,66760,1,8,0:0:0:0:
336,128,66877,1,12,0:1:0:0:
128,96,66994,1,8,0:1:0:0:
336,128,67112,2,0,L|264:128,1,71.2500027179719,2|0,0:0|0:0,0:0:0:0:
48,224,67346,2,0,L|200:224,1,142.500005435944,10|2,0:0|0:0,0:0:0:0:
112,176,67698,1,0,0:0:0:0:
312,160,67815,2,0,L|320:80,1,71.2500027179719,8|2,0:1|0:0,0:0:0:0:
144,64,68049,2,0,L|64:64,1,71.2500027179719,2|0,0:0|0:0,0:0:0:0:
344,344,68284,6,0,L|512:344,1,142.500005435944,14|0,0:0|0:0,0:0:0:0:
304,208,68635,1,10,0:0:0:0:
216,168,68752,1,8,0:1:0:0:
304,128,68869,1,8,0:0:0:0:
128,48,68987,2,0,L|40:48,1,71.2500027179719,10|0,0:0|0:0,0:0:0:0:
304,48,69221,2,0,L|472:48,1,152,10|0,0:0|0:0,0:0:0:0:
280,120,69573,2,0,L|272:272,1,152,10|0,0:0|0:0,0:0:0:0:
88,352,69924,2,0,L|0:352,1,76,10|0,0:0|0:0,0:0:0:0:
272,352,70159,6,0,L|424:352,1,142.500005435944,14|0,0:0|0:0,0:0:0:0:
496,288,70510,1,8,0:3:0:0:
416,232,70627,2,0,L|224:232,1,142.500005435944,4|2,0:3|0:0,0:0:0:0:
160,48,71096,2,0,L|240:48,2,71.2500027179719,4|8|4,0:3|0:3|0:3,0:0:0:0:
456,128,71565,1,14,0:1:0:0:
120,224,71799,2,0,L|32:224,1,71.2500027179719,2|0,0:0|0:0,0:0:0:0:
264,232,72034,6,0,L|464:232,1,142.500005435944,14|8,0:0|0:0,0:0:0:0:
320,184,72385,1,8,0:3:0:0:
232,336,72502,2,0,L|224:176,1,142.500005435944,4|2,0:3|0:0,0:0:0:0:
320,184,72854,1,2,0:0:0:0:
64,328,72971,2,0,L|64:144,1,142.500005435944,14|0,0:0|0:0,0:0:0:0:
160,304,73323,1,2,0:0:0:0:
256,256,73440,1,8,0:3:0:0:
160,216,73557,1,8,0:3:0:0:
280,176,73674,2,0,L|368:176,1,71.2500027179719,4|0,0:3|0:0,0:0:0:0:
38,121,73909,6,0,L|176:120,1,95,14|0,0:0|0:0,0:0:0:0:
272,112,74221,1,2,0:0:0:0:
136,96,74377,1,2,0:0:0:0:
272,112,74534,2,0,L|280:16,1,95,2|8,0:0|0:0,0:0:0:0:
56,312,74846,2,0,L|48:192,1,95,14|0,0:0|0:0,0:0:0:0:
184,184,75159,2,0,L|56:184,1,95,8|8,0:0|0:0,0:0:0:0:
328,288,75471,2,0,P|384:224|352:168,1,142.5,10|0,0:0|0:0,0:0:0:0:
168,96,75784,6,0,L|48:96,1,95,14|0,0:0|0:0,0:0:0:0:
192,198,76096,1,2,0:0:0:0:
72,248,76252,1,8,0:1:0:0:
230,293,76409,1,8,0:0:0:0:
72,336,76565,1,8,0:0:0:0:
352,208,76721,2,0,L|480:208,1,95,8|0,0:1|0:0,0:0:0:0:
232,72,77034,2,0,L|112:72,1,95,8|8,0:0|0:1,0:0:0:0:
408,344,77346,2,0,P|440:264|392:224,1,142.5,10|0,0:0|0:0,0:0:0:0:
248,272,77659,6,0,P|200:208|264:128,1,190,14|2,0:0|0:0,0:0:0:0:
352,128,78127,1,8,0:0:0:0:
136,320,78284,2,0,L|40:320,1,95,10|0,0:0|0:0,0:0:0:0:
264,232,78596,2,0,L|360:232,1,95,10|0,0:1|0:0,0:0:0:0:
200,112,78909,2,0,L|296:112,1,95,8|8,0:0|0:1,0:0:0:0:
440,112,79221,1,10,0:0:0:0:
208,48,79377,1,8,0:0:0:0:
440,288,79534,6,0,L|448:176,1,95,14|0,0:0|0:0,0:0:0:0:
312,152,79846,2,0,L|424:152,1,95,8|8,0:0|0:0,0:0:0:0:
120,288,80159,2,0,L|104:136,1,142.5,10|0,0:0|0:0,0:0:0:0:
344,200,80471,2,8,L|432:200,2,47.5,8|8|8,0:1|0:0|0:0,0:0:0:0:
208,200,80784,2,0,L|104:200,1,95,8|2,0:0|0:0,0:0:0:0:
360,272,81096,2,0,P|392:192|344:160,1,142.5,10|0,0:0|0:0,0:0:0:0:
152,176,81409,5,10,0:0:0:0:
232,232,81565,1,2,0:0:0:0:
152,296,81721,1,2,0:0:0:0:
280,240,81877,1,8,0:0:0:0:
392,152,82034,1,0,0:0:0:0:
280,80,82190,1,8,0:0:0:0:
504,248,82346,2,0,L|392:248,1,95,8|0,0:1|0:0,0:0:0:0:
128,344,82659,2,0,L|80:304,2,47.5,0|0|0,3:0|3:0|3:0,3:0:0:0:
224,264,82971,2,0,L|120:264,1,95,8|8,0:0|0:0,0:0:0:0:
344,224,83284,6,0,P|336:160|256:112,1,142.5,14|0,0:0|0:0,0:0:0:0:
136,176,83596,2,0,L|256:176,1,95,8|8,0:3|0:0,0:0:0:0:
472,88,83909,2,0,L|312:88,1,142.5,4|0,0:3|0:0,0:0:0:0:
184,224,84221,1,12,0:1:0:0:
304,256,84377,1,0,0:0:0:0:
184,312,84534,1,0,3:0:0:0:
416,168,84690,1,8,0:3:0:0:
88,160,84846,1,4,0:3:0:0:
352,80,85002,1,4,0:3:0:0:
136,32,85140,6,0,L|128:144,1,95,6|0,0:0|0:0,0:0:0:0:
248,128,85452,2,0,L|368:128,1,95,10|0,0:0|0:0,0:0:0:0:
240,256,85765,1,10,0:0:0:0:
384,288,85921,1,2,0:0:0:0:
240,352,86077,2,0,L|144:352,1,95,10|0,0:0|0:0,0:0:0:0:
32,352,86390,1,10,0:0:0:0:
152,344,86546,2,0,L|168:216,1,95,2|8,0:0|0:0,0:0:0:0:
280,248,86858,1,2,0:0:0:0:
48,152,87015,6,8,L|272:152,1,190,10|8,0:0|0:0,0:0:0:0:
112,272,87483,2,0,L|16:208,2,95,2|8|2,0:0|0:0|0:0,0:0:0:0:
256,272,87952,2,0,L|360:272,1,95,10|0,0:0|0:0,0:0:0:0:
480,248,88265,2,0,L|488:128,1,95,8|0,0:0|0:0,0:0:0:0:
368,128,88577,1,10,0:0:0:0:
488,104,88733,1,2,0:0:0:0:
208,88,88890,5,10,0:0:0:0:
368,184,89202,1,10,0:0:0:0:
256,192,89358,2,0,L|248:304,1,95,2|8,0:0|0:0,0:0:0:0:
128,280,89671,1,2,0:0:0:0:
256,336,89827,2,0,L|80:216,1,190,10|8,0:0|0:0,0:0:0:0:
224,192,90296,1,2,0:0:0:0:
104,184,90452,2,0,L|96:80,1,95,10|0,0:0|0:0,0:0:0:0:
360,80,90765,6,0,B|656:144|344:104|224:128|296:400|504:344,1,570,14|0,0:0|0:0,0:0:0:0:
112,336,92015,1,8,0:3:0:0:
352,296,92327,1,4,0:3:0:0:
248,280,92483,1,4,0:3:0:0:
480,200,92640,6,0,L|488:80,1,95,4|8,0:3|0:3,0:0:0:0:
368,104,92952,1,4,0:3:0:0:
128,104,93108,2,0,L|120:208,1,95,10|0,0:0|0:0,0:0:0:0:
16,256,93421,2,8,L|96:256,1,47.5
264,256,93577,1,14,0:0:0:0:
168,192,93733,1,2,0:0:0:0:
400,152,93890,1,2,0:0:0:0:
304,104,94046,1,8,0:3:0:0:
408,48,94202,1,4,0:3:0:0:
168,48,94358,1,10,0:0:0:0:
400,336,94515,6,0,L|408:264,1,47.5,10|0,3:2|3:2,3:2:0:0:
344,288,94671,2,0,L|336:224,1,47.5,0|0,3:2|3:2,3:2:0:0:
488,192,94827,1,8,0:3:0:0:
240,192,94983,1,2,0:0:0:0:
344,128,95140,1,8,0:3:0:0:
112,112,95296,1,4,0:3:0:0:
344,40,95452,6,0,L|184:40,1,142.5,14|0,0:0|0:0,0:0:0:0:
352,256,95765,2,0,L|464:256,1,95,10|0,0:0|0:0,0:0:0:0:
256,296,95999,2,0,L|200:296,1,47.5,0|2,3:0|3:2,3:0:0:0:
448,328,96233,1,10,0:0:0:0:
200,336,96390,2,0,L|80:336,1,95,14|0,0:0|0:0,0:0:0:0:
352,224,96702,1,10,0:0:0:0:
232,208,96858,2,0,L|224:136,1,47.5,0|0,3:0|3:0,3:0:0:0:
416,128,97015,2,0,L|552:128,1,95,10|8,0:0|0:3,0:0:0:0:
296,240,97327,6,0,L|288:344,1,95,14|0,0:2|0:3,0:0:0:0:
48,328,97640,2,0,L|40:208,1,95,10|8,0:0|0:3,0:0:0:0:
168,176,97952,1,4,0:3:0:0:
40,120,98108,2,0,L|96:120,1,47.5,0|0,3:0|3:0,3:0:0:0:
296,88,98265,5,10,0:0:0:0:
400,120,98421,1,0,0:0:0:0:
168,184,98577,1,10,0:0:0:0:
400,256,98733,1,8,0:3:0:0:
400,256,98890,1,4,0:3:0:0:
512,304,99046,1,10,0:0:0:0:
272,336,99202,2,0,L|264:224,1,95,14|0,0:0|0:0,0:0:0:0:
136,232,99515,2,0,L|0:232,1,95,10|8,0:0|0:3,0:0:0:0:
320,88,99827,2,0,L|448:88,1,95,4|0,0:3|0:0,0:0:0:0:
168,128,100140,6,8,L|24:128,2,132.999995941162,14|8|8,0:0|0:0|0:1,0:1:0:0:
464,304,100821,2,0,L|256:304,1,199.499993911743,14|0,0:0|0:0,0:0:0:0:
360,272,101276,2,0,L|368:176,1,66.4999979705811,8|0,0:3|0:0,0:0:0:0:
272,200,101503,2,0,L|192:200,1,66.4999979705811,8|0,0:1|0:0,0:0:0:0:
400,40,101730,6,0,P|456:128|376:176,1,199.499993911743,14|0,0:0|0:0,0:0:0:0:
312,200,102185,2,0,L|416:200,1,66.4999979705811,8|0,0:0|0:0,0:0:0:0:
200,272,102412,1,8,0:1:0:0:
376,312,102526,1,8,0:1:0:0:
192,352,102640,2,0,P|88:304|96:160,1,265.999991882324,14|8,0:0|0:0,0:0:0:0:
192,168,103208,1,8,0:0:0:0:
8,120,103321,2,0,L|192:120,1,132.999995941162,10|0,0:1|0:0,0:0:0:0:
472,72,103775,6,0,L|328:72,1,128.250000489235,14|0,0:0|3:0,0:0:0:0:
384,104,104069,1,0,3:0:0:0:
344,120,104142,1,0,3:0:0:0:
168,120,104216,1,8,0:1:0:0:
312,136,104436,2,0,P|408:184|424:288,1,192.375000733852,14|0,0:0|0:0,0:0:0:0:
328,256,104877,2,0,L|320:352,1,64.1250002446175,8|0,0:0|0:0,0:0:0:0:
416,336,105098,2,0,L|496:336,1,64.1250002446175,8|0,0:1|0:0,0:0:0:0:
272,344,105319,6,0,P|184:312|176:176,1,192.375000733852,14|0,0:0|0:0,0:0:0:0:
256,224,105760,2,0,L|272:128,1,64.1250002446175,8|0,0:0|0:0,0:0:0:0:
440,80,105980,2,0,L|528:80,1,64.1250002446175,14|0,0:1|0:0,0:0:0:0:
330,160,106201,2,0,L|242:160,1,64.1250002446175,2|0,0:0|0:0,0:0:0:0:
56,112,106422,1,12,0:3:0:0:
168,88,106569,1,8,0:3:0:0:
56,64,106716,1,4,0:3:0:0:
330,160,106863,2,0,L|338:336,1,128.250000489235,10|0,0:1|0:0,0:0:0:0:
56,184,107304,6,0,L|48:320,1,128.250000489235,14|0,0:0|0:0,0:0:0:0:
248,312,107745,1,8,0:0:0:0:
120,256,107966,1,2,0:0:0:0:
312,208,108186,1,10,0:0:0:0:
120,184,108407,1,0,0:0:0:0:
216,112,108627,1,10,0:0:0:0:
80,80,108848,1,0,0:0:0:0:
408,80,109069,6,0,L|416:256,1,128.250000489235,10|0,0:0|0:0,0:0:0:0:
256,272,109510,2,0,L|408:272,1,128.250000489235,8|2,0:0|0:0,0:0:0:0:
208,344,109951,2,0,P|152:288|256:216,1,192.375000733852,10|0,0:0|0:0,0:0:0:0:
272,168,110392,2,0,L|136:168,1,128.250000489235,10|2,0:0|0:0,0:0:0:0:
456,64,110833,6,0,L|472:336,1,256.50000097847,10|8,0:0|0:0,0:0:0:0:
128,304,111495,1,2,0:0:0:0:
320,248,111716,1,10,0:0:0:0:
224,208,111936,1,2,0:0:0:0:
384,120,112157,1,10,0:0:0:0:
248,56,112377,1,0,0:0:0:0:
448,208,112598,6,0,L|456:384,1,128.250000489235,10|0,0:0|0:0,0:0:0:0:
176,336,113039,2,0,L|344:264,1,128.250000489235,10|0,0:0|0:0,0:0:0:0:
448,248,113480,2,0,L|328:200,1,128.250000489235,8|0,0:0|0:0,0:0:0:0:
472,72,113922,2,0,L|480:240,1,128.250000489235,8|0,0:0|0:0,0:0:0:0:
144,336,114363,6,0,P|72:288|64:208,1,128.250000489235,14|0,0:0|0:0,0:0:0:0:
144,240,114694,2,0,L|160:160,1,64.1250002446175,0|0,3:0|3:0,3:0:0:0:
312,168,115025,1,2,0:0:0:0:
152,152,115245,2,0,L|144:16,1,128.250000489235,10|0,0:0|0:0,0:0:0:0:
72,72,115576,1,2,0:0:0:0:
144,72,115686,1,8,0:0:0:0:
312,144,115907,2,2,L|232:144,1,64.1250002446175
344,232,116127,6,0,L|520:232,1,128.250000489235,10|0,0:0|0:0,0:0:0:0:
376,336,116458,2,0,L|264:336,1,64.1250002446175,2|8,0:0|0:0,0:0:0:0:
432,264,116789,1,2,0:0:0:0:
352,240,116900,1,2,0:0:0:0:
432,208,117010,2,0,L|440:56,1,128.250000489235,10|0,0:0|0:0,0:0:0:0:
264,80,117451,2,0,L|400:144,1,128.250000489235,8|2,0:0|0:0,0:0:0:0:
72,328,117892,6,0,P|40:240|168:192,1,256.50000097847,10|8,0:0|0:0,0:0:0:0:
40,176,118554,1,2,0:0:0:0:
216,192,118774,2,0,L|224:352,1,128.250000489235,10|0,0:0|0:0,0:0:0:0:
400,320,119216,1,10,0:0:0:0:
192,336,119436,1,2,0:0:0:0:
480,224,119657,6,0,P|464:128|320:64,1,256.50000097847,10|8,0:0|0:0,0:0:0:0:
480,40,120319,2,2,L|392:40,1,64.1250002446175
320,128,120539,2,0,L|480:128,1,128.250000489235,10|0,0:0|0:0,0:0:0:0:
80,264,120980,1,10,0:1:0:0:
232,264,121201,2,2,L|320:264,1,64.1250002446175
80,184,121422,6,0,L|72:40,1,128.250000489235,14|0,0:0|0:0,0:0:0:0:
280,56,121752,1,8,0:0:0:0:
192,80,121863,2,0,L|184:160,1,64.1250002446175,10|0,0:1|0:0,0:0:0:0:
360,192,122083,2,0,L|440:192,1,64.1250002446175,2|0,0:0|0:0,0:0:0:0:
176,296,122304,2,0,L|352:296,1,128.250000489235,10|2,0:0|0:0,0:0:0:0:
232,248,122635,1,8,0:0:0:0:
400,208,122745,1,10,0:1:0:0:
232,176,122966,2,0,L|128:176,1,64.1250002446175,2|0,0:0|0:0,0:0:0:0:
368,56,123186,6,0,P|424:104|336:176,1,192.375000733852,14|8,0:0|0:0,0:0:0:0:
440,208,123627,1,8,0:1:0:0:
136,280,123848,1,2,0:0:0:0:
432,320,124069,2,0,L|264:320,1,128.250000489235,10|0,0:0|0:0,0:0:0:0:
384,272,124399,1,8,0:0:0:0:
304,240,124510,1,8,0:1:0:0:
472,160,124730,1,2,0:0:0:0:
472,160,124841,1,2,0:0:0:0:
264,160,124951,6,0,L|440:160,1,128.250000489235,14|0,0:0|0:0,0:0:0:0:
192,280,125282,2,0,L|104:280,1,64.1250002446175,2|8,0:0|0:1,0:0:0:0:
304,64,125613,2,0,L|216:64,1,64.1250002446175,10|0,0:0|0:0,0:0:0:0:
416,320,125833,2,0,L|432:160,1,128.250000489235,10|0,0:0|0:0,0:0:0:0:
352,168,126164,1,8,0:0:0:0:
432,136,126274,1,8,0:1:0:0:
256,288,126495,2,0,L|352:288,1,64.1250002446175,2|0,0:0|0:0,0:0:0:0:
96,344,126716,6,0,L|88:168,1,128.250000489235,14|0,0:0|0:0,0:0:0:0:
176,184,127047,1,8,0:0:0:0:
88,160,127157,1,8,0:1:0:0:
280,160,127377,1,2,0:0:0:0:
72,336,127598,1,10,0:0:0:0:
168,296,127745,1,2,0:0:0:0:
72,256,127892,1,2,0:0:0:0:
312,208,128039,1,10,0:1:0:0:
208,176,128186,1,2,0:0:0:0:
440,120,128333,1,2,0:0:0:0:
200,48,128480,6,0,B|128:128|128:128|216:240,1,192.375000733852,14|8,0:0|0:3,0:0:0:0:
272,232,128922,1,8,0:0:0:0:
112,304,129142,1,2,0:0:0:0:
392,344,129363,2,0,L|400:200,1,128.250000489235,10|0,0:0|0:0,0:0:0:0:
472,152,129694,2,4,L|400:152,1,64.1250002446175,8|4,0:3|0:3,0:3:0:0:
240,136,130024,1,2,0:0:0:0:
328,136,130135,1,0,0:0:0:0:
136,328,130245,6,0,L|0:328,1,128.250000489235,14|0,0:0|0:0,0:0:0:0:
184,200,130576,2,0,L|280:200,2,64.1250002446175,2|8|0,0:0|0:0|0:0,0:0:0:0:
352,80,130907,2,0,L|448:80,1,64.1250002446175,2|0,0:0|0:0,0:0:0:0:
232,152,131127,2,0,L|216:336,1,128.250000489235,10|0,0:0|0:0,0:0:0:0:
40,256,131458,2,0,L|32:344,1,64.1250002446175,8|8,0:3|0:0,0:0:0:0:
112,320,131679,1,0,0:0:0:0:
312,320,131789,2,0,L|416:320,1,64.1250002446175,10|0,0:0|0:0,0:0:0:0:
192,176,132010,6,0,L|8:176,1,128.250000489235,14|0,0:0|0:0,0:0:0:0:
192,128,132341,2,0,L|360:128,1,128.250000489235,8|0,0:3|0:0,0:0:0:0:
120,280,132672,2,0,L|216:280,1,64.1250002446175,10|0,0:0|0:0,0:0:0:0:
360,280,132892,1,8,0:3:0:0:
432,256,133002,2,0,L|440:120,1,128.250000489235,4|0,0:3|0:0,0:0:0:0:
312,192,133333,1,10,0:0:0:0:
256,136,133444,1,0,0:0:0:0:
280,72,133554,1,0,0:0:0:0:
352,48,133664,1,0,0:0:0:0:
160,48,133774,6,0,L|24:48,1,128.250000489235,14|0,0:0|0:0,0:0:0:0:
112,88,134105,1,8,0:0:0:0:
200,152,134216,2,0,L|48:152,1,128.250000489235,8|8,0:0|0:3,0:0:0:0:
384,160,134657,2,0,L|392:296,1,128.250000489235,4|0,0:3|0:0,0:0:0:0:
280,328,134988,2,0,L|184:304,2,64.1250002446175,10|8|0,0:0|0:0|0:0,0:0:0:0:
400,336,135319,2,0,L|320:352,1,64.1250002446175,10|0,0:0|0:0,0:0:0:0:
144,248,135539,6,0,L|336:280,1,192.375000733852,14|0,0:0|0:0,0:0:0:0:
232,192,135980,2,0,L|144:200,1,64.1250002446175,10|0,0:0|0:0,0:0:0:0:
264,112,136201,2,0,L|344:128,1,64.1250002446175,2|0,0:0|0:0,0:0:0:0:
112,48,136422,2,0,L|104:216,1,128.250000489235,10|8,0:0|0:3,0:0:0:0:
24,192,136752,1,2,0:0:0:0:
112,224,136863,2,0,L|200:232,1,64.1250002446175,8|0,0:0|0:0,0:0:0:0:
288,272,137083,2,0,L|192:288,1,64.1250002446175,2|0,0:0|0:0,0:0:0:0:
408,128,137304,6,0,L|424:296,1,128.250000489235,14|0,0:0|0:0,0:0:0:0:
256,200,137745,2,0,L|248:368,1,128.250000489235,10|0,0:0|0:0,0:0:0:0:
168,328,138076,1,2,0:0:0:0:
88,312,138186,2,0,L|272:304,1,128.250000489235,10|0,0:0|0:0,0:0:0:0:
320,272,138517,2,0,L|224:256,2,64.1250002446175,2|8|0,0:0|0:0|0:0,0:0:0:0:
416,280,138848,2,0,L|504:264,1,64.1250002446175,10|0,0:0|0:0,0:0:0:0:
264,184,139069,6,0,L|120:184,1,128.250000489235,14|0,0:0|0:0,0:0:0:0:
320,72,139510,2,0,L|480:72,1,128.250000489235,8|2,0:0|0:0,0:0:0:0:
376,136,139841,1,2,0:0:0:0:
160,312,139951,2,0,L|32:296,2,128.250000489235,10|8|8,0:0|0:3|0:0,0:0:0:0:
440,320,140613,1,2,0:0:0:0:
160,320,140833,6,0,P|112:256|216:192,1,192.375000733852,14|0,0:0|0:0,0:0:0:0:
264,176,141274,1,10,0:0:0:0:
144,144,141422,1,2,0:0:0:0:
16,112,141569,1,2,0:0:0:0:
248,72,141716,2,0,L|384:64,1,128.250000489235,10|0,0:0|0:0,0:0:0:0:
216,248,142157,2,0,L|304:232,1,64.1250002446175,10|0,0:0|0:0,0:0:0:0:
400,224,142377,2,0,L|328:216,1,64.1250002446175,10|0,0:0|0:0,0:0:0:0:
144,288,142598,6,0,L|136:96,1,192.375000733852,14|0,0:0|0:0,0:0:0:0:
40,64,143039,2,0,L|184:48,1,128.250000489235,8|0,0:2|0:2,3:2:0:0:
448,192,143480,2,0,L|264:176,1,171.000000652313,14|0,0:1|0:0,0:0:0:0:
160,176,143922,1,8,0:3:0:0:
272,296,144069,1,8,0:3:0:0:
400,264,144216,1,4,0:3:0:0:
128,168,144363,6,0,L|304:136,1,171.000000652313,14|0,0:0|0:0,0:0:0:0:
408,136,144804,1,0,3:0:0:0:
312,80,144951,1,0,3:0:0:0:
424,40,145098,1,0,3:0:0:0:
200,152,145245,1,14,0:1:0:0:
408,232,145466,1,0,3:1:0:0:
56,336,145686,1,8,0:3:0:0:
272,320,145833,1,8,0:3:0:0:
160,296,145980,1,4,0:3:0:0:
408,320,146127,6,0,P|456:224|384:192,1,192.375000733852,14|0,0:0|0:0,0:0:0:0:
200,120,146569,2,0,L|368:120,1,128.250000489235,8|0,0:0|0:0,0:0:0:0:
48,344,147010,2,0,L|40:144,1,192.375000733852,14|0,0:1|0:0,0:0:0:0:
296,200,147451,2,0,L|168:200,1,128.250000489235,10|0,0:0|0:0,0:0:0:0:
480,336,147892,6,0,L|488:136,1,192.375000733852,14|0,0:0|0:0,0:0:0:0:
376,208,148333,2,0,L|368:64,1,128.250000489235,8|0,0:0|0:0,0:0:0:0:
40,160,148774,2,0,L|200:152,1,128.250000489235,14|0,0:1|0:0,0:0:0:0:
40,96,149216,1,8,0:0:0:0:
320,224,149436,1,2,0:0:0:0:
40,320,149657,6,0,L|32:184,1,128.250000489235,14|0,0:0|0:0,0:0:0:0:
248,192,149988,2,0,L|256:48,1,128.250000489235,10|0,0:0|0:0,0:0:0:0:
440,56,150319,2,0,L|512:56,1,64.1250002446175,10|0,0:0|0:0,0:0:0:0:
336,328,150539,2,0,L|200:328,1,128.250000489235,14|0,0:1|0:0,0:0:0:0:
32,152,150870,2,0,L|176:152,1,128.250000489235,10|0,0:0|0:0,0:0:0:0:
408,200,151201,2,0,L|424:296,1,64.1250002446175,10|0,0:0|0:0,0:0:0:0:
160,336,151422,6,0,L|16:336,1,128.250000489235,14|0,0:1|0:0,0:0:0:0:
296,240,151752,2,0,L|472:240,1,128.250000489235,10|0,0:0|0:0,0:0:0:0:
96,96,152083,2,0,L|0:96,1,64.1250002446175,10|0,0:0|0:0,0:0:0:0:
296,48,152304,1,14,0:1:0:0:
152,160,152524,2,8,L|96:160,2,42.7500001630783,8|8|8,3:0|3:0|3:0,3:0:0:0:
336,160,152745,2,0,L|408:160,1,64.1250002446175,8|8,0:3|0:3,0:0:0:0:
200,336,152966,2,4,L|296:336,1,64.1250002446175,4|4,0:3|0:3,0:3:0:0:
56,352,153186,6,0,L|48:200,1,132.999995941162,14|0,0:0|0:0,0:0:0:0:
136,216,153517,1,8,0:0:0:0:
320,184,153627,2,0,L|192:184,1,66.4999979705811,8|0,0:1|0:0,0:0:0:0:
424,56,153848,2,0,L|528:56,1,66.4999979705811,10|0,0:0|0:0,0:0:0:0:
320,112,154069,1,10,0:0:0:0:
488,128,154179,2,0,L|496:240,1,66.4999979705811,8|0,0:1|0:0,0:0:0:0:
416,192,154399,1,8,0:0:0:0:
248,256,154510,2,0,L|344:256,1,66.4999979705811,8|0,0:1|0:0,0:0:0:0:
136,336,154730,2,0,L|72:336,1,44.3333319803874,10|8,0:0|0:3,0:0:0:0:
136,336,154877,1,8,0:3:0:0:
280,336,154951,6,0,L|208:336,2,66.4999979705811,14|10|8,0:0|0:0|0:0,0:0:0:0:
136,176,155392,2,0,L|216:176,1,66.4999979705811,8|0,0:1|0:0,0:0:0:0:
376,96,155613,2,0,L|288:96,1,66.4999979705811,10|8,0:0|0:0,0:0:0:0:
128,32,155833,1,10,0:0:0:0:
296,56,155944,1,8,0:1:0:0:
128,112,156054,1,10,0:0:0:0:
208,120,156164,1,8,0:0:0:0:
32,296,156274,2,0,L|24:208,1,66.4999979705811,10|0,0:1|0:0,0:0:0:0:
232,296,156495,2,0,L|240:192,1,66.4999979705811,10|8,0:0|0:0,0:0:0:0:
32,184,156716,5,14,0:0:0:0:
56,104,156826,1,8,0:0:0:0:
128,64,156936,1,0,0:0:0:0:
296,96,157047,1,10,0:0:0:0:
216,80,157157,1,8,0:1:0:0:
136,64,157267,1,0,0:0:0:0:
320,40,157377,2,0,L|408:40,1,66.4999979705811,10|0,0:0|0:0,0:0:0:0:
216,184,157598,1,10,0:0:0:0:
392,192,157708,2,0,L|480:192,2,66.4999979705811,8|8|8,0:1|0:0|0:0,0:0:0:0:
224,304,158039,2,8,L|352:304,1,66.4999979705811,8|0,0:1|0:0,0:0:0:0:
120,344,158260,2,0,L|32:344,1,66.4999979705811,10|0,0:0|0:0,0:0:0:0:
224,304,158480,5,14,0:0:0:0:
304,264,158591,1,8,0:1:0:0:
304,168,158701,1,10,0:0:0:0:
224,144,158811,1,8,0:0:0:0:
432,104,158922,1,8,0:1:0:0:
272,48,159142,2,0,L|200:48,1,66.4999979705811,10|8,0:0|0:3,0:0:0:0:
432,216,159363,5,8,0:3:0:0:
288,296,159583,1,8,0:3:0:0:
248,256,159657,1,8,0:3:0:0:
288,216,159730,1,8,0:3:0:0:
424,184,159804,1,8,0:3:0:0:
216,136,159951,1,8,0:3:0:0:
424,96,160098,2,4,L|368:96,1,44.3333319803874,4|4,0:3|0:3,0:3:0:0:
216,88,160245,5,14,0:0:0:0:
128,136,160355,1,0,0:0:0:0:
128,224,160466,1,8,0:0:0:0:
208,272,160576,1,8,0:0:0:0:
24,280,160686,1,8,0:1:0:0:
208,272,160907,2,0,L|312:272,1,66.4999979705811,10|0,0:0|0:0,0:0:0:0:
104,160,161127,1,10,0:0:0:0:
304,160,161238,2,0,L|312:248,1,66.4999979705811,8|2,0:1|0:0,0:0:0:0:
400,224,161458,1,8,0:0:0:0:
208,336,161569,2,8,L|104:336,1,66.4999979705811,10|2,0:1|0:1,0:1:0:0:
320,160,161789,2,0,L|224:160,1,66.4999979705811,10|0,0:0|0:0,0:0:0:0:
64,136,162010,5,14,0:0:0:0:
152,104,162120,1,8,0:1:0:0:
240,80,162230,1,10,0:0:0:0:
152,56,162341,1,8,0:0:0:0:
368,56,162451,1,8,0:1:0:0:
216,168,162672,2,0,L|208:296,1,66.4999979705811,10|0,0:0|0:0,0:0:0:0:
432,232,162892,1,10,0:0:0:0:
352,288,163002,2,0,L|488:288,1,132.999995941162,8|8,0:1|0:0,0:0:0:0:
272,160,163333,2,0,L|192:160,1,66.4999979705811,8|0,0:1|0:1,0:0:0:0:
376,48,163554,2,8,L|464:48,1,66.4999979705811,8|8,0:3|0:3,0:3:0:0:
272,96,163774,5,14,0:0:0:0:
205,160,163885,1,2,0:0:0:0:
208,240,163995,1,8,0:0:0:0:
272,288,164105,1,8,0:0:0:0:
352,304,164216,1,8,0:1:0:0:
272,320,164326,1,0,0:0:0:0:
456,248,164436,1,2,0:0:0:0:
272,208,164547,1,10,0:0:0:0:
352,168,164657,1,10,0:0:0:0:
160,264,164767,2,0,L|152:112,1,132.999995941162,8|2,0:0|0:0,0:0:0:0:
352,88,165098,2,0,L|248:88,1,66.4999979705811,8|0,0:1|0:0,0:0:0:0:
88,72,165319,2,0,L|168:72,1,66.4999979705811,8|0,0:3|0:0,0:0:0:0:
352,72,165539,6,0,L|496:72,1,132.999995941162,14|8,0:0|0:0,0:0:0:0:
272,216,165870,2,0,L|128:216,1,132.999995941162,14|0,0:0|0:0,0:0:0:0:
216,272,166201,1,10,0:0:0:0:
48,272,166311,1,10,0:0:0:0:
216,336,166422,1,10,0:0:0:0:
312,304,166532,2,0,L|320:160,1,132.999995941162,8|8,0:0|0:0,0:0:0:0:
488,160,166863,2,8,L|480:72,1,66.4999979705811,8|8,0:1|0:1,0:1:0:0:
272,72,167083,2,8,L|176:72,1,66.4999979705811,8|8,0:3|0:3,0:3:0:0:
384,336,167304,5,14,0:0:0:0:
456,312,167414,1,0,0:0:0:0:
376,280,167524,1,2,0:0:0:0:
368,208,167634,1,8,0:0:0:0:
448,176,167745,1,8,0:1:0:0:
288,128,167966,2,0,L|208:128,1,66.4999979705811,10|0,0:0|0:0,0:0:0:0:
408,336,168186,2,0,L|312:336,2,66.4999979705811,8|8|4,0:0|0:3|0:3,0:0:0:0:
240,336,168517,1,8,0:0:0:0:
72,280,168627,2,0,L|152:280,1,66.4999979705811,8|0,0:1|0:0,0:0:0:0:
320,280,168848,2,0,L|408:280,1,66.4999979705811,10|0,0:0|0:0,0:0:0:0:
216,200,169069,5,14,0:0:0:0:
144,160,169179,1,8,0:1:0:0:
216,136,169289,1,10,0:0:0:0:
288,120,169399,1,8,0:0:0:0:
96,64,169510,1,8,0:1:0:0:
408,64,169730,2,0,L|496:64,1,66.4999979705811,10|0,0:0|0:0,0:0:0:0:
248,272,169951,1,10,0:0:0:0:
328,224,170061,2,0,L|160:224,1,132.999995941162,8|8,0:1|0:0,0:0:0:0:
24,208,170392,2,0,L|16:128,1,66.4999979705811,8|0,0:1|0:0,0:0:0:0:
128,128,170613,2,0,L|232:128,1,66.4999979705811,10|8,0:0|0:0,0:0:0:0:
368,80,170833,6,0,L|176:80,1,132.999995941162,14|2,0:0|0:0,0:0:0:0:
336,144,171164,1,8,0:0:0:0:
232,168,171274,2,0,L|224:280,1,66.4999979705811,8|0,0:1|0:0,0:0:0:0:
128,288,171495,2,0,L|232:288,1,66.4999979705811,10|0,0:0|0:0,0:0:0:0:
408,288,171716,2,0,L|328:288,2,66.4999979705811,8|8|10,0:0|0:1|0:0,0:0:0:0:
504,288,172047,1,8,0:0:0:0:
408,272,172157,2,0,L|400:176,1,66.4999979705811,8|0,0:1|0:0,0:0:0:0:
216,192,172377,2,0,L|208:96,1,66.4999979705811,10|0,0:0|0:0,0:0:0:0:
456,80,172598,6,0,L|288:80,1,132.999995941162,14|0,0:0|0:0,0:0:0:0:
83,192,172929,2,0,L|243:192,1,132.999995941162,10|0,0:0|0:0,0:0:0:0:
48,320,173260,2,0,L|128:320,1,66.4999979705811,10|0,0:0|0:0,0:0:0:0:
328,320,173480,1,8,0:3:0:0:
240,296,173591,2,0,L|232:144,1,132.999995941162,4|8,0:3|0:3,0:0:0:0:
144,160,173922,1,8,0:3:0:0:
336,128,174032,1,8,0:3:0:0:
144,96,174142,1,4,0:3:0:0:
232,64,174252,1,4,0:3:0:0:
64,160,174363,5,14,0:0:0:0:
40,232,174473,1,0,0:0:0:0:
80,288,174583,1,10,0:0:0:0:
160,296,174694,1,8,0:0:0:0:
80,320,174804,1,8,0:1:0:0:
160,336,174914,1,0,0:0:0:0:
344,336,175024,2,0,L|464:336,1,66.4999979705811,10|0,0:0|0:0,0:0:0:0:
240,216,175245,2,0,L|352:216,1,66.4999979705811,8|8,0:0|0:1,0:0:0:0:
392,168,175466,2,0,L|288:168,1,66.4999979705811,10|8,0:0|0:0,0:0:0:0:
416,120,175686,1,8,0:1:0:0:
128,112,175907,2,0,L|32:112,1,66.4999979705811,10|0,0:0|0:0,0:0:0:0:
256,168,176127,6,0,L|264:280,1,66.4999979705811,14|8,0:0|0:1,0:0:0:0:
176,232,176348,2,0,L|168:320,1,66.4999979705811,10|0,0:0|0:0,0:0:0:0:
360,296,176569,2,0,L|480:296,1,66.4999979705811,8|0,0:1|0:0,0:0:0:0:
256,216,176789,1,10,0:0:0:0:
424,176,176899,1,2,0:0:0:0:
256,128,177010,1,10,0:0:0:0:
344,128,177120,2,0,L|352:248,1,66.4999979705811,8|0,0:1|0:0,0:0:0:0:
264,208,177341,1,8,0:0:0:0:
96,304,177451,2,0,L|-16:304,1,66.4999979705811,8|0,0:1|0:0,0:0:0:0:
248,88,177672,2,0,L|152:88,1,66.4999979705811,10|0,0:0|0:0,0:0:0:0:
16,192,177892,6,0,L|224:192,1,199.499993911743,14|0,0:0|0:0,0:0:0:0:
424,192,178333,1,10,0:1:0:0:
344,168,178444,1,2,0:0:0:0:
424,128,178554,1,8,0:0:0:0:
216,104,178664,1,2,0:0:0:0:
424,296,178774,1,10,0:0:0:0:
344,296,178885,2,0,L|192:296,1,132.999995941162,8|8,0:1|0:0,0:0:0:0:
384,200,179216,2,0,L|304:200,1,66.4999979705811,10|0,0:1|0:0,0:0:0:0:
120,208,179436,2,0,L|200:208,1,66.4999979705811,10|0,0:0|0:0,0:0:0:0:
400,64,179657,6,0,L|416:232,1,132.999995941162,14|2,0:0|0:0,0:0:0:0:
320,192,179988,1,8,0:0:0:0:
120,200,180098,2,0,L|112:320,1,66.4999979705811,8|0,0:1|0:0,0:0:0:0:
296,328,180319,2,0,L|416:328,1,66.4999979705811,10|0,0:0|0:0,0:0:0:0:
152,312,180539,2,0,L|8:312,1,132.999995941162,14|0,0:0|0:0,0:0:0:0:
248,208,180870,2,0,L|256:56,1,132.999995941162,14|0,0:0|0:0,0:0:0:0:
432,56,181201,2,0,L|504:56,1,66.4999979705811,10|0,0:1|0:0,0:0:0:0:
248,344,181422,6,0,P|176:312|168:184,1,199.499993911743,14|8,0:0|0:0,0:0:0:0:
344,200,181863,2,0,L|360:360,1,132.999995941162,8|2,0:1|0:0,0:0:0:0:
448,328,182194,1,8,0:0:0:0:
344,200,182304,2,0,L|240:200,2,66.4999979705811,2|8|8,0:0|0:1|0:0,0:0:0:0:
192,312,182745,1,8,0:1:0:0:
344,328,182966,2,2,L|440:328,1,66.4999979705811
192,328,183186,6,0,L|40:328,2,132.999995941162,14|8|8,0:0|0:0|0:1,0:0:0:0:
16,296,183738,1,2,0:0:0:0:
192,272,183848,2,0,L|104:272,1,66.4999979705811,2|2,0:0|0:0,0:0:0:0:
304,144,184069,2,0,L|416:144,2,66.4999979705811,8|8|8,0:0|0:1|0:0,0:0:0:0:
160,144,184510,1,8,0:1:0:0:
456,272,184730,2,2,L|464:176,1,66.4999979705811
248,288,184951,6,2,L|240:184,1,88.6666639607748,14|2,0:0|0:0,0:0:0:0:
32,192,185245,1,2,0:0:0:0:
248,160,185392,2,0,L|256:48,1,88.6666639607748,10|2,0:1|0:0,0:0:0:0:
464,72,185686,1,2,0:0:0:0:
248,328,185833,1,10,0:0:0:0:
480,328,185980,1,0,0:0:0:0:
352,304,186127,1,2,0:0:0:0:
120,248,186274,1,10,0:1:0:0:
248,200,186422,1,2,0:0:0:0:
32,152,186569,1,2,0:0:0:0:
248,104,186716,6,0,L|392:104,1,132.999995941162,14|0,0:0|0:0,0:0:0:0:
304,176,187047,1,8,0:0:0:0:
472,280,187157,1,10,0:1:0:0:
304,336,187267,1,2,0:0:0:0:
216,304,187377,1,10,0:0:0:0:
384,248,187488,1,2,0:0:0:0:
216,208,187598,1,10,0:0:0:0:
304,176,187708,1,8,0:0:0:0:
216,144,187819,1,10,0:0:0:0:
384,72,187929,1,2,0:0:0:0:
208,64,188039,1,12,0:3:0:0:
136,96,188149,1,8,0:3:0:0:
352,256,188260,1,4,0:3:0:0:
424,224,188370,1,4,0:3:0:0:
200,280,188480,5,14,0:0:0:0:
280,232,188591,1,2,0:0:0:0:
200,208,188701,1,10,0:0:0:0:
280,160,188811,1,2,0:0:0:0:
80,168,188922,2,0,L|72:80,1,66.4999979705811,10|0,0:1|0:0,0:0:0:0:
280,64,189142,1,10,0:0:0:0:
200,48,189252,1,2,0:0:0:0:
384,160,189363,1,10,0:0:0:0:
464,144,189473,1,2,0:0:0:0:
280,232,189583,1,2,0:0:0:0:
464,288,189694,1,2,0:0:0:0:
296,320,189804,6,2,L|248:272,2,44.3333319803874,10|2|2,0:1|0:0|0:0,0:0:0:0:
160,264,190024,2,2,L|96:264,2,44.3333319803874
344,256,190245,6,0,L|336:152,1,66.4999979705811,14|0,0:0|0:0,0:0:0:0:
256,184,190466,1,0,0:0:0:0:
80,152,190576,1,10,0:0:0:0:
256,80,190686,2,0,L|344:80,1,66.4999979705811,8|0,0:1|0:0,0:0:0:0:
152,272,190907,2,0,L|56:272,1,66.4999979705811,10|0,0:0|0:0,0:0:0:0:
280,272,191127,1,10,0:0:0:0:
448,176,191238,2,0,L|352:176,1,66.4999979705811,10|0,0:1|0:0,0:0:0:0:
152,176,191458,2,0,L|48:176,2,66.4999979705811,10|8|0,0:0|0:1|0:0,0:0:0:0:
320,112,191789,2,0,L|408:112,1,66.4999979705811,10|0,0:0|0:0,0:0:0:0:
88,56,192010,6,0,L|256:56,2,132.999995941162,14|2|8,0:0|0:0|0:1,0:0:0:0:
288,344,192672,1,8,0:0:0:0:
232,288,192782,1,8,0:1:0:0:
232,224,192892,1,8,0:0:0:0:
288,176,193002,1,8,0:1:0:0:
368,160,193113,1,10,0:0:0:0:
408,120,193186,1,2,0:0:0:0:
368,88,193260,1,2,0:0:0:0:
216,88,193333,1,10,0:1:0:0:
288,88,193444,1,2,0:0:0:0:
120,208,193554,1,2,0:0:0:0:
88,184,193609,1,2,0:0:0:0:
120,160,193664,1,2,0:0:0:0:
336,336,193774,6,0,L|480:336,1,132.999995941162,14|0,0:0|0:0,0:0:0:0:
296,216,194105,2,0,L|208:216,1,66.4999979705811,8|8,0:3|0:0,0:0:0:0:
384,128,194363,1,2,0:0:0:0:
112,128,194510,1,2,0:0:0:0:
384,64,194657,2,0,L|392:232,1,132.999995941162,14|0,0:0|0:0,0:0:0:0:
152,224,194988,2,0,L|72:224,1,66.4999979705811,8|4,0:3|0:3,0:0:0:0:
264,312,195245,1,2,0:0:0:0:
496,304,195392,1,2,0:0:0:0:
264,256,195539,6,0,L|104:256,1,132.999995941162,14|0,0:0|0:0,0:0:0:0:
304,112,195870,2,0,L|384:112,1,66.4999979705811,2|8,0:0|0:3,0:0:0:0:
88,112,196201,1,4,0:3:0:0:
408,328,196422,6,2,L|464:328,2,44.3333319803874,14|2|2,0:0|0:0|0:0,0:0:0:0:
256,320,196642,2,2,L|208:320,2,44.3333319803874
408,216,196863,2,2,L|464:216,1,33.2499989852906,10|2,0:1|0:0,0:0:0:0:
312,152,196973,2,2,L|256:152,1,33.2499989852906
408,88,197083,2,2,L|480:88,1,66.4999979705811,10|2,0:0|0:0,0:0:0:0:
216,32,197304,6,0,L|48:32,1,142.500005435944,14|0,0:0|0:0,0:0:0:0:
248,144,197635,2,0,L|432:144,1,142.500005435944,10|0,0:0|0:0,0:0:0:0:
312,192,197966,1,2,0:0:0:0:
496,240,198076,1,2,0:0:0:0:
312,328,198186,2,0,L|112:328,1,190,14|0,0:1|0:0,0:0:0:0:
424,64,198517,2,0,L|208:64,1,190,10|0,0:0|0:0,0:0:0:0:
320,128,198848,1,2,0:0:0:0:
96,136,198958,1,2,0:0:0:0:
192,136,199069,6,0,L|504:136,1,285.000010871888,14|0,0:1|0:0,0:0:0:0:
304,224,199399,2,0,L|-32:224,1,285.000010871888,14|0,0:0|0:0,0:0:0:0:
240,160,199730,2,0,L|256:64,1,71.2500027179719,14|0,0:0|0:0,0:0:0:0:
456,88,199951,1,10,0:0:0:0:
120,288,208199,6,0,P|80:184|152:144,1,202.666666666667,10|0,0:0|0:0,0:0:0:0:
248,136,208659,1,10,0:0:0:0:
88,88,208965,1,2,0:0:0:0:
88,88,209118,1,2,0:0:0:0:
336,144,209424,1,2,0:0:0:0:
144,232,209730,1,2,0:0:0:0:
464,264,210036,5,10,0:0:0:0:
352,256,210189,2,0,L|344:144,1,101.333333333333,2|0,0:0|0:0,0:0:0:0:
240,152,210495,1,2,0:0:0:0:
344,154,210648,2,0,L|352:42,1,101.333333333333,2|0,0:0|0:0,0:0:0:0:
224,336,210955,2,0,L|216:216,1,101.333333333333,10|0,0:0|0:0,0:0:0:0:
328,240,211261,1,2,0:0:0:0:
224,200,211414,1,2,0:0:0:0:
384,144,211720,1,0,0:0:0:0:
96,64,211873,6,0,L|88:288,1,202.666666666667,10|0,0:0|0:0,0:0:0:0:
192,344,212332,2,0,L|304:296,2,101.333333333333,8|2|0,0:0|0:0|0:0,0:0:0:0:
312,344,212791,1,2,0:0:0:0:
144,344,213097,1,2,0:0:0:0:
272,296,213250,1,2,0:0:0:0:
272,272,213557,1,2,0:0:0:0:
56,264,213710,6,0,P|24:216|136:120,1,202.666666666667,10|0,0:0|0:0,0:0:0:0:
200,112,214169,2,0,L|208:248,1,101.333333333333,2|0,0:0|0:0,0:0:0:0:
312,216,214475,1,8,0:0:0:0:
96,312,214628,2,0,L|256:312,1,101.333333333333,10|8,0:1|0:1,0:0:0:0:
408,160,214934,2,0,L|288:160,1,101.333333333333,8|8,0:3|0:3,0:0:0:0:
40,88,215240,2,0,L|160:88,1,101.333333333333,4|4,0:3|0:3,0:0:0:0:
416,88,215546,6,0,L|432:224,1,95,14|0,0:0|0:0,0:0:0:0:
312,208,215852,2,0,L|304:328,1,95,10|8,0:0|0:1,0:0:0:0:
192,312,216158,1,4,0:3:0:0:
304,336,216311,1,8,0:0:0:0:
64,192,216464,2,0,L|56:320,1,95,10|0,0:1|0:0,0:0:0:0:
288,272,216770,2,0,L|176:272,1,95,10|8,0:0|0:0,0:0:0:0:
408,136,217076,2,0,L|528:136,1,95,10|0,0:0|0:0,0:0:0:0:
288,48,217382,6,0,L|168:48,2,95,10|2|8,0:0|0:0|0:0,0:0:0:0:
72,112,217841,2,0,P|16:160|88:240,1,190,10|0,0:0|0:0,0:0:0:0:
288,224,218301,2,0,L|296:336,1,95,10|0,0:1|0:0,0:0:0:0:
416,320,218607,2,0,L|496:256,1,95,10|0,0:0|0:0,0:0:0:0:
264,224,218913,2,0,L|136:224,1,95,10|0,0:0|0:0,0:0:0:0:
392,144,219219,5,14,0:0:0:0:
168,104,219372,1,2,0:0:0:0:
272,128,219525,2,0,L|280:240,1,95,10|2,0:0|0:0,0:0:0:0:
64,240,219831,2,0,L|56:352,1,95,2|0,0:0|0:0,0:0:0:0:
272,328,220137,1,10,0:1:0:0:
24,360,220290,1,2,0:0:0:0:
128,360,220443,2,0,L|224:304,2,95,10|2|0,0:0|0:0|0:0,0:0:0:0:
272,352,220903,1,10,0:0:0:0:
504,248,221056,5,14,0:0:0:0:
504,248,221209,1,2,0:0:0:0:
384,248,221362,2,0,L|368:120,1,95,10|0,0:0|0:0,0:0:0:0:
160,152,221668,2,0,L|40:152,1,95,8|8,0:0|0:0,0:0:0:0:
288,320,221974,2,0,L|464:320,1,142.5,10|0,0:1|0:0,0:0:0:0:
192,240,222280,2,0,L|32:240,1,142.5,8|0,0:3|0:0,0:0:0:0:
304,120,222586,1,4,0:3:0:0:
200,88,222739,1,4,0:3:0:0:
432,48,222892,6,0,L|440:184,1,95,14|0,0:0|0:0,0:0:0:0:
192,256,223199,1,2,0:0:0:0:
304,256,223352,2,0,L|376:256,2,47.5,8|8|4,0:3|0:3|0:3,0:0:0:0:
72,320,223658,1,8,0:3:0:0:
304,320,223811,2,0,L|424:320,1,95,10|8,0:0|0:3,0:0:0:0:
184,184,224117,1,8,0:3:0:0:
184,184,224270,1,8,0:0:0:0:
72,184,224423,1,4,0:3:0:0:
288,96,224576,2,4,L|232:96,1,47.5,4|4,0:3|0:3,0:3:0:0:
56,320,224729,5,10,0:0:0:0:
152,272,224882,1,8,0:3:0:0:
56,240,225035,1,4,0:3:0:0:
288,216,225188,1,10,0:0:0:0:
160,176,225341,1,8,0:0:0:0:
288,136,225494,2,8,L|336:136,1,47.5
168,32,225648,2,0,L|160:168,1,95,10|0,0:1|0:0,0:0:0:0:
56,152,225954,2,8,L|176:152,1,95,10|8,0:0|0:0,0:0:0:0:
384,192,226260,1,10,0:0:0:0:
160,264,226413,1,4,0:3:0:0:
448,128,226566,6,0,P|488:192|432:248,1,142.5,14|0,0:0|0:0,0:0:0:0:
256,192,226872,2,0,L|256:352,1,142.5,4|0,0:3|0:0,0:0:0:0:
64,144,227178,2,0,P|24:192|64:272,1,142.5,4|0,0:3|0:0,0:0:0:0:
396,312,227484,2,0,L|244:336,1,142.5,14|0,0:1|0:0,0:0:0:0:
88,304,227790,1,8,0:0:0:0:
200,320,227943,1,8,0:0:0:0:
480,232,228097,1,8,0:3:0:0:
264,240,228250,1,4,0:3:0:0:
32,216,228403,5,14,0:1:0:0:
128,160,228556,1,0,0:0:0:0:
376,160,228709,1,10,0:0:0:0:
136,128,228862,1,0,0:0:0:0:
248,96,229015,1,8,0:0:0:0:
32,56,229168,2,8,L|112:56,1,47.5,10|8,0:0|0:0,0:0:0:0:
280,48,229321,1,10,0:1:0:0:
168,104,229474,1,8,0:3:0:0:
384,200,229627,1,8,0:0:0:0:
168,240,229780,1,8,0:3:0:0:
432,336,229933,1,4,0:3:0:0:
432,336,230086,1,4,0:3:0:0:
112,344,230239,6,0,P|56:288|112:232,1,142.5,14|0,0:0|0:0,0:0:0:0:
280,256,230546,2,0,L|392:256,1,95,10|0,0:0|0:0,0:0:0:0:
128,48,230852,2,0,L|288:48,1,142.5,10|0,0:0|0:0,0:0:0:0:
56,184,231158,1,10,0:1:0:0:
56,184,231311,1,0,0:0:0:0:
304,184,231464,1,10,0:0:0:0:
192,192,231617,1,8,0:0:0:0:
416,248,231770,2,0,P|472:272|480:376,1,142.5,10|0,0:0|0:0,0:0:0:0:
111,343,232076,6,0,P|87:255|151:247,1,142.5,14|0,0:0|0:0,0:0:0:0:
368,112,232382,2,0,B|80:112|80:112|64:280,1,427.500016307831,14|0,0:0|0:0,0:0:0:0:
368,256,232688,1,14,0:0:0:0:
144,200,233913,5,10,0:0:0:0:
416,200,235749,5,10,0:0:0:0:
184,240,236668,1,10,0:0:0:0:
464,264,237586,5,10,0:0:0:0:
296,336,238504,1,10,0:0:0:0:
136,280,238810,1,8,0:0:0:0:
312,232,239117,1,10,0:0:0:0:
48,352,239423,6,0,L|40:232,1,95,8|0,0:0|0:0,0:0:0:0:
176,256,239729,2,0,L|184:144,1,95,8|0,0:0|0:0,0:0:0:0:
320,152,240035,2,0,L|432:152,1,95,8|0,0:0|0:0,0:0:0:0:
192,56,240341,2,0,L|184:168,1,95,8|8,0:3|0:3,0:0:0:0:
240,152,240570,1,8,0:3:0:0:
72,256,240647,2,0,L|64:144,1,95,8|8,0:0|0:3,0:0:0:0:
288,152,240953,2,0,L|384:152,1,95,4|4,0:3|0:3,0:0:0:0:
160,336,241259,6,0,L|32:336,1,113.999996520996,14|0,0:0|0:0,0:0:0:0:
168,272,241565,1,8,0:1:0:0:
408,272,241718,2,0,P|456:208|376:144,1,170.999994781494,14|0,0:0|0:0,0:0:0:0:
232,136,242025,2,8,L|168:136,1,56.9999982604981
352,56,242178,2,0,L|472:56,1,113.999996520996,14|0,0:1|0:0,0:0:0:0:
232,208,242484,1,8,0:3:0:0:
464,264,242637,1,8,0:3:0:0:
232,320,242790,1,4,0:3:0:0:
344,280,242943,1,4,0:3:0:0:
72,280,243096,6,0,L|64:144,1,113.999996520996,14|0,0:0|0:0,0:0:0:0:
272,160,243326,2,0,L|344:160,1,56.9999982604981,0|8,0:3|0:3,0:0:0:0:
448,160,243555,1,8,0:0:0:0:
344,104,243708,1,4,0:3:0:0:
448,64,243861,1,4,0:3:0:0:
168,40,244014,2,0,P|96:72|104:192,1,170.999994781494,14|0,0:1|0:0,0:0:0:0:
288,168,244320,2,0,P|352:224|336:312,1,170.999994781494,10|0,0:0|0:0,0:0:0:0:
128,344,244627,2,0,L|8:344,1,113.999996520996,10|8,0:0|0:1,0:0:0:0:
288,344,244933,5,14,0:0:0:0:
160,272,245086,1,8,0:3:0:0:
216,256,245162,1,8,0:3:0:0:
272,248,245239,1,8,0:3:0:0:
8,192,245392,1,8,0:3:0:0:
240,120,245545,1,8,0:0:0:0:
128,96,245698,1,8,0:0:0:0:
368,96,245851,2,0,L|376:304,1,170.999994781494,14|0,0:1|0:0,0:0:0:0:
184,336,246157,2,0,P|80:264|80:216,1,170.999994781494,8|0,0:0|0:0,0:0:0:0:
376,216,246463,2,8,L|504:216,1,113.999996520996,8|8,0:1|0:1,0:1:0:0:
272,184,246769,5,14,0:0:0:0:
144,152,246923,1,8,0:3:0:0:
136,96,246999,1,8,0:3:0:0:
128,48,247076,1,8,0:3:0:0:
16,48,247229,1,10,0:0:0:0:
256,256,247382,1,2,0:0:0:0:
120,288,247535,1,2,0:0:0:0:
368,320,247688,2,0,L|376:160,1,113.999996520996,14|0,0:0|0:0,0:0:0:0:
440,200,247917,2,8,L|504:200,1,56.9999982604981
336,264,248147,1,8,0:3:0:0:
120,216,248300,1,4,0:3:0:0:
336,176,248453,2,4,L|416:176,1,56.9999982604981,4|4,0:3|0:3,0:3:0:0:
168,40,248606,6,0,P|112:80|200:200,1,227.999993041992,14|8,0:0|0:0,0:0:0:0:
304,200,249065,2,0,L|312:320,1,113.999996520996,10|0,0:0|0:0,0:0:0:0:
432,312,249371,1,10,0:0:0:0:
160,320,249525,2,0,L|344:320,1,170.999994781494,14|0,0:1|0:0,0:0:0:0:
264,288,249831,2,0,L|144:288,1,113.999996520996,10|8,0:0|0:1,0:0:0:0:
432,80,250137,2,0,L|296:80,1,113.999996520996,10|8,0:0|0:1,0:0:0:0:
80,64,250443,5,14,0:0:0:0:
176,104,250596,1,8,0:1:0:0:
80,152,250749,1,10,0:0:0:0:
296,328,250902,2,0,L|304:208,1,113.999996520996,8|8,0:1|0:0,0:0:0:0:
80,216,251208,1,8,0:0:0:0:
328,192,251361,2,0,L|456:192,1,113.999996520996,14|0,0:1|0:0,0:0:0:0:
224,80,251667,2,0,L|112:144,1,113.999996520996,10|8,0:0|0:1,0:0:0:0:
200,328,251974,2,0,P|104:280|112:184,1,170.999994781494,10|0,0:0|0:0,0:0:0:0:
272,224,252280,5,14,0:0:0:0:
368,168,252433,1,8,0:1:0:0:
272,128,252586,1,8,0:0:0:0:
496,320,252739,2,0,P|504:224|400:144,1,227.999993041992,10|0,0:1|0:0,0:0:0:0:
144,224,253198,2,0,L|136:104,1,113.999996520996,14|8,0:0|0:1,0:0:0:0:
24,112,253504,1,8,0:0:0:0:
264,112,253657,1,8,0:1:0:0:
24,304,253810,2,0,L|216:304,1,170.999994781494,10|0,0:0|0:0,0:0:0:0:
488,304,254116,5,14,0:0:0:0:
352,288,254423,1,10,0:0:0:0:
408,216,254576,1,8,0:1:0:0:
384,136,254729,1,10,0:0:0:0:
312,112,254882,1,8,0:1:0:0:
80,120,255035,2,0,L|72:256,1,113.999996520996,14|8,0:0|0:0,0:0:0:0:
224,240,255264,1,8,0:0:0:0:
384,176,255341,2,0,L|392:296,1,113.999996520996,10|8,0:0|0:1,0:0:0:0:
128,320,255647,2,0,L|32:248,1,113.999996520996,10|8,0:0|0:1,0:0:0:0:
248,200,255953,6,0,L|352:120,2,113.999996520996,14|8|10,0:0|0:1|0:0,0:0:0:0:
464,152,256412,2,0,L|480:384,1,227.999993041992,10|0,0:0|0:1,0:0:0:0:
264,336,256871,2,0,L|168:272,1,113.999996520996,10|0,0:1|0:1,0:0:0:0:
384,240,257178,1,10,0:0:0:0:
272,216,257331,2,0,P|288:136|432:72,1,227.999993041992,10|8,0:0|0:0,0:0:0:0:
200,64,257790,6,0,L|96:128,2,113.999996520996,14|10|8,0:0|0:1|0:0,0:0:0:0:
424,200,258249,1,10,0:1:0:0:
192,304,258402,2,0,L|80:216,1,113.999996520996,10|8,0:0|0:1,0:0:0:0:
360,344,258708,2,0,L|488:344,1,113.999996520996,14|0,0:0|0:0,0:0:0:0:
264,248,259014,1,8,0:1:0:0:
368,224,259167,1,2,0:0:0:0:
424,136,259320,1,8,0:3:0:0:
368,56,259474,2,8,L|288:56,1,56.9999982604981,8|8,0:3|0:3,0:3:0:0:
144,48,259627,6,0,L|128:192,1,113.999996520996,4|0,0:3|0:0,0:0:0:0:
8,160,259933,2,0,L|16:280,1,113.999996520996,10|2,0:0|0:0,0:0:0:0:
128,288,260239,1,10,0:0:0:0:
16,328,260392,1,2,0:0:0:0:
256,344,260545,2,0,L|384:264,1,113.999996520996,14|0,0:0|0:0,0:0:0:0:
136,168,260851,2,0,L|248:96,1,113.999996520996,10|8,0:0|0:1,0:0:0:0:
448,80,261157,2,0,L|320:80,1,113.999996520996,10|0,0:0|0:0,0:0:0:0:
112,64,261463,6,0,L|48:64,2,56.9999982604981,14|0|0,3:2|3:2|3:2,3:2:0:0:
256,72,261769,2,0,L|152:152,1,113.999996520996,10|8,0:0|0:1,0:0:0:0:
312,168,262076,2,0,L|320:320,1,113.999996520996,10|8,0:0|0:0,0:0:0:0:
72,328,262382,2,0,L|216:328,1,113.999996520996,14|0,0:1|0:0,0:0:0:0:
424,264,262688,1,8,0:0:0:0:
208,240,262841,1,8,0:1:0:0:
456,192,262994,1,8,0:3:0:0:
320,176,263147,1,8,0:3:0:0:
104,320,263300,6,0,P|48:264|136:160,1,227.999993041992,14|8,0:0|0:0,0:0:0:0:
352,152,263759,1,2,0:0:0:0:
456,112,263912,2,0,L|328:104,1,113.999996520996,10|0,0:0|0:0,0:0:0:0:
128,312,264218,2,0,L|240:248,1,113.999996520996,10|0,0:1|0:1,0:0:0:0:
112,248,264525,2,0,L|104:112,1,113.999996520996,10|8,0:0|0:1,0:0:0:0:
232,120,264831,2,0,L|104:88,1,113.999996520996,8|8,0:0|0:1,0:0:0:0:
424,152,265137,6,0,L|432:304,1,113.999996520996,14|0,0:0|0:0,0:0:0:0:
304,240,265443,2,0,L|200:312,1,113.999996520996,8|8,0:0|0:1,0:0:0:0:
432,344,265749,2,0,L|304:288,1,113.999996520996,8|8,0:0|0:0,0:0:0:0:
48,296,266055,2,0,L|304:232,1,227.999993041992,10|8,0:1|0:0,0:0:0:0:
272,192,266514,1,8,0:1:0:0:
128,160,266667,2,0,L|256:136,1,113.999996520996,10|8,0:0|0:0,0:0:0:0:
456,352,266974,6,0,L|464:224,1,113.999996520996,14|0,0:0|0:0,0:0:0:0:
240,288,267280,1,10,0:0:0:0:
352,232,267433,1,8,0:1:0:0:
240,184,267586,2,0,L|120:160,1,113.999996520996,8|8,0:0|0:0,0:0:0:0:
432,48,267892,2,0,P|480:120|376:216,1,227.999993041992,10|8,0:1|0:0,0:0:0:0:
312,208,268351,1,8,0:1:0:0:
64,272,268504,1,10,0:0:0:0:
312,328,268657,1,10,0:1:0:0:
192,296,268810,6,0,L|408:224,1,227.999993041992,10|0,0:0|0:0,0:0:0:0:
288,208,269269,1,8,0:0:0:0:
168,192,269423,2,0,L|160:64,1,113.999996520996,10|8,0:0|0:0,0:0:0:0:
416,72,269729,1,14,0:0:0:0:
24,152,270035,1,8,0:3:0:0:
288,232,270341,1,4,0:3:0:0:
168,216,270494,1,4,0:3:0:0:
400,336,270647,6,0,L|496:256,2,113.999996520996,14|2|8,0:0|0:0|0:0,0:0:0:0:
168,344,271106,2,0,L|160:216,1,113.999996520996,2|0,0:0|0:0,0:0:0:0:
56,232,271412,1,10,0:0:0:0:
320,224,271565,2,0,L|328:88,1,113.999996520996,10|0,0:1|0:0,0:0:0:0:
96,96,271871,1,10,0:0:0:0:
208,96,272025,2,0,L|8:248,1,227.999993041992,2|0,0:0|3:0,0:0:0:0:
80,232,272407,1,0,3:0:0:0:
240,224,272484,5,10,0:0:0:0:
328,272,272637,1,8,0:0:0:0:
240,320,272790,1,2,0:0:0:0:
384,344,272943,2,0,P|472:304|480:168,1,227.999993041992,10|2,0:0|0:0,0:0:0:0:
240,120,273402,2,0,P|168:200|264:272,1,227.999993041992,10|8,0:1|0:0,0:0:0:0:
360,304,273861,1,2,0:0:0:0:
240,336,274014,1,8,0:0:0:0:
112,360,274167,1,2,0:0:0:0:
376,224,274320,5,8,0:0:0:0:
376,224,274474,1,8,0:0:0:0:
240,200,274627,2,0,L|352:144,1,113.999996520996,2|0,0:0|0:0,0:0:0:0:
496,152,274933,2,0,L|392:88,1,113.999996520996,10|0,0:0|0:0,0:0:0:0:
160,72,275239,2,0,L|152:320,1,227.999993041992,10|0,0:1|0:0,0:0:0:0:
32,304,275698,1,8,0:0:0:0:
288,336,275851,2,0,L|400:264,1,113.999996520996,2|0,0:0|0:0,0:0:0:0:
160,240,276157,6,0,L|144:112,1,113.999996520996,14|0,0:1|0:0,0:0:0:0:
296,152,276463,2,0,L|280:32,1,113.999996520996,8|8,0:0|0:1,0:0:0:0:
40,48,276769,2,0,L|152:104,1,113.999996520996,10|0,0:0|0:0,0:0:0:0:
416,176,277076,2,0,L|248:288,1,170.999994781494,14|0,0:0|0:0,0:0:0:0:
32,200,277382,2,0,L|184:304,1,170.999994781494,14|0,0:0|0:0,0:0:0:0:
328,304,277688,1,10,0:1:0:0:
88,344,277841,1,10,0:1:0:0:
344,352,277994,5,14,0:0:0:0:
456,304,278147,1,8,0:3:0:0:
464,248,278224,1,8,0:3:0:0:
472,192,278300,1,4,0:3:0:0:
224,192,278453,1,8,0:3:0:0:
336,176,278606,2,0,L|344:56,1,113.999996520996,8|8,0:0|0:0,0:0:0:0:
112,48,278912,2,0,P|32:96|32:184,1,170.999994781494,14|0,0:1|0:0,0:0:0:0:
224,192,279218,1,10,0:0:0:0:
336,240,279371,1,8,0:1:0:0:
216,296,279525,1,10,0:0:0:0:
472,320,279678,1,8,0:1:0:0:
216,336,279831,6,0,L|136:328,2,56.9999982604981,14|0|8,0:0|3:2|0:0,0:0:0:0:
96,320,280137,1,10,0:0:0:0:
344,312,280290,2,0,P|456:224|448:144,1,227.999993041992,10|2,0:0|0:0,0:0:0:0:
232,120,280749,2,0,L|312:96,2,75.9999976806641,14|2|2,0:0|0:0|0:0,0:0:0:0:
144,128,281055,2,0,L|136:280,1,113.999996520996,8|10,0:1|0:1,0:0:0:0:
400,208,281361,2,0,L|416:336,1,113.999996520996,10|8,0:0|0:1,0:0:0:0:
136,336,281667,6,0,L|48:264,1,113.999996520996,10|0,0:0|0:0,0:0:0:0:
176,272,281974,2,0,L|264:192,1,113.999996520996,10|8,0:0|0:1,0:0:0:0:
128,120,282280,2,0,L|8:104,1,113.999996520996,10|8,0:0|0:0,0:0:0:0:
288,352,282586,2,0,L|416:296,1,113.999996520996,8|0,0:1|0:0,0:0:0:0:
240,336,282892,2,0,P|216:256|288:216,1,170.999994781494,10|0,0:0|0:0,0:0:0:0:
504,208,283198,2,0,L|376:208,1,113.999996520996,10|8,0:1|0:0,0:0:0:0:
72,160,283504,5,14,0:0:0:0:
224,160,283810,1,10,0:0:0:0:
488,240,283963,1,8,0:1:0:0:
392,176,284116,1,10,0:0:0:0:
504,136,284269,1,10,0:0:0:0:
280,64,284423,2,0,L|352:96,2,56.9999982604981,14|2|2,0:1|0:0|0:0,0:0:0:0:
392,264,284729,1,10,0:1:0:0:
272,304,284882,1,8,0:0:0:0:
24,320,285035,1,10,0:1:0:0:
248,256,285188,1,8,0:1:0:0:
16,208,285341,1,2,0:1:0:0:
424,264,285647,6,0,P|472:200|352:96,1,227.999993041992,14|8,0:0|0:0,0:0:0:0:
304,96,286106,1,8,0:0:0:0:
56,96,286259,2,0,L|48:248,1,113.999996520996,14|0,0:1|0:0,0:0:0:0:
160,256,286565,1,10,0:0:0:0:
48,296,286718,1,10,0:1:0:0:
304,336,286871,2,0,L|456:328,1,113.999996520996,10|0,0:0|0:0,0:0:0:0:
168,176,287178,6,0,L|104:168,2,56.9999982604981,14|0|0,3:2|3:2|3:2,3:2:0:0:
384,192,287484,1,8,0:0:0:0:
168,216,287637,2,0,L|160:352,1,113.999996520996,2|0,0:0|0:0,0:0:0:0:
32,336,287943,1,8,0:0:0:0:
288,352,288096,2,0,P|360:320|384:216,1,170.999994781494,14|0,0:0|0:0,0:0:0:0:
224,208,288402,1,0,3:0:0:0:
304,160,288504,1,0,3:0:0:0:
224,136,288606,1,0,3:0:0:0:
152,112,288708,1,0,0:0:0:0:
144,48,288861,1,4,0:3:0:0:
376,80,289014,6,0,P|416:152|344:216,1,170.999994781494,14|0,0:0|0:0,0:0:0:0:
200,312,289320,2,0,L|120:304,1,56.9999982604981,8|0,0:0|0:0,0:0:0:0:
312,320,289474,2,0,L|440:264,1,113.999996520996,10|0,0:0|0:0,0:0:0:0:
296,200,289780,1,8,0:0:0:0:
80,200,289933,5,10,0:1:0:0:
48,154,290009,1,2,0:0:0:0:
64,102,290086,1,2,0:0:0:0:
116,82,290162,1,2,0:0:0:0:
184,128,290239,2,2,L|192:56,1,56.9999982604981,2|2,0:0|0:0,0:0:0:0:
116,82,290392,2,2,L|112:16,1,56.9999982604981,2|2,0:0|0:0,0:0:0:0:
256,120,290545,2,2,L|328:120,1,56.9999982604981,2|2,0:0|0:0,0:0:0:0:
128,320,290698,2,2,L|200:320,1,56.9999982604981,2|2,0:0|0:0,0:0:0:0:
376,336,290851,6,0,B|456:336|488:264|456:208|360:192|360:192|320:192|320:192|424:152|416:40|416:40|312:64|296:152|296:152|264:72|200:80|200:80|248:96|256:112,1,855.000032615663,14|2,0:0|0:0,0:0:0:0:
256,192,292841,12,0,298198,0:0:0:0:
