osu file format v14

[General]
AudioFilename: audio.mp3
AudioLeadIn: 0
PreviewTime: 61480
Countdown: 0
SampleSet: Soft
StackLeniency: 0.7
Mode: 2
LetterboxInBreaks: 0
WidescreenStoryboard: 1

[Editor]
DistanceSpacing: 1.5
BeatDivisor: 4
GridSize: 8
TimelineZoom: 1.6

[Metadata]
Title:Syndetos
TitleUnicode:Syndetos
Artist:Suzuyu
ArtistUnicode:鈴湯
Creator:-Luminate
Version:Rain
Source:ソフィーのアトリエ2 ~不思議な夢の錬金術士~
Tags:atelier sophie 2 Fushigi na Yume no Renkinjutsushi Alchemist of the Mysterious Dream video game japanese opening tatsuya yano 矢野 達也 tam yasushi asada 浅田 靖 takahiro umeda 梅田 貴博 koei tecmo gust ガスト folk
BeatmapID:4562910
BeatmapSetID:1717533

[Difficulty]
HPDrainRate:5
CircleSize:4
OverallDifficulty:9
ApproachRate:9
SliderMultiplier:1.9
SliderTickRate:2

[Events]
//Background and Video events
0,0,"bg.jpg",0,0
//Break Periods
2,200853,207599
//Storyboard Layer 0 (Background)
//Storyboard Layer 1 (Fail)
//Storyboard Layer 2 (Pass)
//Storyboard Layer 3 (Foreground)
//Storyboard Layer 4 (Overlay)
//Storyboard Sound Samples

[TimingPoints]
952,322.58064516129,3,2,4,60,1,0
1113,-100,3,2,1,60,0,0
7887,-100,3,2,1,40,0,0
7924,-100,3,2,1,40,0,0
16758,-100,3,2,2,55,0,0
23210,-100,3,2,1,55,0,0
23532,-100,3,2,2,55,0,0
25145,468.75,4,2,2,45,1,0
25145,-66.6666666666667,4,2,2,45,0,0
30770,-66.6666666666667,4,2,2,60,0,0
47652,312.5,3,2,2,65,1,1
60777,-100,3,2,2,65,0,0
61722,468.75,4,2,2,65,1,0
61722,-71.4285714285714,4,2,2,65,0,0
62659,468.75,4,2,2,70,1,1
62659,-66.6666666666667,4,2,2,70,0,1
69221,-62.5,4,2,2,70,0,1
70159,-66.6666666666667,4,2,2,58,0,0
73909,312.5,3,2,2,70,1,0
85140,312.5,3,2,4,58,1,0
85140,-100,3,2,4,58,0,0
85296,-100,3,2,2,58,0,0
92640,-100,3,2,2,65,0,0
100140,454.545454545455,4,2,3,60,1,0
100140,-71.4285714285714,4,2,3,60,0,0
103775,441.176470588235,4,2,3,60,1,0
103775,-74.0740740740741,4,2,3,60,0,0
107304,-74.0740740740741,4,2,3,46,0,0
121422,-74.0740740740741,4,2,3,58,0,0
142598,-74.0740740740741,4,2,2,60,0,0
152524,-74.0740740740741,4,2,2,48,0,0
153186,-71.4285714285714,4,2,2,68,0,1
166863,-71.4285714285714,4,2,2,68,0,0
167304,-71.4285714285714,4,2,2,68,0,1
197304,-71.4285714285714,4,2,2,70,0,1
199069,-71.4285714285714,4,2,2,75,0,1
199951,-71.4285714285714,4,2,2,58,0,0
200853,459.182502085454,4,2,2,60,1,0
208199,-62.5,4,2,2,40,0,0
214628,-62.5,4,2,2,48,0,0
215546,306.122448979592,3,2,2,57,1,0
233913,459.182502085454,4,2,2,45,1,0
239423,306.122448979592,3,2,2,55,1,0
241259,-83.3333333333333,3,2,5,70,0,1
248300,-83.3333333333333,3,2,5,70,0,0
248606,-83.3333333333333,3,2,5,65,0,1
263300,-83.3333333333333,3,2,5,63,0,0
285647,-83.3333333333333,3,2,5,70,0,0
285724,-83.3333333333333,3,2,5,63,0,0
290009,-83.3333333333333,3,2,5,47,0,0
290851,-133.333333333333,3,2,2,50,0,0
290928,-133.333333333333,3,2,2,5,0,0
292688,-133.333333333333,3,2,2,35,0,0
292841,-133.333333333333,3,2,2,30,0,0
294525,-133.333333333333,3,2,2,20,0,0
296361,-133.333333333333,3,2,2,10,0,0
297280,-133.333333333333,3,2,2,5,0,0

[Colours]
Combo1 : 204,204,204
Combo2 : 81,255,255
Combo3 : 89,234,133
Combo4 : 255,255,38

[HitObjects]
344,328,628,6,0,L|352:200,1,95,0|0,0:0|0:0,0:0:0:0:
128,224,952,2,0,L|32:152,2,95,14|2|2,0:0|0:0|0:0,0:0:0:0:
272,224,1435,2,0,P|304:104|248:80,1,190,2|2,0:0|0:0,0:0:0:0:
40,80,1919,2,0,L|160:80,1,95,14|2,0:1|0:0,0:0:0:0:
272,96,2241,1,2,0:0:0:0:
352,168,2403,1,8,0:3:0:0:
352,256,2563,1,0,0:3:0:0:
272,312,2725,1,4,0:3:0:0:
40,336,2886,6,0,L|40:120,1,190,6|0,0:0|0:0,0:0:0:0:
184,144,3370,2,0,L|368:264,1,190,2|0,0:1|0:0,0:0:0:0:
120,48,3854,1,12,0:0:0:0:
216,96,4016,1,0,0:0:0:0:
120,144,4177,1,8,0:3:0:0:
24,200,4338,1,0,0:0:0:0:
120,248,4499,1,4,0:3:0:0:
120,248,4661,1,4,0:3:0:0:
376,248,4822,6,0,L|480:248,2,95,6|2|2,0:1|0:0|0:0,0:0:0:0:
256,248,5306,2,0,P|224:128|280:104,1,190,2|2,0:0|0:0,0:0:0:0:
504,72,5790,2,0,L|384:72,1,95,6|0,0:1|0:0,0:0:0:0:
296,80,6112,1,2,0:0:0:0:
384,144,6274,1,8,0:3:0:0:
384,240,6435,1,0,0:0:0:0:
296,280,6596,1,4,0:3:0:0:
56,328,6757,6,0,P|56:256|160:200,1,190,6|2,0:1|0:1,0:0:0:0:
288,192,7241,2,0,P|336:160|272:56,1,190,0|2,0:0|0:0,0:0:0:0:
32,56,7725,5,14,0:1:0:0:
32,56,7886,1,0,3:0:0:0:
128,296,8048,2,0,L|192:264,1,47.5,0|0,3:0|3:0,0:0:0:0:
168,216,8209,2,0,L|120:184,1,47.5,0|0,3:0|3:0,0:0:0:0:
88,152,8370,2,0,L|144:112,1,47.5,0|0,3:0|3:0,0:0:0:0:
280,120,8532,2,0,L|352:120,1,47.5,0|0,3:0|3:0,0:0:0:0:
176,56,8693,5,8,0:1:0:0:
280,120,9016,1,8,0:3:0:0:
56,192,9338,1,4,0:3:0:0:
472,192,9661,5,2,0:0:0:0:
288,312,9983,2,0,L|280:96,1,190,2|2,0:0|0:0,0:0:0:0:
192,120,10467,1,0,0:0:0:0:
88,112,10628,2,0,L|80:344,1,190,2|0,0:0|0:0,0:0:0:0:
208,304,11112,2,0,L|376:176,1,190,2|0,0:0|0:0,0:0:0:0:
208,200,11596,6,0,P|168:88|208:64,1,190,2|0,0:0|0:0,0:0:0:0:
344,328,12080,2,0,P|424:296|448:176,1,190,2|0,0:0|0:0,0:0:0:0:
296,200,12564,1,2,0:0:0:0:
424,200,12886,1,2,0:1:0:0:
296,144,13209,2,0,L|288:32,1,95,2|0,0:0|0:0,0:0:0:0:
424,328,13531,6,0,P|480:280|408:200,1,190,2|0,0:0|0:0,0:0:0:0:
296,168,14015,2,0,L|112:304,1,190,2|0,0:0|0:0,0:0:0:0:
296,288,14499,1,2,0:0:0:0:
296,120,14822,1,2,0:1:0:0:
176,256,15144,2,0,L|296:256,1,95,2|0,0:0|0:0,0:0:0:0:
416,264,15467,6,0,L|256:120,1,190,2|0,0:0|0:0,0:0:0:0:
112,192,15951,2,0,P|64:96|128:56,1,190,2|0,0:0|0:0,0:0:0:0:
216,56,16435,1,2,0:0:0:0:
320,56,16757,1,8,0:3:0:0:
48,152,17080,1,4,0:3:0:0:
472,336,17402,6,0,L|480:200,1,95,14|0,0:0|0:0,0:0:0:0:
336,240,17725,2,0,L|200:240,1,95,10|2,0:0|0:0,0:0:0:0:
72,240,18048,1,2,0:0:0:0:
136,176,18209,1,8,0:0:0:0:
72,128,18370,1,10,0:1:0:0:
200,128,18531,1,2,0:0:0:0:
320,128,18693,2,0,L|328:240,1,95,2|2,0:0|0:0,0:0:0:0:
440,224,19177,1,2,0:0:0:0:
184,344,19338,6,0,L|176:152,1,190,10|0,0:0|0:0,0:0:0:0:
320,264,19822,2,0,P|376:192|296:120,1,190,2|2,0:0|0:0,0:0:0:0:
64,128,20306,1,8,0:1:0:0:
200,128,20628,1,10,0:0:0:0:
64,128,20951,2,0,L|56:240,1,95,2|2,0:0|0:0,0:0:0:0:
288,328,21273,6,0,P|240:200|168:192,1,190,10|2,0:0|0:0,0:0:0:0:
64,200,21757,2,0,L|216:48,1,190,2|2,0:0|0:0,0:0:0:0:
328,272,22241,2,0,L|184:128,2,190,8|2|2,0:1|0:0|0:0,0:0:0:0:
64,344,23209,6,0,L|56:240,1,95,2|0,3:2|3:0,0:0:0:0:
144,248,23531,1,0,0:0:0:0:
280,248,23693,2,0,P|368:200|384:104,1,190,2|0,0:0|0:0,0:0:0:0:
144,112,24177,1,10,0:1:0:0:
144,112,24499,1,8,0:0:0:0:
48,136,24660,2,0,L|40:248,1,95,8|4,0:3|0:3,0:0:0:0:
424,320,25145,6,0,P|496:248|400:104,1,285.000010871888,14|0,0:0|0:0,0:0:0:0:
312,104,25847,1,8,0:0:0:0:
480,344,26082,2,0,L|336:176,2,213.750008153916,10|2|10,0:0|0:0|0:0,0:0:0:0:
256,352,27020,6,0,P|184:240|312:152,1,285.000010871888,10|0,0:0|0:0,0:0:0:0:
368,152,27722,1,8,0:0:0:0:
184,344,27956,2,0,L|16:168,2,213.750008153916,10|2|2,0:0|0:0|0:0,0:0:0:0:
376,336,28894,6,0,L|216:176,2,213.750008153916,10|2|2,0:0|0:0|0:0,0:0:0:0:
240,320,29714,1,2,0:0:0:0:
168,320,29831,2,0,P|64:224|144:120,1,285.000010871888,10|0,0:0|0:0,0:0:0:0:
464,304,30769,6,0,L|472:120,1,142.500005435944,6|0,0:0|0:0,0:0:0:0:
328,136,31120,2,0,L|176:136,1,142.500005435944,8|0,0:3|0:0,0:0:0:0:
288,224,31472,2,0,L|376:224,1,71.2500027179719,4|0,0:3|0:0,0:0:0:0:
120,192,31706,2,0,L|112:360,1,142.500005435944,8|8,0:1|0:0,0:0:0:0:
192,328,32058,1,0,0:0:0:0:
320,328,32175,2,0,L|400:272,2,71.2500027179719,8|4|12,0:1|0:3|0:3,0:0:0:0:
16,328,32644,6,0,L|128:216,2,142.500005435944,14|0|8,0:0|0:0|0:0,0:0:0:0:
216,336,33347,1,8,0:1:0:0:
72,336,33581,1,2,0:0:0:0:
216,336,33815,2,0,L|224:176,1,142.500005435944,8|8,0:0|0:1,0:0:0:0:
104,192,34284,2,0,L|96:120,1,71.2500027179719,10|2,0:0|0:0,0:0:0:0:
304,120,34519,6,0,L|512:120,1,142.500005435944,10|8,0:0|0:0,0:0:0:0:
336,328,34870,2,0,P|248:256|248:152,1,213.750008153916,8|2,0:1|0:0,0:0:0:0:
416,160,35456,2,0,L|480:96,2,71.2500027179719,10|0|0,0:0|0:0|0:0,0:0:0:0:
336,160,35808,1,8,0:0:0:0:
416,160,35925,2,0,L|424:312,1,142.500005435944,8|0,0:1|0:0,0:0:0:0:
336,304,36276,1,2,0:0:0:0:
136,344,36394,6,0,L|296:176,2,213.750008153916,14|2|2,0:0|0:0|0:0,0:0:0:0:
368,352,37331,2,0,L|376:176,1,142.500005435944,10|0,0:1|0:0,0:0:0:0:
240,200,37683,1,2,0:0:0:0:
160,176,37800,2,0,L|152:80,1,71.2500027179719,0|0,0:0|0:0,0:0:0:0:
288,56,38034,2,0,L|208:56,1,71.2500027179719,2|0,0:0|0:0,0:0:0:0:
32,64,38269,6,0,L|24:208,1,142.500005435944,2|8,0:0|0:0,0:0:0:0:
216,264,38737,1,0,0:0:0:0:
144,288,38854,1,0,0:0:0:0:
72,320,38972,1,8,0:1:0:0:
280,352,39206,1,2,0:0:0:0:
160,320,39440,2,0,L|152:232,1,71.2500027179719,8|0,0:0|0:0,0:0:0:0:
280,240,39675,2,0,L|472:240,1,142.500005435944,8|0,0:1|0:0,0:0:0:0:
96,352,40144,6,0,L|272:192,1,213.750008153916,14|2,0:0|0:0,0:0:0:0:
160,168,40612,1,8,0:0:0:0:
336,168,40847,2,0,L|344:272,1,71.2500027179719,8|0,0:1|0:0,0:0:0:0:
147,321,41081,2,0,P|91:241|187:169,1,213.750008153916,14|10,0:0|0:0,0:0:0:0:
312,104,41550,2,0,L|200:104,1,71.2500027179719,8|0,0:3|0:0,0:0:0:0:
120,48,41784,2,0,L|224:48,1,71.2500027179719,4|0,0:3|0:0,0:0:0:0:
368,48,42019,5,14,0:0:0:0:
216,192,42370,2,0,L|296:192,1,71.2500027179719,8|10,0:1|0:0,0:0:0:0:
432,192,42722,2,0,P|464:136|408:72,1,142.500005435944,8|8,0:1|0:0,0:0:0:0:
352,48,43073,1,8,0:1:0:0:
352,112,43190,1,8,0:0:0:0:
424,144,43308,1,8,0:0:0:0:
288,208,43425,1,8,0:1:0:0:
424,224,43659,1,10,0:0:0:0:
128,344,43894,6,0,L|120:184,1,142.500005435944,14|0,0:0|0:0,0:0:0:0:
232,208,44245,2,0,L|392:208,1,142.500005435944,8|0,0:3|0:0,0:0:0:0:
296,88,44597,2,0,L|216:88,1,71.2500027179719,8|0,0:3|0:0,0:0:0:0:
432,328,44831,2,0,L|440:160,1,142.500005435944,8|0,0:1|0:0,0:0:0:0:
336,160,45183,2,0,L|480:112,1,142.500005435944,8|0,0:3|0:0,0:0:0:0:
384,88,45534,2,0,L|288:88,1,71.2500027179719,4|0,0:3|0:0,0:0:0:0:
48,96,45769,5,14,0:0:0:0:
80,200,45925,1,0,0:0:0:0:
248,184,46081,1,8,0:0:0:0:
216,288,46237,1,0,0:0:0:0:
56,328,46394,1,8,0:0:0:0:
160,320,46550,1,0,0:0:0:0:
432,312,46706,5,8,0:1:0:0:
272,256,47019,1,10,0:3:0:0:
192,208,47175,1,8,0:3:0:0:
200,120,47331,1,4,0:3:0:0:
272,80,47487,1,4,0:3:0:0:
496,320,47652,6,0,P|480:240|384:176,1,190,14|10,0:0|0:0,0:0:0:0:
248,232,48119,1,8,0:1:0:0:
160,224,48276,2,0,L|152:96,1,95,10|8,0:0|0:0,0:0:0:0:
288,144,48588,2,0,L|296:32,1,95,10|0,0:1|0:0,0:0:0:0:
72,40,48901,2,0,L|176:40,1,95,10|0,0:0|0:1,0:0:0:0:
312,40,49213,2,0,L|448:40,1,95,8|0,0:0|0:0,0:0:0:0:
192,256,49526,6,0,P|144:160|216:120,1,190,14|0,0:0|0:0,0:0:0:0:
336,120,49994,2,0,L|408:48,2,95,10|2|8,0:1|0:0|0:0,0:0:0:0:
80,336,50463,2,0,P|32:264|96:200,1,190,12|8,0:1|0:0,0:0:0:0:
208,240,50932,1,8,0:1:0:0:
296,240,51088,2,0,L|304:120,1,95,10|0,0:0|0:1,0:0:0:0:
88,240,51401,5,14,0:0:0:0:
16,192,51557,1,2,0:0:0:0:
88,136,51713,1,8,0:0:0:0:
248,336,51869,2,0,P|352:288|360:192,1,190,2|8,0:0|0:0,0:0:0:0:
136,232,52338,2,0,L|128:112,1,95,14|0,0:1|0:0,0:0:0:0:
256,112,52651,2,0,L|376:112,1,95,10|8,0:0|0:0,0:0:0:0:
224,40,52963,2,0,L|120:40,1,95,8|0,0:1|0:0,0:0:0:0:
352,304,53276,6,0,P|432:280|472:168,1,190,14|2,0:0|0:0,0:0:0:0:
336,176,53744,1,8,0:1:0:0:
248,160,53901,1,10,0:0:0:0:
240,80,54057,1,8,0:0:0:0:
464,32,54213,2,0,L|360:32,1,95,8|0,0:1|0:0,0:0:0:0:
96,24,54526,2,0,L|88:128,1,95,8|8,3:0|0:3,0:0:0:0:
216,88,54838,1,4,0:3:0:0:
88,144,54994,1,4,0:3:0:0:
320,328,55151,6,0,P|376:240|296:192,1,190,14|2,0:0|0:0,0:0:0:0:
176,192,55619,1,8,0:1:0:0:
264,176,55776,2,0,L|272:64,1,95,10|8,0:0|0:0,0:0:0:0:
56,288,56088,2,0,L|48:168,1,95,12|0,0:1|0:0,0:0:0:0:
192,120,56401,2,0,L|72:120,1,95,10|8,0:0|0:1,0:0:0:0:
240,40,56713,2,0,L|344:40,1,95,10|0,0:0|0:0,0:0:0:0:
104,216,57026,6,0,P|56:168|120:88,1,190,10|0,0:0|0:0,0:0:0:0:
256,240,57494,1,8,0:1:0:0:
408,184,57651,2,0,L|328:96,1,95,10|8,0:0|0:0,0:0:0:0:
208,48,57963,2,0,L|104:48,1,95,8|0,0:1|0:0,0:0:0:0:
264,104,58276,2,0,L|272:224,1,95,10|0,0:0|0:0,0:0:0:0:
136,248,58588,2,0,L|16:248,1,95,10|0,0:0|0:0,0:0:0:0:
256,352,58901,6,0,P|312:288|230:212,1,190,14|0,0:0|0:0,0:0:0:0:
88,208,59369,1,10,0:1:0:0:
16,152,59526,1,8,0:0:0:0:
88,104,59682,1,10,0:0:0:0:
320,96,59838,2,0,L|424:96,1,95,14|0,0:1|0:0,0:0:0:0:
280,160,60151,2,0,L|168:160,1,95,8|0,0:0|0:0,0:0:0:0:
320,240,60463,1,8,0:1:0:0:
184,288,60619,1,8,0:1:0:0:
416,128,60776,6,0,P|472:208|392:264,1,190,14|0,0:0|3:0,0:0:0:0:
360,264,61166,2,0,L|288:264,1,47.5,0|0,3:0|3:0,0:0:0:0:
368,304,61480,1,2,0:0:0:0:
288,304,61596,1,2,0:0:0:0:
88,344,61722,6,0,L|88:200,1,132.999995941162,14|0,0:0|0:0,0:0:0:0:
152,208,62072,1,8,0:0:0:0:
336,208,62189,2,0,L|472:136,1,132.999995941162,12|0,0:1|0:0,0:0:0:0:
160,48,62659,6,0,L|48:136,1,142.500005435944,14|0,0:0|0:0,0:0:0:0:
136,144,63009,1,8,0:1:0:0:
216,160,63126,1,8,0:0:0:0:
48,224,63361,2,0,L|144:232,1,71.2500027179719,10|0,0:1|0:0,0:0:0:0:
296,280,63595,1,10,0:0:0:0:
368,240,63712,1,8,0:1:0:0:
368,152,63829,1,2,0:0:0:0:
296,128,63947,1,8,0:0:0:0:
152,72,64064,2,0,L|144:232,1,142.500005435944,10|10,0:1|0:0,0:0:0:0:
440,176,64533,6,0,L|448:360,1,142.500005435944,10|0,0:0|0:0,0:0:0:0:
368,320,64884,1,8,0:1:0:0:
448,320,65001,1,10,0:0:0:0:
272,344,65236,2,0,L|184:344,1,71.2500027179719,10|0,0:1|0:0,0:0:0:0:
288,272,65470,2,0,L|441:272,1,142.500005435944,10|0,0:0|0:0,0:0:0:0:
344,216,65822,2,0,L|288:168,2,71.2500027179719,2|8|0,0:0|0:1|0:0,0:0:0:0:
432,216,66173,1,2,0:0:0:0:
88,312,66408,5,14,0:0:0:0:
32,256,66525,1,0,0:0:0:0:
40,192,66642,1,8,0:0:0:0:
112,160,66759,1,8,0:0:0:0:
296,160,66876,1,12,0:1:0:0:
368,152,66993,1,8,0:1:0:0:
176,80,67111,1,2,0:0:0:0:
280,96,67345,2,0,L|288:248,1,142.500005435944,10|2,0:0|0:0,0:0:0:0:
208,240,67697,1,0,0:0:0:0:
328,352,67814,1,8,0:1:0:0:
400,320,67931,1,0,0:0:0:0:
432,256,68048,1,2,0:0:0:0:
400,192,68165,1,0,0:0:0:0:
208,320,68283,6,0,L|72:216,1,142.500005435944,14|0,0:0|0:0,0:0:0:0:
232,208,68634,1,10,0:0:0:0:
304,168,68751,1,8,0:1:0:0:
304,96,68868,1,8,0:0:0:0:
168,40,68986,2,0,L|256:40,1,71.2500027179719,10|0,0:0|0:0,0:0:0:0:
424,32,69221,2,0,L|280:120,1,152,10|0,0:0|0:0,0:0:0:0:
160,144,69572,2,0,L|312:240,1,152,10|0,0:0|0:0,0:0:0:0:
424,232,69923,2,0,L|496:184,1,76,10|0,0:0|0:0,0:0:0:0:
240,352,70159,6,0,L|232:200,1,142.500005435944,14|0,0:0|0:0,0:0:0:0:
320,208,70509,1,8,0:3:0:0:
232,209,70626,2,0,L|136:104,1,142.500005435944,4|2,0:3|0:0,0:0:0:0:
328,112,71095,2,0,L|392:64,2,71.2500027179719,4|8|4,0:3|0:3|0:3,0:0:0:0:
32,176,71564,1,14,0:1:0:0:
32,176,71798,1,2,0:0:0:0:
408,168,72033,6,0,L|416:328,1,142.500005435944,14|8,0:0|0:0,0:0:0:0:
328,296,72384,1,8,0:3:0:0:
256,248,72501,2,0,L|408:248,1,142.500005435944,4|2,0:3|0:0,0:0:0:0:
328,216,72853,1,2,0:0:0:0:
136,224,72970,2,0,L|128:40,1,142.500005435944,14|0,0:0|0:0,0:0:0:0:
240,72,73322,2,0,L|304:32,2,71.2500027179719,2|8|8,0:0|0:3|0:3,0:0:0:0:
128,72,73673,2,0,L|40:32,1,71.2500027179719,4|0,0:3|0:0,0:0:0:0:
297,43,73908,5,14,0:0:0:0:
176,136,74220,1,2,0:0:0:0:
176,136,74376,1,2,0:0:0:0:
288,184,74533,2,0,L|376:224,1,95,2|8,0:0|0:0,0:0:0:0:
160,336,74845,2,0,L|64:280,1,95,14|0,0:0|0:0,0:0:0:0:
200,272,75158,2,0,L|208:168,1,95,8|8,0:0|0:0,0:0:0:0:
81,136,75470,2,0,L|177:136,1,95,10|0,0:0|0:0,0:0:0:0:
416,88,75783,6,0,L|296:88,1,95,14|0,0:0|0:0,0:0:0:0:
320,160,76095,1,2,0:0:0:0:
440,208,76251,1,8,0:1:0:0:
320,256,76408,1,8,0:0:0:0:
320,256,76564,1,8,0:0:0:0:
88,256,76720,2,0,P|40:200|136:128,1,190,8|8,0:1|0:0,0:0:0:0:
256,328,77345,2,0,L|152:328,1,95,10|0,0:0|0:0,0:0:0:0:
392,264,77658,6,0,P|440:200|376:120,1,190,14|2,0:0|0:0,0:0:0:0:
304,120,78126,1,8,0:0:0:0:
144,96,78283,2,0,L|240:96,1,95,10|0,0:0|0:0,0:0:0:0:
384,192,78595,2,0,L|288:192,1,95,10|0,0:1|0:0,0:0:0:0:
192,192,78908,2,0,L|184:320,1,95,8|8,0:0|0:1,0:0:0:0:
304,304,79220,1,10,0:0:0:0:
184,328,79376,1,8,0:0:0:0:
416,344,79533,6,0,L|424:232,1,95,14|0,0:0|0:0,0:0:0:0:
288,240,79845,2,0,L|176:240,1,95,8|8,0:0|0:0,0:0:0:0:
40,232,80158,2,0,L|32:104,1,95,10|0,0:0|0:0,0:0:0:0:
248,128,80470,2,8,L|320:128,2,47.5,8|8|8,0:1|0:0|0:0,0:0:0:0:
120,72,80783,2,0,L|224:72,1,95,8|2,0:0|0:0,0:0:0:0:
344,24,81095,2,0,L|240:24,1,95,10|0,0:0|0:0,0:0:0:0:
480,160,81408,5,10,0:0:0:0:
480,248,81564,1,2,0:0:0:0:
400,272,81720,1,2,0:0:0:0:
248,336,81876,2,0,L|232:128,1,190,8|8,0:0|0:0,0:0:0:0:
368,144,82345,2,0,L|448:80,1,95,8|0,0:1|0:0,0:0:0:0:
368,272,82658,2,0,L|264:200,1,95,0|0,3:0|3:0,0:0:0:0:
424,192,82970,1,8,0:0:0:0:
424,192,83126,1,0,0:0:0:0:
128,280,83284,6,0,P|88:224|152:168,1,142.5,14|0,0:0|0:0,0:0:0:0:
192,176,83596,2,0,L|200:304,1,95,8|8,0:3|0:0,0:0:0:0:
48,272,83909,1,4,0:3:0:0:
464,296,84221,1,12,0:1:0:0:
336,240,84377,1,0,0:0:0:0:
456,200,84534,2,0,L|464:96,1,95,0|8,3:0|0:3,0:0:0:0:
336,72,84846,1,4,0:3:0:0:
464,48,85002,1,4,0:3:0:0:
208,48,85140,6,0,L|200:176,1,95,6|0,0:0|0:0,0:0:0:0:
320,144,85452,2,0,L|328:264,1,95,10|0,0:0|0:0,0:0:0:0:
208,296,85765,2,0,L|80:288,1,95,10|2,0:0|0:0,0:0:0:0:
352,344,86077,2,0,L|488:328,1,95,10|0,0:0|0:0,0:0:0:0:
336,280,86390,1,10,0:0:0:0:
192,232,86546,2,0,L|312:224,1,95,2|8,0:0|0:0,0:0:0:0:
376,216,86858,1,2,0:0:0:0:
152,224,87015,6,0,P|96:152|184:88,1,190,10|8,0:0|0:0,0:0:0:0:
304,88,87483,2,0,L|224:152,2,95,2|8|2,0:0|0:0|0:0,0:0:0:0:
152,152,87952,2,0,L|136:280,1,95,10|0,0:0|0:0,0:0:0:0:
272,232,88265,2,0,L|288:360,1,95,8|0,0:0|0:0,0:0:0:0:
160,336,88577,1,10,0:0:0:0:
280,336,88733,1,2,0:0:0:0:
16,256,88890,5,10,0:0:0:0:
168,192,89202,1,10,0:0:0:0:
72,152,89358,2,0,L|64:48,1,95,2|8,0:0|0:0,0:0:0:0:
192,48,89671,1,2,0:0:0:0:
64,48,89827,2,0,L|240:184,1,190,10|8,0:0|0:0,0:0:0:0:
96,216,90296,1,2,0:0:0:0:
208,304,90452,2,0,L|216:176,1,95,10|0,0:0|0:0,0:0:0:0:
472,208,90765,5,14,0:0:0:0:
192,208,92015,1,8,0:3:0:0:
392,208,92327,1,4,0:3:0:0:
392,208,92483,1,4,0:3:0:0:
168,336,92640,6,0,L|160:200,1,95,4|8,0:3|0:3,0:0:0:0:
48,240,92952,1,4,0:3:0:0:
272,176,93108,2,0,L|368:104,2,95,10|0|8,0:0|0:0|0:0,0:0:0:0:
488,320,93577,1,14,0:0:0:0:
344,288,93733,1,2,0:0:0:0:
488,256,93890,1,2,0:0:0:0:
416,208,94046,1,8,0:3:0:0:
416,120,94202,1,4,0:3:0:0:
488,80,94358,1,10,0:0:0:0:
264,72,94515,6,0,L|208:72,2,47.5,10|0|0,3:2|3:2|3:2,0:0:0:0:
384,136,94827,1,8,0:3:0:0:
264,184,94983,2,0,L|144:184,1,95,2|8,0:0|0:3,0:0:0:0:
304,280,95296,1,4,0:3:0:0:
48,288,95452,6,0,L|40:160,1,95,14|0,0:0|0:0,0:0:0:0:
304,208,95765,2,0,L|312:72,1,95,10|0,0:0|0:0,0:0:0:0:
192,112,96077,1,2,3:2:0:0:
408,192,96233,1,10,0:0:0:0:
184,296,96390,2,0,L|72:296,1,95,14|0,0:0|0:0,0:0:0:0:
200,240,96702,1,10,0:0:0:0:
328,240,96858,2,0,L|456:240,1,95,0|10,3:0|0:0,0:0:0:0:
200,144,97171,1,8,0:3:0:0:
320,176,97327,6,0,L|328:312,1,95,14|0,0:2|0:3,0:0:0:0:
72,328,97640,2,0,L|64:192,1,95,10|8,0:0|0:3,0:0:0:0:
184,200,97952,1,4,0:3:0:0:
64,176,98108,1,0,3:0:0:0:
288,328,98265,6,0,L|424:328,1,95,10|0,0:0|0:0,0:0:0:0:
248,168,98577,2,0,L|128:168,1,95,10|8,0:0|0:3,0:0:0:0:
280,64,98890,1,4,0:3:0:0:
152,48,99046,1,10,0:0:0:0:
280,144,99202,2,0,L|296:280,1,95,14|0,0:0|0:0,0:0:0:0:
72,304,99515,2,0,L|176:304,1,95,10|8,0:0|0:3,0:0:0:0:
384,304,99827,2,0,L|464:224,1,95,4|0,0:3|0:0,0:0:0:0:
184,136,100140,6,0,L|64:200,2,132.999995941162,14|8|8,0:0|0:0|0:1,0:0:0:0:
472,144,100821,2,0,P|440:264|304:336,1,265.999991882324,14|8,0:0|0:3,0:0:0:0:
456,336,101503,2,0,L|384:336,1,66.4999979705811,8|0,0:1|0:0,0:0:0:0:
200,336,101730,6,0,P|136:288|240:160,1,265.999991882324,14|8,0:0|0:0,0:0:0:0:
280,160,102299,1,0,0:0:0:0:
456,96,102412,2,0,L|360:96,1,66.4999979705811,8|8,0:1|0:1,0:0:0:0:
216,88,102640,2,0,P|112:120|64:272,1,265.999991882324,14|8,0:0|0:0,0:0:0:0:
136,264,103208,1,8,0:0:0:0:
344,264,103321,2,0,L|488:264,1,132.999995941162,10|0,0:1|0:0,0:0:0:0:
192,176,103775,5,14,0:0:0:0:
328,160,103995,1,0,3:0:0:0:
352,128,104068,1,0,3:0:0:0:
352,80,104142,1,0,3:0:0:0:
320,56,104215,1,8,0:1:0:0:
32,288,104436,2,0,P|32:192|184:128,1,256.50000097847,14|8,0:0|0:0,0:0:0:0:
32,48,105098,2,0,L|120:48,1,64.1250002446175,8|0,0:1|0:0,0:0:0:0:
312,72,105319,6,0,P|384:144|272:248,1,256.50000097847,14|8,0:0|0:0,0:0:0:0:
240,256,105870,1,0,0:0:0:0:
416,336,105980,2,0,L|424:248,1,64.1250002446175,14|0,0:1|0:0,0:0:0:0:
240,256,106201,2,0,L|160:256,1,64.1250002446175,2|0,0:0|0:0,0:0:0:0:
352,184,106422,1,12,0:3:0:0:
448,120,106569,1,8,0:3:0:0:
352,64,106716,1,4,0:3:0:0:
136,64,106863,2,0,L|128:200,1,128.250000489235,10|0,0:1|0:0,0:0:0:0:
440,336,107304,6,0,L|208:184,1,256.50000097847,14|8,0:0|0:0,0:0:0:0:
384,160,107966,1,2,0:0:0:0:
225,195,108186,2,0,L|217:339,1,128.250000489235,10|0,0:0|0:0,0:0:0:0:
384,200,108627,2,0,L|392:344,1,128.250000489235,10|0,0:0|0:0,0:0:0:0:
166,335,109069,6,0,L|422:175,1,256.50000097847,10|8,0:0|0:0,0:0:0:0:
216,192,109730,1,2,0:0:0:0:
383,199,109951,2,0,L|159:39,1,256.50000097847,10|10,0:0|0:0,0:0:0:0:
328,56,110613,1,2,0:0:0:0:
48,56,110833,6,0,L|32:360,1,256.50000097847,10|8,0:0|0:0,0:0:0:0:
224,312,111495,1,2,0:0:0:0:
48,280,111716,1,10,0:0:0:0:
144,224,111936,1,2,0:0:0:0:
48,184,112157,1,10,0:0:0:0:
232,160,112377,1,0,0:0:0:0:
48,104,112598,6,0,L|216:104,1,128.250000489235,10|0,0:0|0:0,0:0:0:0:
352,200,113039,2,0,L|192:200,1,128.250000489235,10|0,0:0|0:0,0:0:0:0:
376,64,113480,2,0,L|520:64,1,128.250000489235,8|0,0:0|0:0,0:0:0:0:
328,168,113922,2,0,L|320:344,1,128.250000489235,8|0,0:0|0:0,0:0:0:0:
40,344,114363,6,0,L|48:184,1,128.250000489235,14|0,0:0|0:0,0:0:0:0:
120,208,114694,2,0,L|208:208,1,64.1250002446175,0|0,3:0|3:0,0:0:0:0:
288,208,115025,1,2,0:0:0:0:
120,176,115245,2,0,L|112:48,1,128.250000489235,10|0,0:0|0:0,0:0:0:0:
176,40,115576,2,0,L|80:40,1,64.1250002446175,2|8,0:0|0:0,0:0:0:0:
296,264,115907,2,0,L|392:264,1,64.1250002446175,2|2,0:0|0:0,0:0:0:0:
176,336,116127,6,0,L|8:336,1,128.250000489235,10|0,0:0|0:0,0:0:0:0:
176,288,116458,2,0,L|328:288,1,128.250000489235,2|0,0:0|0:0,0:0:0:0:
232,240,116789,1,2,0:0:0:0:
304,224,116900,1,2,0:0:0:0:
376,200,117010,2,0,L|272:104,2,128.250000489235,10|0|8,0:0|0:0|0:0,0:0:0:0:
512,200,117672,1,2,0:0:0:0:
232,128,117892,6,0,L|224:272,1,128.250000489235,10|0,0:0|0:0,0:0:0:0:
384,208,118333,2,0,L|376:352,1,128.250000489235,8|2,0:0|0:0,0:0:0:0:
224,336,118774,2,0,L|360:336,1,128.250000489235,10|0,0:0|0:0,0:0:0:0:
192,256,119216,1,10,0:0:0:0:
352,208,119436,1,2,0:0:0:0:
32,192,119657,6,0,P|32:120|184:32,1,256.50000097847,10|8,0:0|0:0,0:0:0:0:
336,112,120319,2,0,L|248:112,1,64.1250002446175,2|2,0:0|0:0,0:0:0:0:
192,168,120539,2,0,L|328:168,1,128.250000489235,10|0,0:0|0:0,0:0:0:0:
168,280,120980,1,10,0:1:0:0:
328,280,121201,2,0,L|416:280,1,64.1250002446175,2|2,0:0|0:0,0:0:0:0:
200,352,121422,6,0,L|48:352,1,128.250000489235,14|0,0:0|0:0,0:0:0:0:
144,288,121752,2,0,L|232:288,1,64.1250002446175,8|10,0:0|0:1,0:0:0:0:
80,160,122083,2,0,L|8:160,1,64.1250002446175,2|0,0:0|0:0,0:0:0:0:
216,64,122304,2,0,L|224:240,1,128.250000489235,10|2,0:0|0:0,0:0:0:0:
144,208,122635,1,8,0:0:0:0:
224,216,122745,1,10,0:1:0:0:
416,216,122966,2,0,L|344:216,1,64.1250002446175,2|0,0:0|0:0,0:0:0:0:
144,344,123186,6,0,L|0:344,1,128.250000489235,14|0,0:0|0:0,0:0:0:0:
96,296,123517,2,0,L|176:296,1,64.1250002446175,8|8,0:0|0:1,0:0:0:0:
32,184,123848,1,2,0:0:0:0:
312,184,124069,2,0,L|320:336,1,128.250000489235,10|0,0:0|0:0,0:0:0:0:
392,312,124399,2,0,L|456:312,1,64.1250002446175,8|8,0:0|0:1,0:0:0:0:
256,288,124730,2,0,L|160:288,1,64.1250002446175,2|2,0:0|0:0,0:0:0:0:
432,248,124951,6,0,L|440:104,1,128.250000489235,14|0,0:0|0:0,0:0:0:0:
368,120,125282,2,0,L|272:120,1,64.1250002446175,2|8,0:0|0:1,0:0:0:0:
112,120,125613,2,0,L|192:120,1,64.1250002446175,10|0,0:0|0:0,0:0:0:0:
384,192,125833,2,0,L|224:192,1,128.250000489235,10|0,0:0|0:0,0:0:0:0:
328,240,126164,2,0,L|336:336,1,64.1250002446175,8|8,0:0|0:1,0:0:0:0:
184,304,126495,1,2,0:0:0:0:
504,104,126716,6,0,L|320:216,1,192.375000733852,14|8,0:0|0:0,0:0:0:0:
248,216,127157,2,0,L|432:216,1,128.250000489235,8|2,0:1|0:0,0:0:0:0:
72,344,127598,1,10,0:0:0:0:
0,288,127745,1,2,0:0:0:0:
72,232,127892,1,2,0:0:0:0:
296,224,128039,1,10,0:1:0:0:
368,168,128186,1,2,0:0:0:0:
296,112,128333,1,2,0:0:0:0:
80,64,128480,6,0,L|72:216,1,128.250000489235,14|0,0:0|0:0,0:0:0:0:
160,192,128811,2,0,L|168:272,1,64.1250002446175,8|8,0:3|0:0,0:0:0:0:
24,296,129142,1,2,0:0:0:0:
320,296,129363,2,0,L|176:296,1,128.250000489235,10|0,0:0|0:0,0:0:0:0:
264,256,129694,2,0,L|280:160,1,64.1250002446175,8|4,0:3|0:3,0:0:0:0:
424,192,130024,2,0,L|504:192,1,64.1250002446175,2|0,0:0|0:0,0:0:0:0:
304,96,130245,6,0,L|160:96,1,128.250000489235,14|0,0:0|0:0,0:0:0:0:
88,160,130576,2,0,L|248:160,1,128.250000489235,2|0,0:0|0:0,0:0:0:0:
128,240,130907,2,0,L|16:240,1,64.1250002446175,2|0,0:0|0:0,0:0:0:0:
280,320,131127,2,0,L|424:320,1,128.250000489235,10|0,0:0|0:0,0:0:0:0:
320,272,131458,1,8,0:3:0:0:
408,272,131569,2,0,L|416:136,1,128.250000489235,8|10,0:0|0:0,0:0:0:0:
120,144,132010,6,0,L|112:304,1,128.250000489235,14|0,0:0|0:0,0:0:0:0:
232,200,132341,2,0,L|240:344,1,128.250000489235,8|0,0:3|0:0,0:0:0:0:
128,336,132672,2,0,L|24:336,1,64.1250002446175,10|0,0:0|0:0,0:0:0:0:
256,144,132892,2,0,L|336:144,2,64.1250002446175,8|4|0,0:3|0:3|0:0,0:0:0:0:
440,192,133333,2,0,L|448:344,1,128.250000489235,10|0,0:0|0:0,0:0:0:0:
168,336,133774,6,0,L|160:192,1,128.250000489235,14|0,0:0|0:0,0:0:0:0:
80,200,134105,2,0,L|16:200,1,64.1250002446175,8|8,0:0|0:0,0:0:0:0:
200,120,134436,1,8,0:3:0:0:
24,56,134657,2,0,L|160:56,1,128.250000489235,4|0,0:3|0:0,0:0:0:0:
240,96,134988,2,0,L|136:96,2,64.1250002446175,10|8|0,0:0|0:0|0:0,0:0:0:0:
352,112,135319,2,0,L|360:216,1,64.1250002446175,10|0,0:0|0:0,0:0:0:0:
160,304,135539,6,0,L|24:304,1,128.250000489235,14|0,0:0|0:0,0:0:0:0:
104,264,135870,1,0,0:0:0:0:
296,264,135980,2,0,L|432:264,1,128.250000489235,10|2,0:0|0:0,0:0:0:0:
248,160,136422,2,0,L|344:64,2,128.250000489235,10|8|8,0:0|0:3|0:0,0:0:0:0:
424,216,137083,1,2,0:0:0:0:
144,328,137304,6,0,L|136:152,1,128.250000489235,14|0,0:0|0:0,0:0:0:0:
296,232,137745,2,0,L|304:80,1,128.250000489235,10|0,0:0|0:0,0:0:0:0:
24,64,138186,2,0,L|168:80,1,128.250000489235,10|0,0:0|0:0,0:0:0:0:
256,80,138517,2,0,L|408:64,1,128.250000489235,2|0,0:0|0:0,0:0:0:0:
488,152,138848,2,0,L|400:152,1,64.1250002446175,10|0,0:0|0:0,0:0:0:0:
216,184,139069,6,0,L|208:352,1,128.250000489235,14|0,0:0|0:0,0:0:0:0:
360,192,139510,2,0,L|368:336,1,128.250000489235,8|2,0:0|0:0,0:0:0:0:
296,320,139841,1,2,0:0:0:0:
168,320,139951,2,0,L|280:231,2,128.250000489235,10|8|8,0:0|0:3|0:0,0:0:0:0:
304,320,140613,1,2,0:0:0:0:
24,304,140833,6,0,P|24:192|120:136,1,192.375000733852,14|0,0:0|0:0,0:0:0:0:
200,144,141274,1,10,0:0:0:0:
272,192,141422,1,2,0:0:0:0:
200,240,141569,1,2,0:0:0:0:
408,328,141716,2,0,L|416:160,1,128.250000489235,10|0,0:0|0:0,0:0:0:0:
272,144,142157,1,10,0:0:0:0:
416,112,142377,1,10,0:0:0:0:
32,80,142598,6,0,L|24:232,1,128.250000489235,14|0,0:0|0:0,0:0:0:0:
136,176,143039,2,0,L|144:336,1,128.250000489235,8|0,3:2|3:2,3:2:0:0:
424,96,143480,2,0,P|488:136|496:240,1,171.000000652313,14|0,0:1|0:0,0:0:0:0:
376,296,143922,1,8,0:3:0:0:
320,240,144069,1,8,0:3:0:0:
376,184,144216,1,4,0:3:0:0:
160,344,144363,6,0,P|80:312|56:200,1,171.000000652313,14|0,0:0|0:0,0:0:0:0:
176,216,144804,1,0,3:0:0:0:
264,176,144951,1,0,3:0:0:0:
264,88,145098,1,0,3:0:0:0:
48,104,145245,2,0,L|40:256,1,128.250000489235,14|0,0:1|3:1,0:0:0:0:
344,256,145686,1,8,0:3:0:0:
272,272,145833,1,8,0:3:0:0:
200,288,145980,1,4,0:3:0:0:
432,328,146127,6,0,L|440:176,1,128.250000489235,14|0,0:0|0:0,0:0:0:0:
304,192,146569,2,0,L|296:56,1,128.250000489235,8|0,0:0|0:0,0:0:0:0:
16,264,147010,2,0,L|168:248,1,128.250000489235,14|0,0:1|0:0,0:0:0:0:
264,208,147451,2,0,L|120:192,1,128.250000489235,10|0,0:0|0:0,0:0:0:0:
440,336,147892,6,0,P|488:280|392:208,1,192.375000733852,14|0,0:0|0:0,0:0:0:0:
336,192,148333,2,0,L|328:64,1,128.250000489235,8|0,0:0|0:0,0:0:0:0:
48,64,148774,2,0,L|40:200,1,128.250000489235,14|0,0:1|0:0,0:0:0:0:
184,232,149216,1,8,0:0:0:0:
40,280,149436,1,2,0:0:0:0:
320,344,149657,6,0,L|464:328,1,128.250000489235,14|0,0:0|0:0,0:0:0:0:
320,264,149988,2,0,L|152:248,1,128.250000489235,10|0,0:0|0:0,0:0:0:0:
312,200,150319,2,0,L|392:192,1,64.1250002446175,10|0,0:0|0:0,0:0:0:0:
160,72,150539,2,0,L|152:240,1,128.250000489235,14|0,0:1|0:0,0:0:0:0:
264,256,150870,2,0,L|96:256,1,128.250000489235,10|0,0:0|0:0,0:0:0:0:
32,320,151201,2,0,L|112:320,1,64.1250002446175,10|0,0:0|0:0,0:0:0:0:
296,320,151422,6,0,L|448:320,1,128.250000489235,14|0,0:1|0:0,0:0:0:0:
240,184,151752,2,0,L|72:176,1,128.250000489235,10|0,0:0|0:0,0:0:0:0:
304,72,152083,2,0,L|368:64,1,64.1250002446175,10|0,0:0|0:0,0:0:0:0:
160,40,152304,1,14,0:1:0:0:
272,144,152524,2,0,L|336:128,2,42.7500001630783,8|8|8,3:0|3:0|3:0,0:0:0:0:
224,160,152745,2,0,L|216:240,1,64.1250002446175,8|8,0:3|0:3,0:0:0:0:
392,232,152966,2,0,L|408:320,1,64.1250002446175,4|4,0:3|0:3,0:0:0:0:
200,328,153186,6,0,L|32:312,1,132.999995941162,14|0,0:0|0:0,0:0:0:0:
136,272,153517,2,0,L|216:264,1,66.4999979705811,8|8,0:0|0:1,0:0:0:0:
72,128,153848,2,0,L|168:120,1,66.4999979705811,10|0,0:0|0:0,0:0:0:0:
320,120,154069,1,10,0:0:0:0:
392,128,154179,2,0,L|400:272,1,132.999995941162,8|8,0:1|0:0,0:0:0:0:
224,328,154510,2,0,L|216:232,1,66.4999979705811,8|0,0:1|0:0,0:0:0:0:
392,304,154730,2,0,L|480:296,1,66.4999979705811,10|8,0:0|0:3,0:0:0:0:
232,240,154951,6,0,L|80:216,2,132.999995941162,14|8|8,0:0|0:0|0:1,0:0:0:0:
88,336,155613,2,0,L|8:352,1,66.4999979705811,10|8,0:0|0:0,0:0:0:0:
200,288,155833,1,10,0:0:0:0:
243,240,155943,1,8,0:1:0:0:
237,176,156053,1,10,0:0:0:0:
176,144,156163,1,8,0:0:0:0:
240,104,156274,1,10,0:1:0:0:
400,80,156495,2,0,L|408:160,1,66.4999979705811,10|8,0:0|0:0,0:0:0:0:
232,288,156716,5,14,0:0:0:0:
160,256,156826,2,0,L|312:240,1,132.999995941162,8|10,0:0|0:0,0:0:0:0:
376,216,157157,2,0,L|288:200,1,66.4999979705811,8|0,0:1|0:0,0:0:0:0:
136,160,157377,2,0,L|40:144,1,66.4999979705811,10|0,0:0|0:0,0:0:0:0:
256,96,157598,2,0,L|336:80,2,66.4999979705811,10|8|8,0:0|0:1|0:0,0:0:0:0:
320,144,157929,2,0,L|400:160,1,66.4999979705811,8|8,0:0|0:1,0:0:0:0:
96,280,158260,1,10,0:0:0:0:
384,344,158480,6,0,L|384:184,1,132.999995941162,14|10,0:0|0:0,0:0:0:0:
304,208,158811,1,8,0:0:0:0:
136,152,158922,2,0,L|232:144,1,66.4999979705811,8|0,0:1|0:0,0:0:0:0:
384,104,159142,2,0,L|296:96,1,66.4999979705811,10|8,0:0|0:3,0:0:0:0:
128,88,159363,6,0,P|56:128|56:248,1,177.33332792155,8|8,0:3|0:3,0:0:0:0:
248,336,159804,1,8,0:3:0:0:
328,280,159951,1,8,0:3:0:0:
248,232,160098,1,4,0:3:0:0:
464,72,160245,6,0,L|472:168,1,66.4999979705811,14|0,0:0|0:0,0:0:0:0:
424,240,160466,2,0,L|328:240,1,66.4999979705811,8|8,0:0|0:0,0:0:0:0:
264,320,160686,2,0,L|448:320,1,132.999995941162,8|10,0:1|0:0,0:0:0:0:
112,256,161127,1,10,0:0:0:0:
32,248,161238,2,0,L|24:96,1,132.999995941162,8|8,0:1|0:0,0:0:0:0:
216,152,161569,2,0,L|224:64,1,66.4999979705811,10|2,0:1|0:1,0:0:0:0:
48,48,161789,2,0,L|120:40,1,66.4999979705811,10|0,0:0|0:0,0:0:0:0:
312,40,162010,5,14,0:0:0:0:
384,80,162120,1,8,0:1:0:0:
408,152,162230,1,10,0:0:0:0:
384,224,162341,1,8,0:0:0:0:
312,256,162451,1,8,0:1:0:0:
448,320,162672,2,0,L|368:320,1,66.4999979705811,10|0,0:0|0:0,0:0:0:0:
192,312,162892,1,10,0:0:0:0:
112,288,163002,2,0,L|104:144,1,132.999995941162,8|8,0:1|0:0,0:0:0:0:
296,184,163333,2,0,L|304:72,1,66.4999979705811,8|0,0:1|0:1,0:0:0:0:
392,96,163554,2,0,L|480:96,1,66.4999979705811,8|8,0:3|0:3,0:0:0:0:
272,320,163774,5,14,0:0:0:0:
216,286,163884,1,2,0:0:0:0:
199,223,163994,1,8,0:0:0:0:
230,166,164104,1,8,0:0:0:0:
291,145,164215,1,8,0:1:0:0:
168,64,164436,2,0,L|264:64,1,66.4999979705811,2|10,0:0|0:0,0:0:0:0:
416,64,164657,1,10,0:0:0:0:
488,128,164767,2,0,L|328:128,1,132.999995941162,8|2,0:0|0:0,0:0:0:0:
448,192,165098,2,0,L|456:296,1,66.4999979705811,8|0,0:1|0:0,0:0:0:0:
280,336,165319,2,0,L|208:336,1,66.4999979705811,8|0,0:3|0:0,0:0:0:0:
40,248,165539,6,0,L|32:96,1,132.999995941162,14|8,0:0|0:0,0:0:0:0:
216,104,165870,2,0,L|368:104,1,132.999995941162,14|0,0:0|0:0,0:0:0:0:
272,176,166201,1,10,0:0:0:0:
352,208,166311,1,10,0:0:0:0:
176,344,166422,2,0,P|128:272|216:208,1,199.499993911743,10|8,0:0|0:0,0:0:0:0:
272,160,166863,2,0,L|120:160,1,132.999995941162,8|8,0:1|0:3,0:0:0:0:
456,336,167304,5,14,0:0:0:0:
472,256,167414,1,0,0:0:0:0:
376,240,167524,1,2,0:0:0:0:
368,160,167635,1,8,0:0:0:0:
464,144,167745,1,8,0:1:0:0:
296,336,167966,2,0,L|200:336,1,66.4999979705811,10|0,0:0|0:0,0:0:0:0:
400,112,168186,2,0,L|504:112,2,66.4999979705811,8|8|4,0:0|0:3|0:3,0:0:0:0:
224,120,168517,2,0,L|136:120,2,66.4999979705811,8|8|0,0:0|0:1|0:0,0:0:0:0:
352,192,168848,2,0,L|360:280,1,66.4999979705811,10|0,0:0|0:0,0:0:0:0:
152,336,169069,5,14,0:0:0:0:
88,280,169179,1,8,0:1:0:0:
96,208,169289,1,10,0:0:0:0:
168,168,169399,1,8,0:0:0:0:
80,144,169510,1,8,0:1:0:0:
272,280,169730,2,0,L|384:280,1,66.4999979705811,10|0,0:0|0:0,0:0:0:0:
168,88,169951,2,0,L|48:88,2,66.4999979705811,10|8|0,0:0|0:1|0:0,0:0:0:0:
336,88,170282,1,8,0:0:0:0:
416,104,170392,2,0,L|432:208,1,66.4999979705811,8|0,0:1|0:0,0:0:0:0:
256,288,170613,2,0,L|184:288,1,66.4999979705811,10|8,0:0|0:0,0:0:0:0:
408,336,170833,5,14,0:0:0:0:
446,284,170943,1,0,0:0:0:0:
432,221,171053,1,2,0:0:0:0:
375,190,171163,1,8,0:0:0:0:
304,144,171274,2,0,L|392:144,1,66.4999979705811,8|0,0:1|0:0,0:0:0:0:
200,280,171495,2,0,L|120:280,1,66.4999979705811,10|0,0:0|0:0,0:0:0:0:
208,240,171716,1,8,0:0:0:0:
288,200,171826,1,8,0:1:0:0:
328,120,171936,1,10,0:0:0:0:
328,40,172047,1,8,0:0:0:0:
160,40,172157,1,8,0:1:0:0:
280,280,172377,2,0,L|352:280,1,66.4999979705811,10|0,0:0|0:0,0:0:0:0:
136,336,172598,6,0,L|8:288,1,132.999995941162,14|0,0:0|0:0,0:0:0:0:
208,176,172929,2,0,L|344:232,1,132.999995941162,10|0,0:0|0:0,0:0:0:0:
232,280,173260,2,0,L|152:280,1,66.4999979705811,10|0,0:0|0:0,0:0:0:0:
360,328,173480,1,8,0:3:0:0:
448,288,173591,2,0,L|456:144,1,132.999995941162,4|8,0:3|0:3,0:0:0:0:
256,64,173922,2,0,L|336:64,1,66.4999979705811,8|8,0:3|0:3,0:0:0:0:
504,328,174142,2,0,L|424:328,1,66.4999979705811,4|4,0:3|0:3,0:0:0:0:
216,320,174363,5,14,0:0:0:0:
176,264,174473,1,0,0:0:0:0:
192,192,174583,1,10,0:0:0:0:
248,152,174694,1,8,0:0:0:0:
320,144,174804,1,8,0:1:0:0:
464,264,175024,2,0,L|384:264,1,66.4999979705811,10|0,0:0|0:0,0:0:0:0:
216,224,175245,1,8,0:0:0:0:
280,200,175355,1,8,0:1:0:0:
344,192,175466,1,10,0:0:0:0:
200,112,175686,1,8,0:1:0:0:
344,48,175907,2,0,L|264:48,1,66.4999979705811,10|0,0:0|0:0,0:0:0:0:
64,48,176127,6,0,L|56:136,1,66.4999979705811,14|8,0:0|0:1,0:0:0:0:
144,112,176348,2,0,L|152:208,1,66.4999979705811,10|0,0:0|0:0,0:0:0:0:
48,200,176569,1,8,0:1:0:0:
192,288,176789,2,0,L|304:288,1,66.4999979705811,10|2,0:0|0:0,0:0:0:0:
440,288,177010,1,10,0:0:0:0:
443,221,177120,1,8,0:1:0:0:
447,155,177230,1,0,0:0:0:0:
312,176,177341,1,8,0:0:0:0:
248,104,177451,1,8,0:1:0:0:
312,48,177561,1,0,0:0:0:0:
432,40,177672,2,0,L|440:128,1,66.4999979705811,10|0,0:0|0:0,0:0:0:0:
224,104,177892,5,14,0:0:0:0:
400,192,178333,1,10,0:1:0:0:
328,200,178443,1,2,0:0:0:0:
256,208,178553,1,8,0:0:0:0:
328,240,178664,1,2,0:0:0:0:
152,336,178774,1,10,0:0:0:0:
72,312,178885,2,0,L|64:152,1,132.999995941162,8|8,0:1|0:0,0:0:0:0:
240,128,179216,2,0,L|328:128,1,66.4999979705811,10|0,0:1|0:0,0:0:0:0:
128,40,179436,2,0,L|48:40,1,66.4999979705811,10|0,0:0|0:0,0:0:0:0:
240,256,179657,6,0,L|384:256,1,132.999995941162,14|2,0:0|0:0,0:0:0:0:
304,312,179988,2,0,L|216:312,1,66.4999979705811,8|8,0:0|0:1,0:0:0:0:
400,352,180319,1,10,0:0:0:0:
104,352,180539,2,0,L|96:176,1,132.999995941162,14|0,0:0|0:0,0:0:0:0:
328,160,180870,2,0,L|184:160,1,132.999995941162,14|0,0:0|0:0,0:0:0:0:
24,96,181201,2,0,L|96:96,1,66.4999979705811,10|0,0:1|0:0,0:0:0:0:
272,96,181422,6,0,P|320:176|248:248,1,199.499993911743,14|8,0:0|0:0,0:0:0:0:
184,248,181863,1,8,0:1:0:0:
328,328,182083,2,0,L|416:320,1,66.4999979705811,2|8,0:0|0:0,0:0:0:0:
168,184,182304,2,0,L|80:168,2,66.4999979705811,2|8|8,0:0|0:1|0:0,0:0:0:0:
312,248,182745,1,8,0:1:0:0:
160,328,182966,2,0,L|80:328,1,66.4999979705811,2|2,0:0|0:0,0:0:0:0:
312,344,183186,6,0,L|440:272,2,132.999995941162,14|8|8,0:0|0:0|0:1,0:0:0:0:
232,320,183738,1,2,0:0:0:0:
296,264,183848,1,2,0:0:0:0:
232,224,183958,1,2,0:0:0:0:
48,208,184069,2,0,L|56:104,1,66.4999979705811,8|8,0:0|0:1,0:0:0:0:
120,136,184289,1,8,0:0:0:0:
264,96,184510,1,8,0:1:0:0:
120,32,184730,2,0,L|216:32,1,66.4999979705811,2|2,0:0|0:0,0:0:0:0:
368,48,184951,6,0,L|376:200,1,88.6666639607748,14|2,0:0|0:0,0:0:0:0:
288,136,185245,1,2,0:0:0:0:
64,336,185392,2,0,L|56:208,1,88.6666639607748,10|2,0:1|0:0,0:0:0:0:
152,248,185686,1,2,0:0:0:0:
376,256,185833,2,0,L|472:184,2,88.6666639607748,10|2|2,0:0|0:0|0:0,0:0:0:0:
152,248,186274,2,0,L|56:168,2,88.6666639607748,10|2|2,0:1|0:0|0:0,0:0:0:0:
376,344,186716,6,0,P|432:256|360:192,1,199.499993911743,14|8,0:0|0:0,0:0:0:0:
280,192,187157,2,0,L|136:192,1,132.999995941162,10|10,0:1|0:0,0:0:0:0:
224,152,187488,1,2,0:0:0:0:
56,136,187598,2,0,L|48:64,1,66.4999979705811,10|8,0:0|0:0,0:0:0:0:
224,64,187819,2,0,L|328:64,1,66.4999979705811,10|2,0:0|0:0,0:0:0:0:
208,128,188039,2,0,L|200:208,1,66.4999979705811,12|8,0:3|0:3,0:0:0:0:
384,192,188260,2,0,L|456:192,1,66.4999979705811,4|4,0:3|0:3,0:0:0:0:
272,344,188480,5,14,0:0:0:0:
208,312,188591,1,2,0:0:0:0:
272,280,188701,1,10,0:0:0:0:
336,256,188811,1,2,0:0:0:0:
272,232,188922,1,10,0:1:0:0:
208,216,189032,1,0,0:0:0:0:
272,160,189142,1,10,0:0:0:0:
208,136,189252,1,2,0:0:0:0:
32,112,189363,2,0,L|120:112,1,66.4999979705811,10|2,0:0|0:0,0:0:0:0:
288,48,189583,2,0,L|208:48,1,66.4999979705811,2|2,0:0|0:0,0:0:0:0:
48,48,189804,5,10,0:1:0:0:
24,84,189877,1,2,0:0:0:0:
26,127,189951,1,2,0:0:0:0:
55,160,190024,1,2,0:0:0:0:
336,160,190245,6,0,L|496:160,1,132.999995941162,14|0,0:0|0:0,0:0:0:0:
264,232,190576,2,0,L|160:232,1,66.4999979705811,10|8,0:0|0:1,0:0:0:0:
376,336,190907,2,0,L|456:336,1,66.4999979705811,10|0,0:0|0:0,0:0:0:0:
264,184,191127,2,0,L|96:184,1,132.999995941162,10|0,0:0|0:0,0:0:0:0:
216,160,191458,1,10,0:0:0:0:
408,160,191569,2,0,L|416:320,1,132.999995941162,8|10,0:1|0:0,0:0:0:0:
128,336,192010,6,0,L|256:224,2,132.999995941162,14|2|8,0:0|0:0|0:1,0:0:0:0:
296,344,192672,1,8,0:0:0:0:
336,288,192782,1,8,0:1:0:0:
320,216,192892,1,8,0:0:0:0:
248,176,193002,1,8,0:1:0:0:
216,104,193113,1,10,0:0:0:0:
256,40,193223,1,0,0:0:0:0:
424,176,193333,2,0,L|344:176,1,66.4999979705811,10|2,0:1|0:0,0:0:0:0:
184,176,193554,2,0,L|96:176,1,66.4999979705811,10|2,0:0|0:0,0:0:0:0:
312,328,193774,6,0,L|488:328,1,132.999995941162,14|0,0:0|0:0,0:0:0:0:
264,240,194105,2,0,L|160:240,1,66.4999979705811,8|8,0:3|0:0,0:0:0:0:
336,160,194363,1,2,0:0:0:0:
336,80,194510,1,2,0:0:0:0:
80,80,194657,2,0,L|72:232,1,132.999995941162,14|0,0:0|0:0,0:0:0:0:
256,248,194988,2,0,L|360:248,1,66.4999979705811,8|4,0:3|0:3,0:0:0:0:
184,168,195246,1,2,0:0:0:0:
184,88,195393,1,2,0:0:0:0:
456,88,195539,6,0,L|464:264,1,132.999995941162,14|0,0:0|0:0,0:0:0:0:
384,224,195870,1,2,0:0:0:0:
312,232,195980,1,8,0:3:0:0:
480,280,196201,1,4,0:3:0:0:
184,352,196422,5,14,0:0:0:0:
150,323,196495,1,2,0:0:0:0:
135,282,196569,1,2,0:0:0:0:
141,238,196642,1,2,0:0:0:0:
167,203,196716,1,2,0:0:0:0:
207,185,196789,1,2,0:0:0:0:
272,136,196863,2,0,L|192:136,1,66.4999979705811,10|0,0:1|0:0,0:0:0:0:
32,72,197083,2,0,L|128:72,1,66.4999979705811,10|2,0:0|0:0,0:0:0:0:
272,72,197304,6,0,L|408:120,1,132.999995941162,14|0,0:0|0:0,0:0:0:0:
224,200,197635,1,10,0:0:0:0:
352,208,197966,2,0,L|360:280,1,66.4999979705811,2|2,0:0|0:0,0:0:0:0:
192,336,198186,2,0,L|56:264,1,132.999995941162,14|0,0:1|0:0,0:0:0:0:
248,208,198517,1,10,0:0:0:0:
120,80,198848,2,0,L|112:160,1,66.4999979705811,2|2,0:0|0:0,0:0:0:0:
288,224,199069,6,0,L|424:192,1,132.999995941162,14|0,0:1|0:0,0:0:0:0:
320,160,199399,2,0,L|160:128,1,132.999995941162,14|0,0:0|0:0,0:0:0:0:
368,336,199730,2,0,L|376:248,1,66.4999979705811,14|0,0:0|0:0,0:0:0:0:
184,248,199951,1,10,0:0:0:0:
136,320,208199,6,0,L|120:96,1,202.666666666667,10|0,0:0|0:0,0:0:0:0:
272,112,208659,2,0,L|280:248,1,101.333333333333,10|0,0:0|0:0,0:0:0:0:
352,216,208965,1,2,0:0:0:0:
424,224,209118,1,2,0:0:0:0:
424,224,209424,1,2,0:0:0:0:
304,280,209730,1,2,0:0:0:0:
424,328,210036,5,10,0:0:0:0:
312,320,210189,2,0,L|136:296,1,101.333333333333,2|0,0:0|0:0,0:0:0:0:
344,248,210495,2,0,L|440:192,1,101.333333333333,2|2,0:0|0:0,0:0:0:0:
240,224,210955,2,0,P|208:192|320:96,1,202.666666666667,10|2,0:0|0:0,0:0:0:0:
376,88,211414,2,0,L|384:256,1,101.333333333333,2|0,0:0|0:0,0:0:0:0:
256,184,211720,1,0,0:0:0:0:
128,288,211873,6,0,P|48:216|200:88,1,304,10|8,0:0|0:0,0:0:0:0:
200,56,212485,1,2,0:0:0:0:
144,32,212638,1,0,0:0:0:0:
280,32,212791,1,2,0:0:0:0:
408,32,213097,1,2,0:0:0:0:
304,32,213250,2,0,P|240:56|248:240,1,202.666666666667,2|2,0:0|0:0,0:0:0:0:
424,336,213710,6,0,P|472:240|352:176,1,202.666666666667,10|0,0:0|0:0,0:0:0:0:
320,184,214169,2,0,L|304:48,1,101.333333333333,2|0,0:0|0:0,0:0:0:0:
184,96,214475,1,8,0:0:0:0:
56,288,214628,2,0,L|48:168,1,101.333333333333,10|8,0:1|0:1,0:0:0:0:
192,168,214934,2,0,L|336:64,1,101.333333333333,8|8,0:3|0:3,0:0:0:0:
144,72,215240,2,0,L|32:72,1,101.333333333333,4|4,0:3|0:3,0:0:0:0:
296,328,215546,6,0,L|304:208,1,95,14|0,0:0|0:0,0:0:0:0:
184,168,215852,2,0,L|304:168,1,95,10|8,0:0|0:1,0:0:0:0:
400,96,216158,2,0,L|280:96,1,95,4|8,0:3|0:0,0:0:0:0:
56,288,216464,2,0,L|48:160,1,95,10|0,0:1|0:0,0:0:0:0:
176,208,216770,2,0,L|184:88,1,95,10|8,0:0|0:0,0:0:0:0:
32,80,217076,2,0,L|152:80,1,95,10|0,0:0|0:0,0:0:0:0:
344,80,217382,6,0,L|480:72,2,95,10|2|8,0:0|0:0|0:0,0:0:0:0:
240,144,217841,2,0,L|424:232,1,190,10|0,0:0|0:0,0:0:0:0:
176,320,218301,2,0,L|48:336,1,95,10|0,0:1|0:0,0:0:0:0:
208,232,218607,2,0,L|344:240,1,95,10|0,0:0|0:0,0:0:0:0:
168,160,218913,2,0,L|160:40,1,95,10|0,0:0|0:0,0:0:0:0:
416,312,219219,5,14,0:0:0:0:
416,312,219372,1,2,0:0:0:0:
272,296,219525,1,10,0:0:0:0:
232,216,219678,1,2,0:0:0:0:
272,120,219831,1,2,0:0:0:0:
368,96,219984,1,0,0:0:0:0:
128,96,220137,1,10,0:1:0:0:
128,96,220290,1,2,0:0:0:0:
256,288,220443,1,10,0:0:0:0:
296,208,220596,1,2,0:0:0:0:
256,112,220749,1,0,0:0:0:0:
160,88,220902,1,10,0:0:0:0:
408,88,221056,6,0,L|416:216,1,95,14|2,0:0|0:0,0:0:0:0:
272,192,221362,1,10,0:0:0:0:
416,224,221515,1,0,0:0:0:0:
336,272,221668,1,8,0:0:0:0:
416,320,221821,1,8,0:0:0:0:
280,344,221974,2,0,L|264:216,1,95,10|0,0:1|0:0,0:0:0:0:
400,112,222280,2,0,L|408:224,1,95,8|0,0:3|0:0,0:0:0:0:
176,96,222586,2,0,L|72:96,1,95,4|4,0:3|0:3,0:0:0:0:
304,320,222892,6,0,P|352:256|272:176,1,190,14|2,0:0|0:0,0:0:0:0:
160,176,223352,2,0,L|88:176,2,47.5,8|8|4,0:3|0:3|0:3,0:0:0:0:
296,160,223658,1,8,0:3:0:0:
152,216,223811,2,0,L|144:344,1,95,10|8,0:0|0:3,0:0:0:0:
296,240,224117,2,0,L|304:360,1,95,8|8,0:3|0:0,0:0:0:0:
440,336,224423,1,4,0:3:0:0:
352,336,224576,1,4,0:3:0:0:
120,336,224729,6,0,L|48:264,2,95,10|8|4,0:0|0:3|0:3,0:0:0:0:
248,328,225188,2,0,L|256:200,1,95,10|8,0:0|0:0,0:0:0:0:
168,232,225494,1,8,0:0:0:0:
400,224,225648,2,0,L|408:88,1,95,10|0,0:1|0:0,0:0:0:0:
272,112,225954,2,0,L|160:104,1,95,10|8,0:0|0:0,0:0:0:0:
328,288,226260,2,0,L|440:280,1,95,10|4,0:0|0:3,0:0:0:0:
192,336,226566,6,0,L|176:208,1,95,14|0,0:0|0:0,0:0:0:0:
328,208,226872,2,0,L|208:200,1,95,4|0,0:3|0:0,0:0:0:0:
112,168,227178,2,0,L|240:160,1,95,4|0,0:3|0:0,0:0:0:0:
448,136,227484,2,0,L|320:128,1,95,14|0,0:1|0:0,0:0:0:0:
248,128,227790,1,8,0:0:0:0:
248,128,227943,1,8,0:0:0:0:
464,216,228097,2,0,L|472:320,1,95,8|4,0:3|0:3,0:0:0:0:
240,344,228403,6,0,L|120:336,1,95,14|0,0:1|0:0,0:0:0:0:
288,272,228709,1,10,0:0:0:0:
360,216,228862,1,0,0:0:0:0:
352,128,229015,1,8,0:0:0:0:
272,104,229168,1,10,0:0:0:0:
56,112,229321,2,0,L|48:248,1,95,10|8,0:1|0:3,0:0:0:0:
176,200,229627,2,0,L|184:320,1,95,8|8,0:0|0:3,0:0:0:0:
312,312,229933,2,0,L|432:304,1,95,4|4,0:3|0:3,0:0:0:0:
192,224,230239,6,0,L|88:216,1,95,14|0,0:0|0:0,0:0:0:0:
240,144,230546,2,0,L|352:136,1,95,10|0,0:0|0:0,0:0:0:0:
216,48,230852,2,0,L|336:40,1,95,10|0,0:0|0:0,0:0:0:0:
64,232,231158,2,0,L|192:216,1,95,10|0,0:1|0:0,0:0:0:0:
320,200,231464,1,10,0:0:0:0:
208,168,231617,1,8,0:0:0:0:
320,136,231770,2,0,L|328:32,1,95,10|0,0:0|0:0,0:0:0:0:
48,184,232076,6,0,L|40:312,1,95,14|0,0:0|0:0,0:0:0:0:
296,288,232382,2,0,L|408:288,1,95,14|0,0:0|0:0,0:0:0:0:
160,344,232688,1,14,0:0:0:0:
344,272,233913,5,10,0:0:0:0:
96,240,235749,5,10,0:0:0:0:
336,248,236668,1,10,0:0:0:0:
56,312,237586,5,10,0:0:0:0:
256,288,238504,1,10,0:0:0:0:
128,216,238810,1,10,0:0:0:0:
256,144,239117,1,10,0:0:0:0:
432,160,239423,6,0,L|440:280,1,95,8|0,0:0|0:0,0:0:0:0:
320,320,239729,2,0,L|192:320,1,95,8|0,0:0|0:0,0:0:0:0:
352,224,240035,2,0,L|464:224,1,95,8|0,0:0|0:0,0:0:0:0:
208,216,240341,2,0,L|192:88,1,95,8|8,0:3|0:3,0:0:0:0:
328,136,240647,2,0,L|312:24,1,95,8|8,0:0|0:3,0:0:0:0:
88,48,240953,2,0,L|80:160,1,95,4|4,0:3|0:3,0:0:0:0:
320,320,241259,6,0,L|440:272,1,113.999996520996,14|0,0:0|0:0,0:0:0:0:
312,216,241565,1,8,0:1:0:0:
64,200,241718,2,0,P|72:96|200:48,1,227.999993041992,14|8,0:0|0:0,0:0:0:0:
416,48,242178,2,0,L|328:136,1,113.999996520996,14|0,0:1|0:0,0:0:0:0:
112,152,242484,2,0,L|208:232,1,113.999996520996,8|8,0:3|0:3,0:0:0:0:
304,272,242790,2,0,L|184:352,1,113.999996520996,4|4,0:3|0:3,0:0:0:0:
448,344,243096,5,14,0:0:0:0:
360,280,243249,1,0,0:0:0:0:
352,240,243326,1,0,0:3:0:0:
344,192,243402,1,8,0:3:0:0:
456,120,243555,1,8,0:0:0:0:
472,200,243708,1,4,0:3:0:0:
400,240,243861,1,4,0:3:0:0:
160,344,244014,2,0,L|40:312,1,113.999996520996,14|0,0:1|0:0,0:0:0:0:
184,280,244320,2,0,L|208:152,1,113.999996520996,10|0,0:0|0:0,0:0:0:0:
440,168,244627,2,0,L|456:296,1,113.999996520996,10|8,0:0|0:1,0:0:0:0:
240,312,244933,5,14,0:0:0:0:
120,304,245086,2,0,L|88:248,2,56.9999982604981,8|8|8,0:3|0:3|0:3,0:0:0:0:
240,256,245392,1,8,0:3:0:0:
256,152,245545,1,8,0:0:0:0:
128,152,245698,1,8,0:0:0:0:
392,152,245851,2,0,L|408:288,1,113.999996520996,14|0,0:1|0:0,0:0:0:0:
264,208,246157,2,0,L|248:336,1,113.999996520996,8|0,0:0|0:0,0:0:0:0:
400,328,246463,1,8,0:1:0:0:
280,336,246616,1,8,0:1:0:0:
48,256,246769,5,14,0:0:0:0:
168,200,246923,1,8,0:3:0:0:
56,136,247076,1,8,0:3:0:0:
104,64,247229,1,10,0:0:0:0:
224,80,247382,1,2,0:0:0:0:
104,136,247535,1,2,0:0:0:0:
352,232,247688,1,14,0:0:0:0:
448,160,247841,1,0,0:0:0:0:
400,152,247917,1,8,0:0:0:0:
352,144,247994,1,8,0:0:0:0:
448,88,248147,1,8,0:3:0:0:
320,80,248300,2,0,L|304:208,1,113.999996520996,4|4,0:3|0:3,0:0:0:0:
88,336,248606,6,0,P|56:264|168:192,1,227.999993041992,14|8,0:0|0:0,0:0:0:0:
288,192,249065,2,0,L|88:8,1,227.999993041992,10|10,0:0|0:0,0:0:0:0:
408,32,249525,2,0,L|416:168,1,113.999996520996,14|0,0:1|0:0,0:0:0:0:
280,160,249831,2,0,L|272:288,1,113.999996520996,10|8,0:0|0:1,0:0:0:0:
424,328,250137,2,0,L|304:240,1,113.999996520996,10|8,0:0|0:1,0:0:0:0:
72,336,250443,5,14,0:0:0:0:
160,264,250596,1,8,0:1:0:0:
72,208,250749,1,10,0:0:0:0:
216,184,250902,2,0,L|224:64,1,113.999996520996,8|8,0:1|0:0,0:0:0:0:
352,64,251208,1,8,0:0:0:0:
112,48,251361,2,0,L|104:176,1,113.999996520996,14|0,0:1|0:0,0:0:0:0:
352,168,251667,2,0,L|360:296,1,113.999996520996,10|8,0:0|0:1,0:0:0:0:
232,328,251974,2,0,L|144:248,1,113.999996520996,10|0,0:0|0:0,0:0:0:0:
392,320,252280,6,0,L|504:240,2,113.999996520996,14|8|8,0:0|0:1|0:0,0:0:0:0:
288,320,252739,2,0,P|240:240|328:160,1,227.999993041992,10|0,0:1|0:0,0:0:0:0:
104,240,253198,1,14,0:0:0:0:
40,200,253351,1,8,0:1:0:0:
32,104,253504,1,8,0:0:0:0:
96,48,253657,1,8,0:1:0:0:
384,88,253810,2,0,L|272:160,1,113.999996520996,10|0,0:0|0:0,0:0:0:0:
72,280,254116,6,0,L|176:344,1,113.999996520996,14|0,0:0|0:0,0:0:0:0:
280,328,254423,1,10,0:0:0:0:
200,280,254576,1,8,0:1:0:0:
168,192,254729,1,10,0:0:0:0:
232,120,254882,1,8,0:1:0:0:
456,96,255035,2,0,L|464:248,1,113.999996520996,14|8,0:0|0:0,0:0:0:0:
344,216,255341,2,0,L|328:352,1,113.999996520996,10|8,0:0|0:1,0:0:0:0:
88,320,255647,2,0,L|80:200,1,113.999996520996,10|8,0:0|0:1,0:0:0:0:
312,328,255953,6,0,L|408:248,2,113.999996520996,14|8|10,0:0|0:1|0:0,0:0:0:0:
192,320,256412,2,0,L|384:176,1,227.999993041992,10|0,0:0|0:1,0:0:0:0:
120,272,256871,2,0,P|72:184|168:112,1,227.999993041992,10|10,0:1|0:0,0:0:0:0:
288,112,257331,2,0,L|376:184,2,113.999996520996,10|0|8,0:0|0:0|0:0,0:0:0:0:
56,304,257790,6,0,P|16:224|144:144,1,227.999993041992,14|8,0:0|0:0,0:0:0:0:
232,104,258249,1,10,0:1:0:0:
136,112,258402,2,0,L|144:240,1,113.999996520996,10|8,0:0|0:1,0:0:0:0:
392,336,258708,2,0,P|448:288|336:176,1,227.999993041992,14|8,0:0|0:1,0:0:0:0:
224,152,259167,1,2,0:0:0:0:
296,120,259320,1,8,0:3:0:0:
368,96,259474,1,8,0:3:0:0:
120,96,259627,6,0,L|112:232,1,113.999996520996,4|0,0:3|0:0,0:0:0:0:
256,320,259933,1,10,0:0:0:0:
176,288,260086,1,2,0:0:0:0:
256,248,260239,1,10,0:0:0:0:
392,208,260392,1,2,0:0:0:0:
176,136,260545,2,0,L|56:88,1,113.999996520996,14|0,0:0|0:0,0:0:0:0:
200,72,260851,2,0,L|312:32,1,113.999996520996,10|8,0:0|0:1,0:0:0:0:
176,176,261157,2,0,L|168:304,1,113.999996520996,10|0,0:0|0:0,0:0:0:0:
400,320,261463,6,0,L|456:288,2,56.9999982604981,14|0|0,3:2|0:0|0:0,0:0:0:0:
256,336,261769,1,10,0:0:0:0:
184,304,261923,1,8,0:1:0:0:
256,272,262076,1,10,0:0:0:0:
328,248,262229,1,8,0:0:0:0:
112,192,262382,2,0,L|104:64,1,113.999996520996,14|0,0:1|0:0,0:0:0:0:
344,72,262688,2,0,L|352:200,1,113.999996520996,8|8,0:0|0:1,0:0:0:0:
240,232,262994,1,8,0:3:0:0:
352,272,263147,1,8,0:3:0:0:
112,344,263300,6,0,P|72:264|184:184,1,227.999993041992,14|8,0:0|0:0,0:0:0:0:
304,160,263759,1,2,0:0:0:0:
160,144,263912,2,0,L|152:24,1,113.999996520996,10|0,0:0|0:0,0:0:0:0:
424,336,264218,2,0,L|432:208,1,113.999996520996,10|0,0:1|0:1,0:0:0:0:
296,240,264525,2,0,L|184:176,1,113.999996520996,10|8,0:0|0:1,0:0:0:0:
56,176,264831,2,0,L|48:56,1,113.999996520996,8|8,0:0|0:1,0:0:0:0:
304,56,265137,6,0,L|312:200,1,113.999996520996,14|0,0:0|0:0,0:0:0:0:
200,192,265443,2,0,L|192:320,1,113.999996520996,8|8,0:0|0:1,0:0:0:0:
432,336,265749,2,0,L|440:192,1,113.999996520996,8|8,0:0|0:0,0:0:0:0:
216,232,266055,2,0,P|176:152|288:88,1,227.999993041992,10|8,0:1|0:0,0:0:0:0:
160,80,266514,1,8,0:1:0:0:
48,112,266667,2,0,L|144:176,1,113.999996520996,10|8,0:0|0:0,0:0:0:0:
384,112,266974,6,0,L|280:192,1,113.999996520996,14|0,0:0|0:0,0:0:0:0:
80,184,267280,2,0,L|72:328,1,113.999996520996,10|8,0:0|0:1,0:0:0:0:
192,344,267586,2,0,L|200:216,1,113.999996520996,8|8,0:0|0:0,0:0:0:0:
424,256,267892,2,0,P|472:176|360:104,1,227.999993041992,10|8,0:1|0:0,0:0:0:0:
280,96,268351,1,8,0:1:0:0:
408,160,268504,1,10,0:0:0:0:
280,208,268657,1,10,0:1:0:0:
64,240,268810,6,0,L|264:368,1,227.999993041992,10|0,0:0|0:0,0:0:0:0:
128,352,269269,1,8,0:0:0:0:
256,328,269423,2,0,L|264:200,1,113.999996520996,10|8,0:0|0:0,0:0:0:0:
32,208,269729,1,14,0:0:0:0:
264,128,270035,1,8,0:3:0:0:
40,72,270341,1,4,0:3:0:0:
40,72,270494,1,4,0:3:0:0:
264,328,270647,6,0,L|352:224,2,113.999996520996,14|2|8,0:0|0:0|0:0,0:0:0:0:
408,344,271106,2,0,P|464:280|352:184,1,227.999993041992,2|10,0:0|0:0,0:0:0:0:
152,240,271565,2,0,L|144:112,1,113.999996520996,10|0,0:1|0:0,0:0:0:0:
272,104,271871,1,10,0:0:0:0:
144,88,272025,1,2,0:0:0:0:
72,64,272178,1,0,0:0:0:0:
144,40,272331,1,0,3:0:0:0:
392,40,272484,5,10,0:0:0:0:
480,72,272637,1,8,0:0:0:0:
392,112,272790,1,2,0:0:0:0:
240,112,272943,2,0,P|168:136|176:304,1,227.999993041992,10|2,0:0|0:0,0:0:0:0:
400,328,273402,2,0,L|392:192,1,113.999996520996,10|0,0:1|0:0,0:0:0:0:
256,200,273708,1,8,0:0:0:0:
336,152,273861,1,2,0:0:0:0:
408,96,274014,1,8,0:0:0:0:
320,72,274167,1,2,0:0:0:0:
72,80,274320,5,8,0:0:0:0:
72,80,274474,1,8,0:0:0:0:
208,136,274627,2,0,L|328:176,1,113.999996520996,2|0,0:0|0:0,0:0:0:0:
192,224,274933,2,0,L|96:304,1,113.999996520996,10|0,0:0|0:0,0:0:0:0:
360,336,275239,2,0,P|424:256|344:176,1,227.999993041992,10|0,0:1|0:0,0:0:0:0:
248,176,275698,1,8,0:0:0:0:
384,160,275851,2,0,L|392:40,1,113.999996520996,2|0,0:0|0:0,0:0:0:0:
144,40,276157,6,0,L|240:104,1,113.999996520996,14|0,0:1|0:0,0:0:0:0:
368,104,276463,2,0,L|256:176,1,113.999996520996,8|8,0:0|0:1,0:0:0:0:
128,184,276769,2,0,L|240:248,1,113.999996520996,10|0,0:0|0:0,0:0:0:0:
480,240,277076,2,0,L|384:312,1,113.999996520996,14|0,0:0|0:0,0:0:0:0:
128,256,277382,2,0,L|240:312,1,113.999996520996,14|0,0:0|0:0,0:0:0:0:
104,256,277688,2,0,L|0:368,1,113.999996520996,10|10,0:1|0:1,0:0:0:0:
264,336,277994,5,14,0:0:0:0:
352,272,278147,1,8,0:3:0:0:
264,208,278300,1,4,0:3:0:0:
120,184,278453,2,0,L|72:144,2,56.9999982604981,8|8|8,0:3|0:3|0:0,0:0:0:0:
208,184,278759,1,8,0:0:0:0:
456,192,278912,2,0,P|448:288|312:320,1,227.999993041992,14|10,0:1|0:0,0:0:0:0:
256,296,279371,1,8,0:1:0:0:
352,248,279525,1,10,0:0:0:0:
264,200,279678,1,8,0:1:0:0:
48,176,279831,6,0,L|56:88,1,56.9999982604981,14|0,0:0|3:2,0:0:0:0:
96,120,279984,1,8,0:0:0:0:
184,120,280137,1,10,0:0:0:0:
416,120,280290,2,0,P|480:176|368:272,1,227.999993041992,10|2,0:0|0:0,0:0:0:0:
192,344,280749,1,14,0:0:0:0:
120,320,280851,1,2,0:0:0:0:
104,248,280953,1,2,0:0:0:0:
240,240,281055,2,0,L|256:120,1,113.999996520996,8|10,0:1|0:1,0:0:0:0:
128,128,281361,2,0,L|232:64,1,113.999996520996,10|8,0:0|0:1,0:0:0:0:
456,80,281667,6,0,L|472:232,1,113.999996520996,10|0,0:0|0:0,0:0:0:0:
336,192,281974,2,0,L|328:336,1,113.999996520996,10|8,0:0|0:1,0:0:0:0:
192,320,282280,2,0,L|176:184,1,113.999996520996,10|8,0:0|0:0,0:0:0:0:
448,336,282586,2,0,L|456:192,1,113.999996520996,8|0,0:1|0:0,0:0:0:0:
320,192,282892,2,0,L|232:120,1,113.999996520996,10|0,0:0|0:0,0:0:0:0:
360,104,283198,2,0,L|480:40,1,113.999996520996,10|8,0:1|0:0,0:0:0:0:
208,32,283504,6,0,L|72:96,1,113.999996520996,14|0,0:0|0:0,0:0:0:0:
232,96,283810,1,10,0:0:0:0:
360,120,283963,1,8,0:1:0:0:
232,176,284116,1,10,0:0:0:0:
312,200,284269,1,10,0:0:0:0:
88,304,284423,2,0,L|24:288,2,56.9999982604981,14|0|0,0:1|0:0|0:0,0:0:0:0:
216,248,284729,1,10,0:1:0:0:
88,208,284882,1,8,0:0:0:0:
360,192,285035,1,10,0:1:0:0:
376,288,285188,1,8,0:1:0:0:
480,288,285341,1,2,0:1:0:0:
72,336,285647,6,0,P|16:256|120:184,1,227.999993041992,14|8,0:0|0:0,0:0:0:0:
184,184,286106,1,8,0:0:0:0:
432,184,286259,2,0,L|336:112,1,113.999996520996,14|0,0:1|0:0,0:0:0:0:
440,40,286565,2,0,L|448:176,1,113.999996520996,10|10,0:0|0:1,0:0:0:0:
200,32,286871,2,0,L|192:176,1,113.999996520996,10|0,0:0|0:0,0:0:0:0:
464,336,287178,6,0,L|472:208,1,113.999996520996,14|0,3:2|3:2,0:0:0:0:
376,216,287484,1,8,0:0:0:0:
240,192,287637,2,0,L|320:96,2,113.999996520996,10|0|8,0:1|0:0|0:0,0:0:0:0:
16,208,288096,2,0,P|32:304|160:352,1,227.999993041992,14|0,0:0|3:0,0:0:0:0:
80,320,288504,1,0,3:0:0:0:
136,288,288606,1,0,3:0:0:0:
320,288,288708,2,0,L|328:152,1,113.999996520996,0|4,0:0|0:3,0:0:0:0:
96,176,289014,6,0,P|24:112|112:32,1,227.999993041992,14|8,0:0|0:0,0:0:0:0:
232,64,289474,1,10,0:0:0:0:
96,96,289627,2,0,L|88:224,1,113.999996520996,0|8,0:0|0:0,0:0:0:0:
368,336,289933,6,0,L|416:304,1,56.9999982604981,10|2,0:1|0:0,0:0:0:0:
384,264,290086,2,0,L|312:256,1,56.9999982604981,2|2,0:0|0:0,0:0:0:0:
376,224,290239,2,0,L|384:152,1,56.9999982604981,2|2,0:0|0:0,0:0:0:0:
344,152,290392,2,0,L|288:152,1,56.9999982604981,2|2,0:0|0:0,0:0:0:0:
456,128,290545,1,2,0:0:0:0:
488,96,290621,1,2,0:0:0:0:
479,46,290698,1,2,0:0:0:0:
427,26,290774,1,2,0:0:0:0:
256,40,290851,6,0,B|168:40|128:120|152:192|384:352|480:176|328:368|288:376|224:336|112:376|40:264|40:264|112:200|184:256,1,855.000032615663,14|2,0:0|0:0,0:0:0:0:
256,192,292841,12,0,298198,0:0:0:0:
