osu file format v14

[General]
AudioFilename: AKIBAS - TRIP.mp3
AudioLeadIn: 0
PreviewTime: 60619
Countdown: 0
SampleSet: Soft
StackLeniency: 0.7
Mode: 0
LetterboxInBreaks: 0
WidescreenStoryboard: 1

[Editor]
DistanceSpacing: 0.7
BeatDivisor: 4
GridSize: 4
TimelineZoom: 1

[Metadata]
Title:Netsuj bureibu!
TitleUnicode:熱情ブレイブ!
Artist:Suzuyu
ArtistUnicode:鈴湯
Creator:Rizia
Version:Normal
Source:AKIBA'S TRIP Festa!
Tags:kawaiwkyik
BeatmapID:1152692
BeatmapSetID:532584

[Difficulty]
HPDrainRate:3
CircleSize:4
OverallDifficulty:3
ApproachRate:4
SliderMultiplier:1.1
SliderTickRate:1

[Events]
//Background and Video events
0,0,"BG.jpg",0,0
//Break Periods
//Storyboard Layer 0 (Background)
//Storyboard Layer 1 (Fail)
//Storyboard Layer 2 (Pass)
//Storyboard Layer 3 (Foreground)
//Storyboard Sound Samples

[TimingPoints]
2787,346.820809248555,4,2,1,60,1,0
5214,-100,4,2,1,60,0,0
5561,-100,4,2,1,60,0,0
13885,-111.111111111111,4,2,1,40,0,0
24983,-100,4,2,1,60,0,0
41630,-111.111111111111,4,2,1,50,0,0
47180,-111.111111111111,4,2,1,60,0,0
55330,-100,4,2,1,60,0,0
61052,-100,4,2,1,60,0,1
86023,-100,4,2,1,60,0,0
86110,-100,4,2,1,40,0,0
87411,-100,4,2,1,60,0,0
95388,-166.666666666667,4,2,1,20,0,0

[Colours]
Combo1 : 255,255,0
Combo2 : 255,0,0
Combo3 : 255,128,0
Combo4 : 0,128,255

[HitObjects]
160,112,2787,6,0,P|116:128|8:56,2,165,4|8|8,0:0|0:0|0:0,0:0:0:0:
312,176,4347,2,0,P|356:160|464:232,1,165,8|0,0:0|0:0,0:0:0:0:
444,320,5214,1,8,0:0:0:0:
344,364,5561,6,0,B|284:352|284:352|244:364|244:364|164:348,2,165,4|8|8,0:0|0:0|0:0,0:0:0:0:
240,236,7122,2,0,P|212:176|244:76,1,165,8|0,0:0|0:0,0:0:0:0:
328,24,7989,1,8,0:0:0:0:
424,76,8336,6,0,P|452:136|420:236,1,165,4|8,0:0|0:0,0:0:0:0:
328,360,9376,2,0,L|204:348,1,110,8|0,0:0|0:0,0:0:0:0:
112,372,10070,2,0,P|96:332|112:260,1,110,0|0,0:0|0:0,0:0:0:0:
172,180,10763,1,8,0:0:0:0:
88,108,11110,6,0,P|136:76|244:96,2,165,4|8|8,0:0|0:0|0:0,0:0:0:0:
44,140,12324,2,0,B|56:208|56:208|20:312,1,165,12|8,0:0|0:0,0:0:0:0:
108,372,13191,2,0,L|172:360,1,55,8|8,0:0|0:0,0:0:0:0:
204,324,13538,2,0,L|258:334,1,55,8|0,0:0|0:0,0:0:0:0:
308,356,13885,5,4,0:0:0:0:
400,324,14232,2,0,L|412:220,1,98.9999969787599,2|2,0:0|0:0,0:0:0:0:
420,128,14925,1,0,0:0:0:0:
376,40,15272,6,0,P|340:64|320:128,1,98.9999969787599,0|0,0:0|0:0,0:0:0:0:
304,212,15966,2,0,P|256:204|196:200,1,98.9999969787599,2|0,0:0|0:0,0:0:0:0:
136,128,16659,6,0,P|80:112|16:224,1,197.99999395752,0|0,0:0|0:0,0:0:0:0:
36,308,17700,1,0,0:0:0:0:
128,348,18047,2,0,B|200:336|200:336|244:352|244:352|332:336,1,197.99999395752,0|2,0:0|0:0,0:0:0:0:
420,352,19087,2,0,L|432:240,1,98.9999969787599,0|4,0:0|0:0,0:0:0:0:
372,172,19781,2,0,P|420:152|480:164,2,98.9999969787599,2|2|0,0:0|0:0|0:0,0:0:0:0:
300,240,20821,2,0,P|251:244|206:225,1,98.9999969787599,0|0,0:0|0:0,0:0:0:0:
148,144,21515,2,0,P|136:84|120:32,1,98.9999969787599,0|0,0:0|0:0,0:0:0:0:
48,112,22208,6,0,P|32:168|120:264,1,197.99999395752,2|0,0:0|0:0,0:0:0:0:
156,356,23249,1,0,0:0:0:0:
252,328,23596,2,0,P|296:296|444:320,1,197.99999395752,2|0,0:0|0:0,0:0:0:0:
492,100,24983,6,0,L|376:92,1,110,4|8,0:0|0:0,0:0:0:0:
304,16,25677,2,0,L|194:8,1,110,0|8,0:0|0:0,0:0:0:0:
92,44,26370,2,0,P|72:72|80:156,2,110,0|8|0,0:0|0:0|0:0,0:0:0:0:
176,112,27411,1,8,0:0:0:0:
152,220,27758,6,0,P|116:244|44:248,1,110,4|8,0:0|0:0,0:0:0:0:
0,348,28451,2,0,P|54:349|101:377,1,110,0|8,0:0|0:0,0:0:0:0:
208,344,29145,2,0,L|336:328,2,110,0|8|0,0:0|0:0|0:0,0:0:0:0:
148,252,30185,1,8,0:0:0:0:
224,172,30532,6,0,P|248:124|124:48,1,220,4|0,0:0|0:0,0:0:0:0:
44,96,31573,1,8,0:0:0:0:
48,204,31919,2,0,P|52:248|96:296,1,110,0|8,0:0|0:0,0:0:0:0:
204,320,32613,2,0,L|320:300,1,110,0|8,0:0|0:0,0:0:0:0:
420,320,33307,5,4,0:0:0:0:
448,212,33654,2,0,L|464:156,2,55,8|0|0,0:0|0:0|0:0,0:0:0:0:
336,212,34347,1,8,0:0:0:0:
260,132,34694,2,0,L|248:12,1,110,0|8,0:0|0:0,0:0:0:0:
156,84,35388,2,0,L|162:149,2,55,0|4|8,0:0|0:3|0:0,0:0:0:0:
64,24,36081,6,0,L|-1:30,3,55,12|8|8|8,0:0|0:0|0:0|0:0,0:0:0:0:
32,192,37122,2,0,L|86:186,3,55,8|8|8|8,0:0|0:0|0:0|0:0,0:0:0:0:
108,356,38162,2,0,L|53:361,1,55,8|8,0:0|0:0,0:0:0:0:
192,272,38856,6,0,L|186:217,3,55,12|8|8|8,0:0|0:0|0:0|0:0,0:0:0:0:
328,300,39896,2,0,L|333:354,3,55,8|8|8|8,0:0|0:0|0:0|0:0,0:0:0:0:
452,240,40937,2,0,L|446:185,1,55,8|8,0:0|0:0,0:0:0:0:
464,64,41630,6,0,P|424:40|332:136,1,197.99999395752,4|8,0:0|0:0,0:0:0:0:
256,192,42671,1,0,0:0:0:0:
182,126,43018,2,0,P|138:45|48:64,1,197.99999395752,0|8,0:0|0:0,0:0:0:0:
4,152,44058,1,0,0:0:0:0:
80,212,44405,6,0,B|128:256|120:328|120:328|144:296|178:293,1,197.99999395752,0|8,0:0|0:0,0:0:0:0:
256,356,45445,1,0,0:0:0:0:
333,293,45792,2,0,B|368:296|392:328|392:328|384:256|432:212,1,197.99999395752,0|8,0:0|0:0,0:0:0:0:
336,40,47180,6,0,L|216:32,1,98.9999969787599,4|8,0:0|0:0,0:0:0:0:
172,108,47873,2,0,L|320:117,2,148.49999546814,0|8|8,0:0|0:0|0:0,0:0:0:0:
84,156,49260,2,0,P|64:208|76:260,1,98.9999969787599,0|8,0:0|0:0,0:0:0:0:
96,344,49954,6,0,P|144:324|240:372,1,148.49999546814,4|0,0:0|0:0,0:0:0:0:
324,328,50821,1,0,0:0:0:0:
420,348,51168,2,0,B|476:356|476:356|504:324|484:252,1,148.49999546814,8|8,0:0|0:0,0:0:0:0:
432,188,52035,2,0,P|384:212|320:204,2,98.9999969787599,0|8|4,0:0|0:0|0:0,0:0:0:0:
464,96,53076,2,0,P|424:52|288:52,1,197.99999395752,8|0,0:0|0:0,0:0:0:0:
204,92,54116,2,0,L|88:80,1,98.9999969787599,0|8,0:0|0:0,0:0:0:0:
132,176,54810,2,0,L|120:292,1,98.9999969787599,8|8,0:0|0:0,0:0:0:0:
116,328,55330,1,4,0:0:0:0:
256,192,55503,12,8,60359,0:0:0:0:
76,184,61052,6,0,P|56:148|176:56,1,220,4|0,1:0|0:0,0:0:0:0:
256,108,62093,1,8,0:0:0:0:
356,60,62440,2,0,P|396:44|472:56,1,110,0|8,0:0|0:0,0:0:0:0:
472,160,63133,2,0,P|432:176|356:164,1,110,0|8,0:0|0:0,0:0:0:0:
280,240,63827,6,0,L|264:360,1,110,4|8,0:0|0:0,0:0:0:0:
172,292,64521,1,0,0:0:0:0:
64,320,64867,1,8,0:0:0:0:
24,220,65214,2,0,L|40:100,1,110,0|8,0:0|0:0,0:0:0:0:
120,36,65908,2,0,P|160:52|232:44,1,110,0|10,0:0|0:0,0:0:0:0:
320,104,66602,6,0,P|376:80|508:160,1,220,4|0,0:0|0:0,0:0:0:0:
488,260,67642,1,8,0:0:0:0:
416,344,67989,2,0,B|368:276|368:276|404:180,2,165,2|0|8,0:0|0:0|0:0,0:0:0:0:
312,376,69376,6,0,L|184:364,1,110,4|10,0:0|0:0,0:0:0:0:
176,260,70070,2,0,L|285:249,1,110,2|8,0:0|0:0,0:0:0:0:
332,148,70763,2,0,L|344:76,1,55,12|8,0:0|0:0,0:0:0:0:
288,72,71110,2,0,L|276:0,1,55,8|4,0:0|0:0,0:0:0:0:
116,32,71804,1,8,0:0:0:0:
116,32,71977,1,0,0:0:0:0:
116,32,72151,6,0,L|92:156,1,110,4|8,0:0|0:0,0:0:0:0:
8,204,72844,2,0,P|0:252|40:312,1,110,0|8,0:0|0:0,0:0:0:0:
128,348,73538,6,0,P|174:320|227:327,1,110,0|8,0:0|0:0,0:0:0:0:
332,368,74232,1,0,0:0:0:0:
440,356,74578,1,8,0:0:0:0:
500,264,74925,6,0,L|512:148,1,110,4|8,0:0|0:0,0:0:0:0:
412,112,75619,2,0,L|400:221,1,110,0|8,0:0|0:0,0:0:0:0:
308,280,76313,2,0,P|264:284|188:296,2,110,0|8|0,0:0|0:0|0:0,0:0:0:0:
304,168,77353,1,8,0:0:0:0:
296,60,77700,6,0,B|192:28|192:28|76:96,1,220,4|0,0:0|0:0,0:0:0:0:
0,140,78740,1,8,0:0:0:0:
16,248,79087,2,0,P|24:312|168:304,1,220,0|0,0:0|0:0,0:0:0:0:
228,240,80128,6,0,L|216:176,2,55,8|10|4,0:0|0:0|0:0,0:0:0:0:
276,340,80821,1,8,0:0:0:0:
384,316,81168,2,0,P|420:292|500:304,1,110,0|8,0:0|0:0,0:0:0:0:
504,188,81862,2,0,B|468:172|420:176|420:176|448:128|448:128|408:108|412:56,1,220,0|0,0:0|0:0,0:0:0:0:
308,28,82902,6,0,P|254:22|208:51,1,110,8|4,0:0|0:0,0:0:0:0:
100,32,83596,2,0,P|48:88|88:212,1,220,8|8,0:0|0:0,0:0:0:0:
116,320,84636,2,0,L|304:292,2,165,0|2|8,0:0|0:0|0:0,0:0:0:0:
8,340,86023,1,4,0:0:0:0:
256,192,87411,6,0,L|256:248,1,55,8|8,0:0|0:0,0:0:0:0:
256,192,87758,12,4,90012,0:0:0:0:
256,192,90185,12,0,95388,0:0:0:0:
