osu file format v14

[General]
AudioFilename: audio.mp3
AudioLeadIn: 0
PreviewTime: 59952
Countdown: 0
SampleSet: Soft
StackLeniency: 0.4
Mode: 0
LetterboxInBreaks: 0
WidescreenStoryboard: 1

[Editor]
Bookmarks: 8686,12397,27247,42087,53226,60648,88483,259161
DistanceSpacing: 1
BeatDivisor: 6
GridSize: 32
TimelineZoom: 0.699998

[Metadata]
Title:Natsuzora no Hikari
TitleUnicode:夏空の光
Artist:Suzuyu
ArtistUnicode:鈴湯
Creator:Iceluin
Version:Easy
Source:FLOWERS - Le volume sur été -
Tags:yuri 百合 visual novel vn innocent grey galgame japanese video game pop jpop j-pop manyo op opening 夏篇 natsu hen 霜月はるか shimotsuki haruka keywee shirahane suou
BeatmapID:4452943
BeatmapSetID:2118616

[Difficulty]
HPDrainRate:3
CircleSize:2.5
OverallDifficulty:4
ApproachRate:4
SliderMultiplier:2.2
SliderTickRate:1

[Events]
//Background and Video events
0,0,"bg.jpg",0,0
Video,0,"video.m4v"
//Break Periods
//Storyboard Layer 0 (Background)
//Storyboard Layer 1 (Fail)
//Storyboard Layer 2 (Pass)
//Storyboard Layer 3 (Foreground)
//Storyboard Layer 4 (Overlay)
//Storyboard Sound Samples

[TimingPoints]
342,927.83026891614,2,2,1,15,1,0
342,-100,2,2,1,15,0,0
1269,927.83026891614,2,2,1,25,1,0
1269,-100,2,2,1,25,0,0
8691,-90.9090909090909,2,2,1,40,0,0
12402,927.83026891614,2,2,1,35,1,0
12402,-100,2,2,1,35,0,0
42092,-111.111111111111,2,2,1,20,0,0
52607,-111.111111111111,2,2,1,30,0,0
53226,927.83026891614,2,2,1,40,1,0
53226,-100,2,2,1,40,0,0
60648,-83.3333333333333,2,2,1,60,0,1
88483,-100,2,2,1,15,0,0
95906,-90.9090909090909,2,2,1,40,0,0
99772,-90.9090909090909,2,2,1,25,0,0

[Colours]
Combo1 : 255,210,255
Combo2 : 166,255,166
Combo3 : 159,255,255
Combo4 : 218,218,218

[HitObjects]
96,128,342,5,2,0:0:0:0:
96,128,1269,6,0,B|143:157|196:100|182:87|233:30|285:58,1,220,2|2,0:0|0:0,0:0:0:0:
439,240,3124,2,0,B|386:268|336:210|349:197|297:140|249:170,1,220,2|2,0:0|0:0,0:0:0:0:
11,282,4980,5,2,0:0:0:0:
163,368,5598,2,0,P|172:332|182:297,1,73.3333333333333,2|2,0:0|0:0,0:0:0:0:
82,152,6526,2,0,P|92:116|101:81,1,73.3333333333333,0|2,0:0|0:0,0:0:0:0:
180,43,7145,2,0,B|233:49|280:4|280:4|294:66|344:85,1,220,2|2,0:0|0:0,0:0:0:0:
428,55,8382,1,2,0:0:0:0:
482,124,8691,6,0,P|447:254|422:361,1,242.000007385254,6|2,1:2|0:0,0:0:0:0:
335,342,9928,2,0,P|343:302|353:263,1,80.6666691284181,2|2,0:0|0:0,0:0:0:0:
290,200,10547,2,0,P|212:191|154:243,1,161.333338256836,6|2,1:2|0:0,0:0:0:0:
114,323,11475,1,2,0:0:0:0:
0,109,12402,6,0,P|54:97|120:77,1,110,2|0,0:0|0:0,0:0:0:0:
226,26,13329,2,0,P|237:62|248:100,2,73.3333333333333,2|2|2,0:0|0:0|0:0,0:0:0:0:
310,2,14257,2,0,P|326:54|340:110,1,110,2|0,0:0|0:0,0:0:0:0:
442,191,15185,1,0,0:0:0:0:
399,267,15494,2,0,P|363:271|335:248,1,73.3333333333333,2|2,0:0|0:0,0:0:0:0:
282,178,16113,6,0,P|228:191|175:205,1,110,2|0,0:0|0:0,0:0:0:0:
47,170,17041,2,0,P|52:134|80:113,2,73.3333333333333,2|2|2,0:0|0:0|0:0,0:0:0:0:
5,247,17968,2,0,P|20:299|33:353,1,110,2|0,0:0|0:0,0:0:0:0:
161,319,18896,1,0,0:0:0:0:
238,361,19206,1,0,0:0:0:0:
322,336,19515,1,0,0:0:0:0:
361,257,19824,6,0,P|378:224|414:211,2,73.3333333333333,2|2|2,0:0|0:0|0:0,0:0:0:0:
440,295,20752,2,0,P|456:228|485:124,1,146.666666666667,2|2,0:0|0:0,0:0:0:0:
419,85,21680,2,0,P|366:100|313:114,1,110,2|0,0:0|0:0,0:0:0:0:
202,41,22608,2,0,P|167:52|150:83,1,73.3333333333333,2|2,0:0|0:0,0:0:0:0:
120,166,23226,1,2,0:0:0:0:
201,198,23535,6,0,P|254:191|296:224,1,110,2|0,0:0|0:0,0:0:0:0:
243,345,24463,1,2,0:0:0:0:
167,300,24773,1,0,0:0:0:0:
115,372,25082,1,0,0:0:0:0:
31,343,25391,2,0,P|15:290|0:237,1,110,2|0,0:0|0:0,0:0:0:0:
51,115,26319,1,0,0:0:0:0:
127,158,26628,2,0,P|163:159|192:134,1,73.3333333333333,0|2,0:0|0:0,0:0:0:0:
240,63,27247,6,0,P|292:78|346:90,1,110,2|0,0:0|0:0,0:0:0:0:
458,21,28175,1,2,0:0:0:0:
512,90,28484,2,0,P|502:125|494:161,1,73.3333333333333,2|2,0:0|0:0,0:0:0:0:
428,219,29102,2,0,P|444:271|458:327,2,110,2|0|0,0:0|0:0|0:0,0:0:0:0:
349,177,30340,2,0,P|313:185|277:194,1,73.3333333333333,2|2,0:0|0:0,0:0:0:0:
208,140,30958,6,0,P|171:100|116:95,1,110,2|0,0:0|0:0,0:0:0:0:
50,208,31886,2,0,P|15:197|0:165,2,73.3333333333333,2|2|2,0:0|0:0|0:0,0:0:0:0:
119,261,32813,2,0,P|103:313|90:367,2,110,2|0|0,0:0|0:0|0:0,0:0:0:0:
182,198,34051,1,0,0:0:0:0:
256,245,34360,1,0,0:0:0:0:
326,192,34669,6,0,P|336:156|346:121,1,73.3333333333333,2|2,0:0|0:0,0:0:0:0:
412,63,35288,1,2,0:0:0:0:
476,122,35597,2,0,P|493:193|512:264,1,146.666666666667,2|2,0:0|0:0,0:0:0:0:
460,335,36525,2,0,P|406:341|364:309,1,110,2|0,0:0|0:0,0:0:0:0:
272,212,37453,1,2,0:0:0:0:
231,289,37762,1,2,0:0:0:0:
146,312,38071,1,2,0:0:0:0:
69,268,38381,6,0,P|33:278|-1:288,2,73.3333333333333,2|2|2,0:0|0:0|0:0,0:0:0:0:
114,192,39309,2,0,P|103:156|93:121,1,73.3333333333333
18,75,39927,1,2,0:0:0:0:
74,8,40236,2,0,P|149:30|240:49,1,146.666666666667,2|2,0:0|0:0,0:0:0:0:
303,6,41164,2,0,P|337:17|372:29,1,73.3333333333333,2|0,0:0|0:0,0:0:0:0:
446,90,41783,2,0,P|422:116|386:121,1,73.3333333333333,2|2,0:0|0:0,0:0:0:0:
256,344,43020,5,2,0:0:0:0:
256,344,43948,1,2,0:0:0:0:
256,344,44876,2,0,B|222:345|222:345|198:324|198:324|165:335|165:335|137:322,1,131.99999597168,2|2,0:0|0:0,0:0:0:0:
57,289,45803,5,2,0:0:0:0:
57,289,46731,1,2,0:0:0:0:
57,289,47659,2,0,L|36:351,2,65.9999979858399,2|0|0,0:0|0:0|0:0,0:0:0:0:
119,230,48587,2,0,B|118:193|118:193|98:165|98:165|100:130|100:130|82:106|82:106|86:77|86:77|70:49,1,197.99999395752,2|2,0:0|0:0,0:0:0:0:
145,8,49824,2,0,L|183:69,1,65.9999979858399
246,126,50443,5,2,0:0:0:0:
246,126,51370,2,0,P|227:151|195:155,2,65.9999979858399,2|2|2,0:0|0:0|0:0,0:0:0:0:
285,49,52298,1,0,0:0:0:0:
365,77,52607,2,0,P|391:96|398:127,1,65.9999979858399,2|2,0:0|0:0,0:0:0:0:
387,216,53226,6,0,B|335:246|282:191|294:177|239:123|194:155,1,220,6|2,1:2|0:0,0:0:0:0:
44,371,55081,2,0,P|22:319|-2:268,2,110,2|2|2,0:0|0:0|0:0,0:0:0:0:
124,335,56318,2,0,P|133:300|162:279,1,73.3333333333333
246,253,56937,6,0,P|353:275|458:308,1,220,6|2,1:2|0:0,0:0:0:0:
511,238,58174,1,2,0:0:0:0:
485,153,58483,1,2,0:0:0:0:
407,110,58792,2,0,P|356:160|282:165,1,146.666666666667,2|2,0:0|0:3,0:0:0:0:
149,51,60030,5,6,1:2:0:0:
76,100,60339,1,0,1:0:0:0:
125,172,60648,6,0,P|108:235|93:300,1,131.99999597168,6|8,1:2|0:0,0:0:0:0:
222,328,61576,2,0,P|231:285|242:242,2,87.9999973144532,0|0|8,1:0|1:0|0:0,0:0:0:0:
297,374,62504,1,2,1:2:0:0:
376,335,62813,1,2,0:0:0:0:
384,247,63122,1,2,0:0:0:0:
317,189,63432,2,0,P|253:199|202:161,2,131.99999597168,2|10|2,1:2|0:0|1:2,0:0:0:0:
380,123,64669,6,0,P|367:105|345:102,1,43.9999986572266,2|10,0:0|0:0,0:0:0:0:
315,20,65133,2,0,P|293:22|280:39,1,43.9999986572266,2|2,0:0|1:2,0:0:0:0:
197,71,65597,1,6,1:2:0:0:
24,36,66215,2,0,P|47:119|68:206,1,175.999994628906,2|2,1:2|0:0,0:0:0:0:
11,274,67143,2,0,P|45:299|87:293,1,87.9999973144532,2|10,1:2|0:0,0:0:0:0:
173,270,67762,2,0,L|184:227,2,43.9999986572266,4|8|4,0:3|0:0|1:2,0:0:0:0:
235,332,68380,5,2,0:0:0:0:
320,311,68689,1,2,0:0:0:0:
385,370,68999,2,0,P|427:359|470:351,2,87.9999973144532,2|0|10,1:2|1:0|0:0,0:0:0:0:
320,311,69926,2,0,B|296:269|339:227|351:236|394:193|368:157,1,175.999994628906,2|2,1:2|1:2,0:0:0:0:
438,103,70854,1,2,1:2:0:0:
400,23,71164,1,2,1:2:0:0:
253,120,71782,5,2,1:2:0:0:
216,40,72091,1,2,0:0:0:0:
131,15,72401,1,2,0:0:0:0:
45,33,72710,1,2,1:2:0:0:
1,109,73019,2,0,P|12:150|25:205,1,87.9999973144532,2|10,1:3|0:0,0:0:0:0:
90,251,73638,2,0,P|57:279|14:282,2,87.9999973144532,2|2|0,1:2|0:0|1:0,0:0:0:0:
169,213,74566,2,0,L|181:169,2,43.9999986572266,8|8|6,0:0|0:0|1:2,0:0:0:0:
219,286,75184,1,4,0:3:0:0:
283,344,75493,6,0,P|347:347|398:307,1,131.99999597168,6|8,1:2|0:0,0:0:0:0:
338,190,76421,2,0,P|295:182|260:207,2,87.9999973144532,2|0|8,1:2|1:0|0:0,0:0:0:0:
401,128,77349,1,2,1:2:0:0:
381,42,77658,1,2,0:0:0:0:
295,20,77967,1,2,0:0:0:0:
226,79,78277,2,0,P|244:142|260:206,2,131.99999597168,10|10|2,0:0|0:0|1:2,0:0:0:0:
148,36,79514,6,0,P|126:39|114:57,1,43.9999986572266,2|10,0:0|0:0,0:0:0:0:
80,138,79978,2,0,P|82:160|99:173,1,43.9999986572266,2|2,0:0|1:2,0:0:0:0:
172,220,80442,1,6,1:2:0:0:
310,111,81060,2,0,P|395:108|458:166,1,175.999994628906,2|0,1:2|0:0,0:0:0:0:
498,245,81988,1,8,0:0:0:0:
426,297,82298,2,0,B|383:292|345:328|345:328|334:278|294:263,1,175.999994628906,8|6,0:3|1:2,0:0:0:0:
215,302,83225,5,2,0:0:0:0:
163,230,83534,1,2,0:0:0:0:
85,272,83844,2,0,P|74:314|61:356,2,87.9999973144532,2|0|10,1:2|1:0|0:0,0:0:0:0:
35,199,84772,2,0,P|23:136|66:88,1,131.99999597168,2|8,1:2|0:0,0:0:0:0:
192,125,85699,1,2,1:2:0:0:
238,50,86008,1,2,1:2:0:0:
322,26,86318,1,10,0:0:0:0:
406,53,86627,6,0,P|382:135|359:230,1,175.999994628906,2|2,1:2|0:0,0:0:0:0:
448,244,87555,2,0,P|452:222|460:198,2,43.9999986572266,10|8|6,0:0|0:0|1:2,0:0:0:0:
506,309,88174,1,8,0:0:0:0:
441,368,88483,6,0,P|344:316|235:311,1,220,6|2,1:2|0:0,0:0:0:0:
80,97,90339,2,0,P|176:148|285:153,1,220,2|2,0:0|0:0,0:0:0:0:
512,288,92194,5,2,0:0:0:0:
463,361,92504,1,0,0:0:0:0:
373,356,92812,2,0,P|346:334|345:298,1,73.3333333333333,2|2,0:0|0:0,0:0:0:0:
404,131,93741,1,2,0:0:0:0:
347,66,94050,2,0,B|304:101|248:52|257:36|201:-13|151:19,1,220,2|2,0:0|0:0,0:0:0:0:
73,61,95287,1,2,0:0:0:0:
109,140,95596,1,2,0:0:0:0:
200,128,95906,6,0,B|235:177|176:236|160:224|100:282|133:340,1,242.000007385254,6|2,1:2|0:0,0:0:0:0:
217,313,97143,2,0,P|257:316|295:328,1,80.6666691284181,2|2,0:0|0:0,0:0:0:0:
381,350,97761,2,0,P|397:269|413:191,1,161.333338256836,6|2,1:2|0:0,0:0:0:0:
485,140,98689,1,2,0:0:0:0:
433,67,98998,2,0,P|394:78|354:86,2,80.6666691284181,8|8|6,0:3|0:3|1:2,0:0:0:0:
256,192,99772,12,2,103560,0:0:0:0:
