osu file format v14

[General]
AudioFilename: 14. (TV Size).mp3
AudioLeadIn: 0
PreviewTime: 34837
Countdown: 0
SampleSet: Soft
StackLeniency: 0.7
Mode: 3
LetterboxInBreaks: 0
SpecialStyle: 0
WidescreenStoryboard: 0

[Editor]
DistanceSpacing: 1
BeatDivisor: 4
GridSize: 4
TimelineZoom: 1.400006

[Metadata]
Title:Mezameta Asa ni wa Kimi ga Tonari ni (TV Size)
TitleUnicode:目覚めた朝にはきみが隣に (TV Size)
Artist:Suzuyu
ArtistUnicode:鈴湯
Creator:ArcherLove
Version:Biasa [NM]
Source:リトルバスターズ!EX
Tags:ending piano maeda jun MANYO (arcane) anime Little Busters! EX
BeatmapID:1004593
BeatmapSetID:469443

[Difficulty]
HPDrainRate:7.5
CircleSize:7
OverallDifficulty:8.1
ApproachRate:5
SliderMultiplier:1.4
SliderTickRate:1

[Events]
//Background and Video events
0,0,"LBBBBBBBB.jpg",0,0
//Break Periods
//Storyboard Layer 0 (Background)
//Storyboard Layer 1 (Fail)
//Storyboard Layer 2 (Pass)
//Storyboard Layer 3 (Foreground)
//Storyboard Sound Samples

[TimingPoints]
605,428.571428571429,4,2,1,30,1,0
33605,410.958904109589,4,2,1,30,1,0
34883,428.571428571429,4,2,1,30,1,0
70853,431.654676258993,4,2,1,30,1,0
71955,428.571428571429,4,2,1,30,1,0
72170,428.571428571429,4,2,1,30,1,0
87620,428.571428571429,4,2,1,30,1,0
88905,444.444444444444,4,2,1,30,1,0
89360,444.444444444444,4,2,1,30,1,0
94693,461.538461538462,4,2,1,30,1,0
95797,461.538461538462,4,2,1,30,1,0
96027,517.241379310345,4,2,1,30,1,0
96027,-82.6446280991736,4,2,1,30,0,0
96544,517.241379310345,4,2,1,30,1,0
96544,-82.6446280991736,4,2,1,30,0,0
97578,526.315789473684,4,2,1,30,1,0
97578,-87.719298245614,4,2,1,30,0,0
98104,731.707317073171,4,2,1,30,1,0
98104,-62.8930817610063,4,2,1,30,0,0
98825,731.707317073171,4,2,1,30,1,0
98825,-62.8930817610063,4,2,1,30,0,0
99585,674.157303370787,4,2,1,30,1,0
99585,-68.4931506849315,4,2,1,30,0,0
99922,689.655172413793,4,2,1,30,1,0
99922,-66.6666666666667,4,2,1,30,0,0
100094,705.882352941176,4,2,1,30,1,0
100094,-65.359477124183,4,2,1,30,0,0
100270,476.190476190476,4,2,1,30,1,0
100270,-97.0873786407767,4,2,1,30,0,0
101244,454.545454545455,4,2,1,30,1,0
101244,-101.567748989528,4,2,1,30,0,0
102156,454.545454545455,4,2,1,30,1,0
102156,-102.040816326531,4,2,1,30,0,0

[HitObjects]
109,192,605,5,0,0:0:0:0:
402,192,819,1,0,0:0:0:0:
402,192,1033,1,0,0:0:0:0:
36,192,1247,1,0,0:0:0:0:
329,192,1462,1,0,0:0:0:0:
329,192,1676,1,0,0:0:0:0:
182,192,1890,1,0,0:0:0:0:
475,192,2105,1,0,0:0:0:0:
475,192,2319,1,0,0:0:0:0:
329,192,2533,1,0,0:0:0:0:
109,192,2747,1,0,0:0:0:0:
109,192,2962,1,0,0:0:0:0:
402,192,3176,1,0,0:0:0:0:
182,192,3390,1,0,0:0:0:0:
182,192,3605,1,0,0:0:0:0:
475,192,3819,1,0,0:0:0:0:
36,192,4033,1,0,0:0:0:0:
36,192,4247,1,0,0:0:0:0:
402,192,4462,1,0,0:0:0:0:
109,192,4676,1,0,0:0:0:0:
109,192,4890,1,0,0:0:0:0:
329,192,5105,1,0,0:0:0:0:
182,192,5319,1,0,0:0:0:0:
182,192,5533,1,0,0:0:0:0:
36,192,5747,1,0,0:0:0:0:
329,192,5962,1,0,0:0:0:0:
329,192,6176,1,0,0:0:0:0:
109,192,6390,1,0,0:0:0:0:
402,192,6605,1,0,0:0:0:0:
402,192,6819,1,0,0:0:0:0:
182,192,7033,128,0,7462:0:0:0:70:LR_Drum Hit Clap Sn.wav
475,192,7462,1,0,0:0:0:70:LR_Kick Dry Fast Low.wav
329,192,7462,1,0,0:0:0:70:cymbal whistle.wav
109,192,7676,1,0,0:0:0:0:
256,192,7890,1,0,0:0:0:70:LR_Kick Dry Fast Low.wav
36,192,8105,1,0,0:0:0:0:
182,192,8319,128,0,8747:0:0:0:70:LR_Kick Dry Fast Low.wav
475,192,8747,1,0,0:0:0:70:LR_Kick Dry Fast Low.wav
329,192,8962,128,0,9390:0:0:0:0:
109,192,9390,1,0,0:0:0:0:
256,192,9605,1,0,0:0:0:70:LR_Kick Dry Fast Low.wav
402,192,9819,1,0,0:0:0:0:
182,192,10033,1,0,0:0:0:70:LR_Kick Dry Fast Low.wav
329,192,10247,1,0,0:0:0:0:
475,192,10462,128,0,10890:0:0:0:70:LR_Kick Dry Fast Low.wav
256,192,10890,1,0,0:0:0:70:LR_Kick Dry Fast Low.wav
36,192,10890,1,0,0:0:0:0:
329,192,11105,1,0,0:0:0:0:
402,192,11319,1,0,0:0:0:70:LR_Kick Dry Fast Low.wav
256,192,11533,1,0,0:0:0:0:
109,192,11747,128,0,12176:0:0:0:70:LR_Kick Dry Fast Low.wav
329,192,12176,1,0,0:0:0:70:LR_Kick Dry Fast Low.wav
182,192,12390,128,0,12819:0:0:0:0:
402,192,12819,1,0,0:0:0:0:
256,192,13033,128,0,13462:0:0:0:70:LR_Kick Dry Fast Low.wav
36,192,13462,1,0,0:0:0:70:LR_Kick Dry Fast Low.wav
182,192,13676,1,0,0:0:0:0:
329,192,13890,1,0,0:0:0:70:LR_Kick Dry Fast Low.wav
475,192,14105,1,0,0:0:0:70:cymbal light.wav
109,192,14319,1,0,0:0:0:70:LR_Kick Dry Fast Low.wav
256,192,14319,1,0,0:0:0:0:
36,192,14533,1,0,0:0:0:0:
182,192,14747,1,0,0:0:0:70:LR_Kick Dry Fast Low.wav
329,192,14747,1,0,0:0:0:0:
402,192,14962,1,0,0:0:0:0:
475,192,15176,128,0,15605:0:0:0:70:LR_Kick Dry Fast Low.wav
256,192,15605,1,0,0:0:0:70:LR_Kick Dry Fast Low.wav
36,192,15819,128,0,16247:0:0:0:0:
182,192,16247,1,0,0:0:0:0:
329,192,16462,1,0,0:0:0:70:LR_Kick Dry Fast Low.wav
475,192,16676,1,0,0:0:0:0:
109,192,16890,128,0,17319:0:0:0:70:LR_Kick Dry Fast Low.wav
256,192,17319,128,0,17747:0:0:0:70:LR_Kick Dry Fast Low.wav
402,192,17747,128,0,18176:0:0:0:70:LR5_Tom Drop Sn.wav
36,192,17747,1,0,0:0:0:0:
182,192,18176,1,0,0:0:0:70:drum clap.wav
36,192,18390,128,0,18819:0:0:0:70:cymbal clap.wav
475,192,18390,1,0,0:0:0:0:
256,192,18819,1,0,0:0:0:70:drum clap.wav
475,192,19033,128,0,20533:0:0:0:70:cymbal finish.wav
182,192,19033,128,0,20533:0:0:0:0:
36,192,19033,1,0,0:0:0:0:
329,192,20533,1,0,0:0:0:70:LR_Drum Hit Clap Sn.wav
256,192,20747,1,0,0:0:0:70:cymbal clap.wav
109,192,20747,1,0,0:0:0:70:drum clap.wav
182,192,21176,1,0,0:0:0:70:LR_Kick Dry Fast Low.wav
36,192,21176,1,0,0:0:0:100:hat light.wav
475,192,21176,1,0,0:0:0:0:
329,192,21390,1,0,0:0:0:100:hat light.wav
475,192,21605,1,0,0:0:0:70:LR_Kick Dry Fast Low.wav
256,192,21819,1,0,0:0:0:100:hat light.wav
402,192,22033,128,0,22462:0:0:0:70:LR_Kick Dry Fast Low.wav
182,192,22462,1,0,0:0:0:70:LR_Kick Dry Fast Low.wav
329,192,22676,128,0,23105:0:0:0:100:hat light.wav
109,192,23105,1,0,0:0:0:100:hat light.wav
256,192,23319,128,0,23747:0:0:0:70:LR_Kick Dry Fast Low.wav
36,192,23747,1,0,0:0:0:70:LR_Kick Dry Fast Low.wav
182,192,23962,1,0,0:0:0:70:cymbal clap.wav
329,192,24176,1,0,0:0:0:100:hat light.wav
475,192,24176,1,0,0:0:0:70:drum clap.wav
256,192,24390,1,0,0:0:0:100:hat light.wav
182,192,24605,1,0,0:0:0:70:LR_Kick Dry Fast Low.wav
36,192,24605,1,0,0:0:0:100:hat light.wav
402,192,24819,1,0,0:0:0:100:hat light.wav
256,192,25033,1,0,0:0:0:70:LR_Kick Dry Fast Low.wav
475,192,25247,1,0,0:0:0:100:hat light.wav
329,192,25462,128,0,25890:0:0:0:70:LR_Kick Dry Fast Low.wav
109,192,25890,1,0,0:0:0:70:LR_Kick Dry Fast Low.wav
256,192,26105,128,0,26533:0:0:0:100:hat light.wav
36,192,26533,1,0,0:0:0:100:hat light.wav
182,192,26747,128,0,27176:0:0:0:70:LR_Kick Dry Fast Low.wav
402,192,26962,1,0,0:0:0:100:hat light.wav
475,192,27176,1,0,0:0:0:70:LR_Kick Dry Fast Low.wav
329,192,27390,1,0,0:0:0:70:cymbal clap.wav
182,192,27605,1,0,0:0:0:100:hat light.wav
36,192,27605,1,0,0:0:0:70:drum clap.wav
475,192,27819,1,0,0:0:0:100:hat light.wav
329,192,28033,1,0,0:0:0:70:LR_Kick Dry Fast Low.wav
182,192,28033,1,0,0:0:0:100:hat light.wav
36,192,28247,1,0,0:0:0:100:hat light.wav
256,192,28462,1,0,0:0:0:70:LR_Kick Dry Fast Low.wav
109,192,28676,1,0,0:0:0:100:hat light.wav
329,192,28890,128,0,29319:0:0:0:70:LR_Kick Dry Fast Low.wav
182,192,29319,1,0,0:0:0:70:LR_Kick Dry Fast Low.wav
402,192,29533,128,0,29962:0:0:0:100:hat light.wav
256,192,29962,1,0,0:0:0:100:hat light.wav
475,192,30176,128,0,30605:0:0:0:70:LR_Kick Dry Fast Low.wav
109,192,30605,1,0,0:0:0:70:LR_Kick Dry Fast Low.wav
256,192,30819,1,0,0:0:0:100:hat light.wav
402,192,31033,1,0,0:0:0:70:cymbal clap.wav
36,192,31033,1,0,0:0:0:100:hat light.wav
182,192,31247,1,0,0:0:0:100:hat light.wav
475,192,31462,128,0,31890:0:0:0:70:LR_Kick Dry Fast Low.wav
329,192,31462,128,0,31890:0:0:0:100:hat light.wav
182,192,31890,1,0,0:0:0:70:drum clap.wav
256,192,32105,128,0,32533:0:0:0:70:cymbal clap.wav
402,192,32105,128,0,32533:0:0:0:0:
109,192,32533,1,0,0:0:0:70:drum clap.wav
329,192,32747,128,0,34015:0:0:0:70:cymbal whistle.wav
182,192,32747,128,0,34015:0:0:0:0:
256,192,33390,1,0,0:0:0:70:cymbal light.wav
36,192,33605,1,0,0:0:0:70:cymbal clap.wav
475,192,33605,1,0,0:0:0:0:
256,192,34015,1,0,0:0:0:70:LR_Kick Dry Fast Low.wav
402,192,34221,1,0,0:0:0:70:LR_Drum Rpd x2.wav
256,192,34324,1,0,0:0:0:70:LR_Drum Rpd x2.wav
109,192,34426,1,0,0:0:0:70:LR_Kick Dry Fast Low.wav
475,192,34632,1,0,0:0:0:0:
329,192,34883,1,0,0:0:0:0:
182,192,34883,1,0,0:0:0:0:
36,192,34883,128,0,36597:0:0:0:0:
256,192,35311,1,0,0:0:0:70:hat click.wav
475,192,35525,1,0,0:0:0:20:drum clap.wav
182,192,35954,1,0,0:0:0:70:LR_Tom Hit X.wav
402,192,36168,1,0,0:0:0:70:LR_Tom Hit Y.wav
109,192,36383,1,0,0:0:0:0:
329,192,36597,1,0,0:0:0:70:LR_Kick Dry Fast Low.wav
475,192,36597,128,0,38311:0:0:0:70:cymbal light.wav
256,192,37025,1,0,0:0:0:70:hat click.wav
36,192,37240,1,0,0:0:0:20:drum clap.wav
329,192,37668,1,0,0:0:0:70:LR_Tom Hit X.wav
109,192,37883,1,0,0:0:0:70:LR_Tom Hit Y.wav
402,192,38097,1,0,0:0:0:0:
182,192,38311,1,0,0:0:0:70:LR_Kick Dry Fast Low.wav
36,192,38311,128,0,40025:0:0:0:70:hat click.wav
402,192,38740,1,0,0:0:0:70:hat click.wav
182,192,38954,1,0,0:0:0:20:drum clap.wav
475,192,39383,1,0,0:0:0:70:LR_Tom Hit X.wav
329,192,39597,1,0,0:0:0:70:LR_Tom Hit Y.wav
182,192,39811,1,0,0:0:0:0:
475,192,40025,128,0,41740:0:0:0:70:LR_Kick Dry Fast Low.wav
256,192,40025,1,0,0:0:0:70:hat click.wav
109,192,40454,1,0,0:0:0:70:hat click.wav
329,192,40668,1,0,0:0:0:20:drum clap.wav
36,192,41097,1,0,0:0:0:70:LR_Tom Hit X.wav
182,192,41311,1,0,0:0:0:70:LR_Tom Hit Y.wav
256,192,41740,1,0,0:0:0:70:LR_Kick Dry Fast Low.wav
109,192,41740,128,0,43454:0:0:0:70:hat click.wav
402,192,42168,1,0,0:0:0:70:hat click.wav
256,192,42383,1,0,0:0:0:20:drum clap.wav
475,192,42811,1,0,0:0:0:70:LR_Tom Hit X.wav
329,192,43025,1,0,0:0:0:70:LR_Tom Hit Y.wav
36,192,43454,1,0,0:0:0:70:LR_Kick Dry Fast Low.wav
402,192,43454,128,0,45168:0:0:0:70:hat click.wav
182,192,43883,1,0,0:0:0:70:hat click.wav
329,192,44097,1,0,0:0:0:20:drum clap.wav
36,192,44525,1,0,0:0:0:70:LR_Tom Hit X.wav
182,192,44740,1,0,0:0:0:70:LR_Tom Hit Y.wav
329,192,44954,1,0,0:0:0:0:
475,192,45168,1,0,0:0:0:70:LR_Kick Dry Fast Low.wav
109,192,45168,128,0,46883:0:0:0:70:hat click.wav
256,192,45597,1,0,0:0:0:70:hat click.wav
475,192,45811,1,0,0:0:0:20:drum clap.wav
182,192,46240,1,0,0:0:0:70:LR_Tom Hit X.wav
329,192,46454,1,0,0:0:0:70:LR_Tom Hit Y.wav
256,192,46668,1,0,0:0:0:0:
402,192,46883,128,0,48597:0:0:0:70:LR_Kick Dry Fast Low.wav
182,192,46883,1,0,0:0:0:70:hat click.wav
256,192,47311,1,0,0:0:0:70:hat click.wav
36,192,47525,1,0,0:0:0:20:drum clap.wav
329,192,47954,1,0,0:0:0:70:LR_Tom Hit X.wav
182,192,48168,1,0,0:0:0:70:LR_Tom Hit Y.wav
329,192,48597,1,0,0:0:0:70:LR_Kick Dry Fast Low.wav
182,192,48597,128,0,50311:0:0:0:70:hat click.wav
36,192,48597,1,0,0:0:0:0:
36,192,49025,1,0,0:0:0:70:hat click.wav
475,192,49240,1,0,0:0:0:20:drum clap.wav
329,192,49454,1,0,0:0:0:70:cymbal clap.wav
256,192,49454,1,0,0:0:0:0:
329,192,50311,128,0,52025:0:0:0:30:drum clap.wav
109,192,50311,1,0,0:0:0:0:
402,192,50311,1,0,0:0:0:0:
475,192,50740,1,0,0:0:0:20:cymbal light.wav
36,192,50954,1,0,0:0:0:0:
182,192,51168,1,0,0:0:0:70:LR_kick DS.wav
475,192,51383,1,0,0:0:0:70:hat light.wav
109,192,51597,1,0,0:0:0:20:cymbal light.wav
402,192,51811,1,0,0:0:0:0:
256,192,52025,128,0,53740:0:0:0:70:LR_kick DS.wav
36,192,52025,1,0,0:0:0:0:
182,192,52025,1,0,0:0:0:0:
402,192,52240,1,0,0:0:0:70:hat light.wav
475,192,52454,1,0,0:0:0:20:cymbal light.wav
329,192,52668,1,0,0:0:0:0:
402,192,52883,1,0,0:0:0:70:LR_kick DS.wav
36,192,53097,1,0,0:0:0:70:hat light.wav
182,192,53311,1,0,0:0:0:20:cymbal light.wav
329,192,53525,1,0,0:0:0:0:
36,192,53740,128,0,55454:0:0:0:70:LR_kick DS.wav
109,192,53740,1,0,0:0:0:0:
475,192,53740,128,0,55454:0:0:0:0:
182,192,53954,1,0,0:0:0:70:hat light.wav
256,192,54168,1,0,0:0:0:40:LR_Drum Hit Clap Sn.wav
329,192,54383,1,0,0:0:0:70:LR_Drum Rpd x2.wav
256,192,54490,1,0,0:0:0:70:LR_Drum Rpd x2.wav
182,192,54597,1,0,0:0:0:70:LR_Drum Hit Clap Sn.wav
402,192,54597,1,0,0:0:0:0:
329,192,54811,1,0,0:0:0:70:LR_Tom Hit Z.wav
256,192,55025,1,0,0:0:0:70:LR_Drum Hit Clap Sn.wav
329,192,55133,1,0,0:0:0:0:
182,192,55240,1,0,0:0:0:70:LR_Drum Rpd x2.wav
402,192,55240,1,0,0:0:0:0:
256,192,55454,1,0,0:0:0:70:LR_Kick Dry Fast Low.wav
329,192,55454,1,0,0:0:0:70:hat light.wav
109,192,55454,128,0,55883:0:0:0:0:
182,192,55883,128,0,56311:0:0:0:70:LR_Kick Dry Fast Low.wav
329,192,55883,1,0,0:0:0:70:hat light.wav
402,192,55883,1,0,0:0:0:0:
256,192,56311,128,0,56740:0:0:0:70:LR_Kick Dry Fast Low.wav
402,192,56311,1,0,0:0:0:70:hat light.wav
475,192,56311,1,0,0:0:0:0:
329,192,56740,128,0,57168:0:0:0:70:LR_Kick Dry Fast Low.wav
109,192,56740,1,0,0:0:0:70:hat light.wav
36,192,56740,1,0,0:0:0:0:
182,192,57168,128,0,57383:0:0:0:70:LR_Kick Dry Fast Low.wav
402,192,57168,1,0,0:0:0:70:hat light.wav
36,192,57383,128,0,57597:0:0:0:70:hat light.wav
329,192,57597,1,0,0:0:0:70:LR_Kick Dry Fast Low.wav
475,192,57597,1,0,0:0:0:70:hat light.wav
182,192,57811,1,0,0:0:0:70:hat light.wav
329,192,58025,128,0,58240:0:0:0:70:LR_Kick Dry Fast Low.wav
36,192,58025,1,0,0:0:0:70:hat light.wav
182,192,58240,128,0,58454:0:0:0:70:hat light.wav
329,192,58454,128,0,58668:0:0:0:70:LR_Kick Dry Fast Low.wav
36,192,58454,1,0,0:0:0:70:hat light.wav
475,192,58668,128,0,59311:0:0:0:70:hat light.wav
109,192,58883,1,0,0:0:0:70:LR_Kick Dry Fast Low.wav
256,192,58883,1,0,0:0:0:70:hat light.wav
256,192,59311,128,0,59740:0:0:0:70:LR_Kick Dry Fast Low.wav
36,192,59311,1,0,0:0:0:70:hat light.wav
182,192,59311,1,0,0:0:0:0:
402,192,59740,128,0,59954:0:0:0:70:LR_Kick Dry Fast Low.wav
109,192,59740,1,0,0:0:0:70:hat light.wav
182,192,59954,128,0,60168:0:0:0:70:LR_Kick Dry Fast Low.wav
402,192,60168,128,0,60383:0:0:0:70:hat light.wav
329,192,60168,1,0,0:0:0:20:drum clap.wav
109,192,60383,128,0,61883:0:0:0:70:LR_Tom Hit Z.wav
256,192,60383,1,0,0:0:0:70:hat light.wav
402,192,60597,1,0,0:0:0:70:LR_Kick Dry Fast Low.wav
475,192,60597,1,0,0:0:0:70:hat light.wav
329,192,60811,1,0,0:0:0:70:hat light.wav
256,192,61025,1,0,0:0:0:70:hat light.wav
182,192,61025,1,0,0:0:0:20:drum clap.wav
475,192,61240,1,0,0:0:0:70:hat light.wav
402,192,61454,1,0,0:0:0:70:LR_Kick Dry Fast Low.wav
329,192,61454,1,0,0:0:0:70:hat light.wav
182,192,61668,1,0,0:0:0:70:LR_Kick Dry Fast Low.wav
329,192,61775,1,0,0:0:0:30:drum clap.wav
475,192,61883,1,0,0:0:0:20:drum clap.wav
36,192,61883,1,0,0:0:0:70:hat light.wav
256,192,62097,128,0,62311:0:0:0:70:LR_Tom Hit Z.wav
402,192,62097,1,0,0:0:0:70:hat light.wav
329,192,62311,1,0,0:0:0:70:LR_Kick Dry Fast Low.wav
36,192,62311,1,0,0:0:0:70:hat light.wav
182,192,62311,128,0,62740:0:0:0:0:
109,192,62740,128,0,63168:0:0:0:20:drum clap.wav
402,192,62740,1,0,0:0:0:70:hat light.wav
256,192,62740,1,0,0:0:0:0:
36,192,63168,128,0,63597:0:0:0:70:LR_Kick Dry Fast Low.wav
329,192,63168,1,0,0:0:0:70:hat light.wav
182,192,63168,1,0,0:0:0:0:
475,192,63597,128,0,63811:0:0:0:70:hat light.wav
256,192,63597,1,0,0:0:0:20:drum clap.wav
109,192,63597,1,0,0:0:0:0:
329,192,63811,128,0,64025:0:0:0:70:LR_Tom Hit Z.wav
475,192,64025,128,0,64240:0:0:0:70:LR_Kick Dry Fast Low.wav
182,192,64025,1,0,0:0:0:70:hat light.wav
36,192,64025,1,0,0:0:0:0:
329,192,64240,128,0,64668:0:0:0:70:hat light.wav
36,192,64454,1,0,0:0:0:20:drum clap.wav
182,192,64454,1,0,0:0:0:70:hat light.wav
402,192,64668,1,0,0:0:0:70:hat light.wav
475,192,64668,1,0,0:0:0:0:
329,192,64883,128,0,65097:0:0:0:70:LR_Kick Dry Fast Low.wav
36,192,64883,1,0,0:0:0:70:hat light.wav
182,192,65097,128,0,65311:0:0:0:70:LR_Kick Dry Fast Low.wav
329,192,65311,128,0,65525:0:0:0:20:drum clap.wav
36,192,65311,1,0,0:0:0:70:hat light.wav
475,192,65525,128,0,66168:0:0:0:70:LR_Tom Hit Z.wav
36,192,65740,1,0,0:0:0:70:LR_Kick Dry Fast Low.wav
256,192,65740,1,0,0:0:0:70:hat light.wav
182,192,66168,128,0,66597:0:0:0:70:hat light.wav
329,192,66168,1,0,0:0:0:20:drum clap.wav
402,192,66597,128,0,66811:0:0:0:70:LR_Kick Dry Fast Low.wav
36,192,66597,1,0,0:0:0:70:hat light.wav
256,192,66811,128,0,67025:0:0:0:70:LR_Kick Dry Fast Low.wav
402,192,67025,128,0,67240:0:0:0:70:hat light.wav
36,192,67025,1,0,0:0:0:20:drum clap.wav
182,192,67025,1,0,0:0:0:0:
256,192,67240,128,0,69168:0:0:0:70:LR_Tom Hit Z.wav
109,192,67454,1,0,0:0:0:70:LR_Kick Dry Fast Low.wav
475,192,67454,1,0,0:0:0:70:hat light.wav
402,192,67668,1,0,0:0:0:70:hat light.wav
329,192,67883,1,0,0:0:0:20:drum clap.wav
36,192,67883,1,0,0:0:0:70:hat light.wav
109,192,68097,1,0,0:0:0:70:hat light.wav
182,192,68311,1,0,0:0:0:70:LR_Kick Dry Fast Low.wav
475,192,68311,1,0,0:0:0:70:hat light.wav
402,192,68525,1,0,0:0:0:70:LR_Kick Dry Fast Low.wav
329,192,68740,1,0,0:0:0:20:drum clap.wav
36,192,68740,1,0,0:0:0:70:hat light.wav
109,192,68954,1,0,0:0:0:70:LR_Tom Hit Z.wav
182,192,69168,1,0,0:0:0:70:LR_kick DS.wav
475,192,69168,128,0,70853:0:0:0:70:hat light.wav
329,192,69168,128,0,70853:0:0:0:0:
36,192,69811,128,0,70025:0:0:0:70:LR_Drum Rpd x2.wav
109,192,70025,128,0,70240:0:0:0:70:LR_Drum Hit Clap Sn.wav
182,192,70240,128,0,70454:0:0:0:30:LR_Tom Hit Z.wav
256,192,70454,128,0,70668:0:0:0:70:LR_Drum Hit Clap Sn.wav
36,192,70668,128,0,70853:0:0:0:70:LR_Drum Rpd x2.wav
402,192,70853,1,0,0:0:0:0:
182,192,70853,1,0,0:0:0:0:
475,192,71500,128,0,71955:0:0:0:0:
329,192,71955,128,0,72170:0:0:0:0:
182,192,72169,1,0,0:0:0:70:cymbal light.wav
109,192,72169,1,0,0:0:0:0:
475,192,72170,128,0,72384:0:0:0:0:
256,192,72384,128,0,72598:0:0:0:0:
402,192,72598,128,0,72812:0:0:0:70:LR_Kick Dry Fast Low.wav
36,192,72598,1,0,0:0:0:70:cymbal light.wav
182,192,72812,128,0,73027:0:0:0:0:
329,192,73027,128,0,73241:0:0:0:70:LR_Kick Dry Fast Low.wav
475,192,73027,1,0,0:0:0:70:cymbal light.wav
109,192,73241,128,0,73455:0:0:0:0:
256,192,73455,128,0,73670:0:0:0:70:LR_Kick Dry Fast Low.wav
402,192,73455,1,0,0:0:0:70:cymbal light.wav
36,192,73670,128,0,73884:0:0:0:0:
182,192,73884,128,0,74098:0:0:0:70:LR_Kick Dry Fast Low.wav
329,192,73884,1,0,0:0:0:70:cymbal light.wav
475,192,73884,1,0,0:0:0:0:
256,192,74312,1,0,0:0:0:70:LR_Kick Dry Fast Low.wav
402,192,74312,1,0,0:0:0:70:cymbal light.wav
109,192,74527,128,0,74741:0:0:0:0:
329,192,74741,128,0,74955:0:0:0:70:LR_Kick Dry Fast Low.wav
475,192,74741,1,0,0:0:0:70:cymbal light.wav
182,192,74955,128,0,75170:0:0:0:0:
402,192,75170,128,0,75384:0:0:0:70:LR_Kick Dry Fast Low.wav
36,192,75170,1,0,0:0:0:70:cymbal light.wav
256,192,75384,128,0,75598:0:0:0:0:
475,192,75598,128,0,75812:0:0:0:70:LR_Kick Dry Fast Low.wav
182,192,75598,1,0,0:0:0:70:cymbal light.wav
329,192,75598,1,0,0:0:0:0:
36,192,75812,128,0,76027:0:0:0:0:
329,192,76027,128,0,76241:0:0:0:70:LR_Kick Dry Fast Low.wav
475,192,76027,1,0,0:0:0:70:cymbal light.wav
182,192,76241,128,0,76455:0:0:0:0:
329,192,76455,128,0,76670:0:0:0:70:LR_Kick Dry Fast Low.wav
475,192,76455,1,0,0:0:0:70:cymbal light.wav
109,192,76670,128,0,76884:0:0:0:0:
256,192,76884,128,0,77098:0:0:0:70:LR_Kick Dry Fast Low.wav
36,192,76884,1,0,0:0:0:70:cymbal light.wav
402,192,77098,128,0,77312:0:0:0:0:
36,192,77312,128,0,77741:0:0:0:70:LR_Kick Dry Fast Low.wav
475,192,77312,1,0,0:0:0:70:cymbal light.wav
329,192,77312,1,0,0:0:0:0:
182,192,77741,128,0,78170:0:0:0:70:LR_Kick Dry Fast Low.wav
329,192,77741,1,0,0:0:0:70:cymbal light.wav
475,192,77741,1,0,0:0:0:0:
475,192,78170,128,0,78384:0:0:0:70:LR_Kick Dry Fast Low.wav
36,192,78170,1,0,0:0:0:70:cymbal light.wav
329,192,78384,128,0,78598:0:0:0:0:
182,192,78384,1,0,0:0:0:0:
109,192,78598,128,0,78812:0:0:0:70:LR_Kick Dry Fast Low.wav
402,192,78598,1,0,0:0:0:70:cymbal light.wav
256,192,78812,128,0,79027:0:0:0:0:
402,192,79027,128,0,79241:0:0:0:70:LR_Kick Dry Fast Low.wav
109,192,79027,1,0,0:0:0:70:cymbal light.wav
36,192,79027,1,0,0:0:0:0:
182,192,79241,128,0,79455:0:0:0:0:
36,192,79455,128,0,79670:0:0:0:70:LR_Kick Dry Fast Low.wav
329,192,79455,1,0,0:0:0:70:cymbal light.wav
475,192,79455,1,0,0:0:0:0:
256,192,79670,128,0,79884:0:0:0:0:
109,192,79884,128,0,80098:0:0:0:70:LR_Kick Dry Fast Low.wav
475,192,79884,1,0,0:0:0:70:cymbal light.wav
329,192,80098,128,0,80312:0:0:0:0:
182,192,80312,128,0,80527:0:0:0:70:LR_Kick Dry Fast Low.wav
36,192,80312,1,0,0:0:0:70:cymbal light.wav
402,192,80527,128,0,80741:0:0:0:0:
256,192,80741,128,0,80955:0:0:0:70:LR_Kick Dry Fast Low.wav
109,192,80741,1,0,0:0:0:70:cymbal light.wav
475,192,80741,1,0,0:0:0:0:
109,192,81170,128,0,81384:0:0:0:70:LR_Kick Dry Fast Low.wav
475,192,81170,1,0,0:0:0:70:cymbal light.wav
329,192,81384,128,0,81598:0:0:0:0:
36,192,81598,128,0,81812:0:0:0:70:LR_Kick Dry Fast Low.wav
182,192,81598,1,0,0:0:0:70:cymbal light.wav
402,192,81812,128,0,82027:0:0:0:0:
109,192,82027,128,0,82241:0:0:0:70:LR_Kick Dry Fast Low.wav
256,192,82027,1,0,0:0:0:70:cymbal light.wav
329,192,82241,128,0,82455:0:0:0:0:
182,192,82455,128,0,82670:0:0:0:70:LR_Kick Dry Fast Low.wav
36,192,82455,1,0,0:0:0:70:cymbal light.wav
475,192,82455,1,0,0:0:0:0:
402,192,82670,128,0,82884:0:0:0:0:
109,192,82884,128,0,83098:0:0:0:70:LR_Kick Dry Fast Low.wav
256,192,82884,1,0,0:0:0:70:cymbal light.wav
475,192,83098,128,0,83312:0:0:0:0:
256,192,83312,128,0,83527:0:0:0:70:LR_Kick Dry Fast Low.wav
109,192,83312,1,0,0:0:0:70:cymbal light.wav
36,192,83527,128,0,83741:0:0:0:0:
402,192,83741,128,0,83955:0:0:0:70:LR_Kick Dry Fast Low.wav
256,192,83741,1,0,0:0:0:70:cymbal light.wav
182,192,83955,128,0,84170:0:0:0:0:
329,192,84170,128,0,85884:0:0:0:70:hat light.wav
475,192,84170,1,0,0:0:0:0:
36,192,84170,1,0,0:0:0:0:
109,192,84384,1,0,0:0:0:70:hat light.wav
182,192,84598,1,0,0:0:0:70:cymbal light.wav
256,192,84598,1,0,0:0:0:0:
475,192,84812,1,0,0:0:0:70:hat light.wav
402,192,85027,1,0,0:0:0:70:cymbal light.wav
109,192,85241,1,0,0:0:0:0:
182,192,85455,1,0,0:0:0:50:cymbal clap.wav
475,192,85455,1,0,0:0:0:0:
256,192,85670,1,0,0:0:0:70:cymbal light.wav
182,192,85884,128,0,87620:0:0:0:70:cymbal finish.wav
36,192,85884,128,0,87620:0:0:0:0:
475,192,86527,1,0,0:0:0:0:
402,192,86741,1,0,0:0:0:0:
329,192,86955,1,0,0:0:0:0:
256,192,87170,1,0,0:0:0:0:
475,192,87384,1,0,0:0:0:0:
402,192,87620,128,0,88477:0:0:0:0:
182,192,88477,128,0,89360:0:0:0:0:
475,192,88477,128,0,89360:0:0:0:0:
36,192,89360,1,0,0:0:0:0:
109,192,89582,1,0,0:0:0:0:
182,192,89804,1,0,0:0:0:0:
256,192,90026,1,0,0:0:0:0:
329,192,90248,1,0,0:0:0:0:
475,192,90248,1,0,0:0:0:0:
36,192,90248,1,0,0:0:0:0:
256,192,90471,1,0,0:0:0:0:
182,192,90693,1,0,0:0:0:0:
109,192,90915,1,0,0:0:0:0:
36,192,91137,1,0,0:0:0:0:
475,192,91137,1,0,0:0:0:0:
256,192,91137,1,0,0:0:0:0:
402,192,91360,1,0,0:0:0:0:
329,192,91582,1,0,0:0:0:0:
256,192,91804,1,0,0:0:0:0:
182,192,92026,1,0,0:0:0:0:
36,192,92026,1,0,0:0:0:0:
475,192,92026,1,0,0:0:0:0:
256,192,92248,1,0,0:0:0:0:
329,192,92471,1,0,0:0:0:0:
402,192,92693,1,0,0:0:0:0:
475,192,92915,1,0,0:0:0:0:
109,192,92915,1,0,0:0:0:0:
36,192,92915,1,0,0:0:0:0:
182,192,93137,1,0,0:0:0:0:
256,192,93360,1,0,0:0:0:0:
329,192,93582,1,0,0:0:0:0:
402,192,93804,1,0,0:0:0:0:
109,192,93804,1,0,0:0:0:0:
36,192,93804,1,0,0:0:0:0:
182,192,94026,1,0,0:0:0:0:
256,192,94248,1,0,0:0:0:0:
329,192,94471,1,0,0:0:0:0:
402,192,94693,1,0,0:0:0:0:
475,192,94693,1,0,0:0:0:0:
36,192,94693,1,0,0:0:0:0:
182,192,94923,1,0,0:0:0:0:
329,192,95154,1,0,0:0:0:0:
109,192,95385,1,0,0:0:0:0:
256,192,95616,1,0,0:0:0:0:
402,192,95797,1,0,0:0:0:0:
36,192,96027,1,0,0:0:0:0:
182,192,96285,1,0,0:0:0:0:
329,192,96544,1,0,0:0:0:0:
475,192,96544,1,0,0:0:0:0:
109,192,96802,1,0,0:0:0:0:
256,192,97061,1,0,0:0:0:0:
402,192,97061,1,0,0:0:0:0:
36,192,97319,1,0,0:0:0:0:
182,192,97578,1,0,0:0:0:0:
329,192,97578,1,0,0:0:0:0:
475,192,97841,1,0,0:0:0:0:
402,192,98104,128,0,98652:0:0:0:0:
256,192,98104,128,0,98652:0:0:0:0:
36,192,98652,1,0,0:0:0:0:
182,192,98744,1,0,0:0:0:0:
329,192,98825,1,0,0:0:0:0:
475,192,98825,1,0,0:0:0:0:
329,192,99190,1,0,0:0:0:0:
256,192,99373,1,0,0:0:0:0:
182,192,99585,1,0,0:0:0:0:
475,192,99753,1,0,0:0:0:0:
329,192,99922,1,0,0:0:0:0:
182,192,100094,1,0,0:0:0:0:
36,192,100270,1,0,0:0:0:0:
402,192,100508,1,0,0:0:0:0:
256,192,100865,1,0,0:0:0:0:
109,192,101244,1,0,0:0:0:0:
256,192,101783,1,0,0:0:0:0:
36,192,101869,1,0,0:0:0:0:
109,192,101925,1,0,0:0:0:0:
182,192,102011,1,0,0:0:0:0:
475,192,102156,128,0,103974:0:0:0:0:
256,192,102156,128,0,103974:0:0:0:0:
