osu file format v14

[General]
AudioFilename: audio.mp3
AudioLeadIn: 0
PreviewTime: 45214
Countdown: 0
SampleSet: Soft
StackLeniency: 0.5
Mode: 0
LetterboxInBreaks: 0
WidescreenStoryboard: 1

[Editor]
DistanceSpacing: 0.5
BeatDivisor: 4
GridSize: 32
TimelineZoom: 1.9

[Metadata]
Title:Love Emotion!
TitleUnicode:Love Emotion!
Artist:Suzuyu
ArtistUnicode:鈴湯
Creator:Dored
Version:joker's Insane
Source:推しのラブより恋のラブ
Tags:Oshi no Love Yori Koi no Love OshiRabu Waifus Over Husbandos SukeraSomero SukeraSparo Short Version Ver Opening OP よる。 Firika Oiso joker- Eir SuperDalouBot UjiMatcha Visual Novel Video Game Japanese Yuri
BeatmapID:2382557
BeatmapSetID:1119012

[Difficulty]
HPDrainRate:5
CircleSize:4
OverallDifficulty:8
ApproachRate:9
SliderMultiplier:2.65
SliderTickRate:1

[Events]
//Background and Video events
Video,115,"Dored.avi"
0,0,"B.jpg",0,0
//Break Periods
//Storyboard Layer 0 (Background)
//Storyboard Layer 1 (Fail)
//Storyboard Layer 2 (Pass)
//Storyboard Layer 3 (Foreground)
//Storyboard Layer 4 (Overlay)
//Storyboard Sound Samples

[TimingPoints]
635,419.58041958042,4,2,1,40,1,0
635,-100,4,2,1,40,0,0
739,-100,4,2,1,30,0,0
949,-100,4,2,1,40,0,0
1054,-100,4,2,1,30,0,0
1264,-100,4,2,1,40,0,0
1683,-142.857142857143,4,2,1,40,0,0
2313,-166.666666666667,4,2,1,50,0,0
3152,-125,4,2,1,50,0,0
5669,-100,4,2,1,60,0,0
6718,-125,4,2,1,50,0,0
6928,-125,4,2,1,60,0,0
7348,-100,4,2,1,60,0,0
8397,-125,4,2,1,50,0,0
8607,-125,4,2,1,60,0,0
9026,-111.111111111111,4,2,1,60,0,0
12383,-99.9999999999999,4,2,1,60,0,0
15739,-142.857142857143,4,2,1,45,0,0
21614,-125,4,2,1,50,0,0
22033,-111.111111111111,4,2,1,55,0,0
22453,209.79020979021,4,2,1,65,1,0
22453,-166.666666666667,4,2,1,65,0,0
27487,-166.666666666667,4,2,1,65,0,0
29166,419.58041958042,4,2,2,55,1,0
29166,-100,4,2,2,55,0,0
35879,-111.111111111111,4,2,1,60,0,0
42592,-111.111111111111,4,2,1,65,0,0
42697,-111.111111111111,4,2,1,50,0,0
42802,-111.111111111111,4,2,1,60,0,0
43012,-99.9999999999999,4,2,1,65,0,0
43117,-99.9999999999999,4,2,1,50,0,0
43221,-99.9999999999999,4,2,1,60,0,0
43431,-90.9090909090909,4,2,1,65,0,0
43536,-90.9090909090909,4,2,1,50,0,0
43641,-90.9090909090909,4,2,1,60,0,0
43851,-83.3333333333333,4,2,1,65,0,0
44270,-90.9090909090909,4,2,1,70,0,0
44690,-83.3333333333333,4,2,1,70,0,0
45319,-83.3333333333333,4,2,1,60,0,0
45949,-83.3333333333333,4,2,1,70,0,0
59375,-83.3333333333333,4,2,1,65,0,0
64200,-100,4,2,1,65,0,0
66089,-83.3333333333333,4,2,1,65,0,0
72802,-100,4,2,1,60,0,0
74690,-83.3333333333333,4,2,1,70,0,0
75319,-111.111111111111,4,2,1,70,0,0
75844,-111.111111111111,4,2,1,20,0,0

[Colours]
Combo1 : 252,245,173
Combo2 : 140,140,255
Combo3 : 85,162,255
Combo4 : 138,251,181

[HitObjects]
385,193,635,5,0,1:0:0:0:
385,193,739,2,0,P|352:194|321:203,1,66.2499999999999,0|0,1:0|0:0,0:0:0:0:
254,95,949,5,0,1:0:0:0:
254,95,1054,2,0,P|233:120|221:151,1,66.2499999999999,0|0,1:0|3:0,0:0:0:0:
111,178,1264,6,0,P|123:209|143:236,1,66.2499999999999,8|0,3:3|0:0,0:0:0:0:
245,272,1474,1,4,1:3:0:0:
177,351,1683,6,0,L|84:363,2,92.7499971694946,2|2|2,0:0|0:0|0:0,0:0:0:0:
346,335,2313,6,0,B|356:245|356:245|403:211|403:211|414:115,1,238.499992721558,4|2,2:1|0:0,0:0:0:0:
257,169,3152,6,0,P|198:177|146:137,1,106,4|2,3:2|0:0,0:0:0:0:
186,7,3467,2,0,P|219:46|222:97,1,106,4|0,3:2|0:0,0:0:0:0:
47,127,3781,2,0,B|-3:96|-3:96|63:47|147:77,1,212,6|2,3:2|3:2,0:0:0:0:
141,75,4411,5,0,3:0:0:0:
120,259,4621,1,2,1:2:0:0:
120,259,4725,1,0,1:0:0:0:
120,259,4830,2,0,L|243:245,1,106,0|0,1:0|3:0,0:0:0:0:
285,131,5250,2,0,L|392:143,1,106,6|0,1:2|1:0,0:0:0:0:
390,143,5565,1,0,1:0:0:0:
462,89,5669,6,0,P|437:209|425:275,1,132.5,4|0,1:0|3:0,0:0:0:0:
490,326,5984,2,0,P|435:274|379:295,1,132.5,4|0,1:2|3:0,0:0:0:0:
259,269,6299,2,0,P|313:320|369:299,1,132.5,4|0,1:2|3:0,0:0:0:0:
256,144,6718,6,0,L|212:148,3,35.3333333333333,0|0|0|0,3:0|1:0|1:0|1:0,0:0:0:0:
184,168,7033,1,0,1:0:0:0:
184,168,7138,2,0,L|114:174,1,52.9999999999999,0|0,3:0|0:0,0:0:0:0:
35,114,7348,6,0,B|14:182|14:182|39:243,1,132.5,4|0,1:0|3:0,0:0:0:0:
3,345,7662,2,0,B|66:325|66:325|134:359,1,132.5,4|0,1:2|3:0,0:0:0:0:
187,263,7977,2,0,L|355:250,1,132.5,4|0,1:2|3:0,0:0:0:0:
424,348,8397,6,0,L|427:312,3,35.3333333333333,0|0|0|0,3:0|1:0|1:0|1:0,0:0:0:0:
419,271,8712,1,0,1:0:0:0:
419,271,8817,2,0,L|425:201,1,52.9999999999999,0|0,3:0|1:0,0:0:0:0:
429,135,9026,5,4,3:1:0:0:
282,202,9236,2,0,L|272:128,1,59.6249981803894,2|0,0:0|3:0,0:0:0:0:
264,53,9446,1,2,1:2:0:0:
67,165,9655,1,2,0:0:0:0:
67,165,9760,1,0,1:0:0:0:
67,165,9865,2,0,P|127:153|177:181,1,119.249996360779,0|2,0:0|3:2,0:0:0:0:
267,290,10285,1,2,1:2:0:0:
16,307,10495,6,0,B|121:334|121:334|186:309,1,178.874994541168,2|0,3:2|0:0,0:0:0:0:
273,230,10914,2,0,L|265:300,1,59.6249981803894,2|0,3:2|0:0,0:0:0:0:
257,384,11124,1,2,1:2:0:0:
411,325,11334,1,2,3:2:0:0:
411,325,11439,1,0,1:0:0:0:
411,325,11544,2,0,L|402:265,1,59.6249981803894,0|0,3:0|3:0,0:0:0:0:
502,167,11753,5,0,3:0:0:0:
502,167,11963,1,2,3:2:0:0:
467,184,12067,1,0,1:0:0:0:
429,183,12172,1,0,3:0:0:0:
395,165,12277,1,0,0:0:0:0:
365,135,12383,6,0,P|213:125|164:122,1,198.75,4|0,3:1|3:0,0:0:0:0:
68,120,12802,1,0,1:0:0:0:
242,304,13012,2,0,B|184:325|184:325|67:298,1,132.5,4|0,1:2|0:0,0:0:0:0:
0,213,13432,2,0,B|54:192|54:192|167:218,1,132.5,6|2,1:2|0:0,0:0:0:0:
127,208,13746,1,0,0:0:0:0:
215,204,13851,6,0,B|202:61|202:61|254:126,1,198.75,6|0,3:2|0:0,0:0:0:0:
298,197,14271,1,2,1:2:0:0:
346,19,14481,1,2,1:2:0:0:
420,78,14690,1,2,1:2:0:0:
429,169,14900,1,0,3:0:0:0:
392,250,15110,1,2,3:2:0:0:
252,19,15320,1,4,3:2:0:0:
311,294,15739,5,0,3:0:0:0:
121,215,15949,2,0,L|237:224,2,92.7499971694947,2|2|2,0:2|3:2|0:2,0:0:0:0:
121,215,16579,1,0,3:0:0:0:
33,365,16788,2,0,L|149:355,2,92.7499971694947,2|2|2,0:2|3:2|0:2,0:0:0:0:
32,209,17418,5,2,3:2:0:0:
219,225,17628,1,2,0:2:0:0:
126,218,17837,1,2,3:2:0:0:
312,233,18047,2,0,L|213:224,1,92.7499971694947,2|0,0:2|3:0,0:0:0:0:
410,242,18467,2,0,L|503:250,2,92.7499971694947,2|2|2,0:2|3:2|0:2,0:0:0:0:
256,148,19096,5,0,3:0:0:0:
302,318,19306,2,0,L|310:209,2,92.7499971694947,2|2|2,0:2|3:2|0:2,0:0:0:0:
233,373,19830,2,0,P|183:378|144:358,1,92.7499971694947,2|0,0:2|0:0,0:0:0:0:
86,298,20145,2,0,P|44:277|-1:284,1,92.7499971694947,2|2,0:2|3:2,0:0:0:0:
132,186,20565,1,2,1:2:0:0:
132,186,20669,1,0,1:0:0:0:
132,186,20774,6,0,B|173:147|173:147|227:192|268:192|329:160|343:106|336:68|313:39,1,324.624990093232,2|0,3:2|0:0,0:0:0:0:
244,87,21614,2,0,B|162:56|162:56|83:78,1,159,2|2,3:2|3:2,0:0:0:0:
37,12,22033,2,0,P|9:74|22:122,1,119.249996360779,0|0,0:0|3:0,0:0:0:0:
21,121,22453,6,0,B|51:230|51:230|24:286,1,158.999995147705,4|0,3:1|1:0,0:0:0:0:
104,357,22767,1,0,0:0:0:0:
201,305,22872,2,0,P|226:260|220:215,1,79.4999975738526,0|0,3:0|0:0,0:0:0:0:
176,137,23082,2,0,P|176:96|199:61,1,79.4999975738526,2|0,1:2|3:0,0:0:0:0:
294,7,23292,5,2,0:0:0:0:
294,7,23397,1,0,3:0:0:0:
374,70,23501,2,0,P|397:121|402:165,1,79.4999975738526,2|2,1:2|0:0,0:0:0:0:
506,133,23711,2,0,P|500:188|481:228,1,79.4999975738526,0|0,3:0|0:0,0:0:0:0:
512,309,23921,2,0,B|452:326|452:326|401:302,1,119.249996360779,2|0,1:2|0:0,0:0:0:0:
368,286,24131,6,0,B|296:255|296:255|200:277,1,158.999995147705,2|2,3:2|1:2,0:0:0:0:
163,360,24446,1,0,0:0:0:0:
163,360,24550,2,0,B|126:379|126:379|66:369,1,79.4999975738526,2|0,3:2|0:0,0:0:0:0:
36,293,24760,2,0,B|17:256|17:256|24:218,1,79.4999975738526,0|0,1:0|3:0,0:0:0:0:
89,133,24970,5,2,0:0:0:0:
89,133,25075,1,0,3:0:0:0:
0,43,25181,2,0,P|41:36|87:53,1,79.4999975738526,0|0,1:0|0:0,0:0:0:0:
162,89,25390,2,0,P|204:93|249:76,1,79.4999975738526,0|0,3:0|0:0,0:0:0:0:
343,43,25599,2,0,P|396:30|467:67,1,119.249996360779,2|0,1:2|0:0,0:0:0:0:
491,81,25809,6,0,L|478:247,1,158.999995147705,2|0,3:2|1:0,0:0:0:0:
268,333,26229,2,0,P|329:282|411:314,1,158.999995147705,2|0,3:2|1:0,0:0:0:0:
228,172,26543,1,0,3:0:0:0:
228,172,26648,2,0,P|217:210|207:248,1,79.4999975738526,2|0,0:0|3:0,0:0:0:0:
100,213,26858,2,0,P|61:226|22:218,1,79.4999975738526,0|0,1:0|0:0,0:0:0:0:
13,70,27068,2,0,B|43:120|43:120|21:230,1,158.999995147705,2|0,3:2|1:0,0:0:0:0:
133,353,27487,5,2,1:2:0:0:
363,332,27697,1,2,3:2:0:0:
249,344,27906,1,2,3:2:0:0:
461,320,28117,2,0,B|480:153|480:153|385:187,1,238.499992721558,6|0,1:2|0:0,0:0:0:0:
315,150,28536,1,0,3:0:0:0:
315,150,28641,1,8,3:0:0:0:
242,222,28746,2,0,B|198:233|198:233|149:212,1,79.4999975738526,4|4,3:0|3:0,0:0:0:0:
108,129,28956,2,0,B|97:85|97:85|118:36,1,79.4999975738526,8|8,3:0|3:0,0:0:0:0:
211,3,29166,6,0,P|279:-13|332:21,1,132.5,6|0,3:2|0:0,0:0:0:0:
387,94,29480,1,2,3:2:0:0:
387,94,29585,1,0,1:0:0:0:
242,222,29795,1,2,3:2:0:0:
242,222,29900,1,0,0:0:0:0:
242,222,30005,2,0,L|319:230,1,66.25,2|0,0:0|3:0,0:0:0:0:
394,235,30214,1,8,3:2:0:0:
203,344,30424,1,8,1:2:0:0:
38,282,30634,2,0,L|45:215,1,66.25,2|0,0:0|0:0,0:0:0:0:
64,117,30844,6,0,B|110:137|110:137|191:120,1,132.5,2|0,3:2|0:0,0:0:0:0:
242,57,31159,1,2,3:2:0:0:
242,57,31263,2,0,P|301:32|370:61,1,132.5,0|2,1:0|3:2,0:0:0:0:
436,108,31578,1,0,0:0:0:0:
436,108,31683,2,0,L|419:181,1,66.25,2|0,0:0|3:0,0:0:0:0:
341,224,31893,1,8,3:2:0:0:
498,360,32103,2,0,P|434:385|375:366,1,132.5,8|2,1:2|0:0,0:0:0:0:
240,214,32522,6,0,L|254:67,1,132.5,2|0,3:2|0:0,0:0:0:0:
213,11,32837,1,0,3:0:0:0:
213,11,32942,2,0,P|153:-6|86:27,1,132.5,2|0,1:2|3:0,0:0:0:0:
65,103,33257,1,0,3:0:0:0:
65,103,33361,2,0,L|-22:86,1,66.25,2|0,0:2|3:0,0:0:0:0:
73,182,33571,1,8,3:2:0:0:
8,380,33781,2,0,L|21:238,1,132.5,10|0,1:2|0:0,0:0:0:0:
78,185,34096,1,0,0:0:0:0:
78,185,34200,6,0,B|161:208|161:208|223:176,1,132.5,2|0,3:2|0:0,0:0:0:0:
258,118,34515,1,2,3:2:0:0:
258,118,34620,1,0,1:0:0:0:
307,270,34830,2,0,L|302:203,1,66.25,2|0,3:2|0:0,0:0:0:0:
405,134,35040,2,0,L|409:67,1,66.25,2|8,3:2|3:0,0:0:0:0:
274,12,35249,1,4,3:0:0:0:
274,12,35459,1,8,3:0:0:0:
246,39,35563,1,4,3:0:0:0:
210,50,35668,1,2,3:2:0:0:
172,44,35773,1,0,0:0:0:0:
139,24,35879,6,0,L|149:187,1,119.249996360779,2|0,3:2|0:0,0:0:0:0:
153,229,36193,1,0,3:0:0:0:
153,229,36298,1,6,1:2:0:0:
400,274,36508,2,0,B|314:234|326:321|217:268,1,178.874994541168,2|0,3:2|0:0,0:0:0:0:
153,322,36928,1,2,3:2:0:0:
171,135,37138,1,4,1:2:0:0:
40,216,37347,6,0,B|95:241|95:241|158:226,1,119.249996360779,2|2,3:2|0:0,0:0:0:0:
296,51,37767,2,0,B|239:24|239:24|184:37,1,119.249996360779,2|2,3:2|1:2,0:0:0:0:
286,185,38186,2,0,L|416:175,1,119.249996360779,6|0,3:2|0:0,0:0:0:0:
492,169,38501,1,0,3:0:0:0:
492,169,38606,1,0,3:0:0:0:
392,77,38816,1,0,1:0:0:0:
349,262,39026,2,0,L|265:268,1,59.6249981803895,2|0,0:0|1:0,0:0:0:0:
173,349,39235,6,0,P|194:295|165:232,1,119.249996360779,2|0,3:2|0:0,0:0:0:0:
117,184,39550,1,0,3:0:0:0:
117,184,39655,1,6,1:2:0:0:
211,22,39865,2,0,B|340:36|340:36|298:65,1,178.874994541168,2|0,3:2|0:0,0:0:0:0:
300,64,40284,1,2,3:2:0:0:
86,43,40494,1,6,1:2:0:0:
204,151,40704,2,0,L|273:145,1,59.6249981803895,2|0,3:2|3:0,0:0:0:0:
441,219,40914,6,0,L|315:231,1,119.249996360779,0|0,3:0|0:0,0:0:0:0:
239,239,41228,1,0,3:0:0:0:
239,239,41333,1,4,1:2:0:0:
176,350,41543,2,0,P|213:350|245:363,1,59.6249981803895,2|2,3:2|0:2,0:0:0:0:
360,384,41753,2,0,P|333:333|353:262,1,119.249996360779,2|0,0:2|3:0,0:0:0:0:
422,121,42172,1,6,1:2:0:0:
495,236,42382,2,0,L|426:223,1,59.6249981803895,2|0,0:0|3:0,0:0:0:0:
259,270,42592,5,6,3:2:0:0:
259,270,42697,1,0,3:0:0:0:
259,270,42802,2,0,P|260:238|271:208,1,59.6249981803895,0|0,3:0|1:0,0:0:0:0:
151,209,43012,5,2,3:2:0:0:
151,209,43117,1,0,3:0:0:0:
151,209,43222,2,0,P|148:177|137:145,1,66.25,0|0,3:0|1:0,0:0:0:0:
302,142,43431,5,2,3:2:0:0:
302,142,43536,1,0,3:0:0:0:
302,142,43641,2,0,P|315:110|340:81,1,72.8750022239686,0|0,3:0|1:0,0:0:0:0:
99,76,43851,5,2,3:2:0:0:
99,76,43956,1,0,3:0:0:0:
99,76,44061,2,0,P|82:41|57:11,1,79.4999975738526,4|0,3:0|0:0,0:0:0:0:
18,221,44270,6,0,P|53:244|85:250,1,72.8750022239686,2|0,1:2|0:0,0:0:0:0:
242,256,44480,2,0,P|282:243|306:223,1,72.8750022239686,2|0,3:2|0:0,0:0:0:0:
226,102,44690,6,0,P|192:130|178:161,1,79.4999975738526,2|0,1:2|0:0,0:0:0:0:
164,330,44900,2,0,B|182:370|225:377|225:377|298:313|366:303|366:303|411:310|446:370,1,317.99999029541,6|2,3:2|3:2,0:0:0:0:
501,287,45424,1,0,1:0:0:0:
501,287,45529,2,0,P|514:247|513:206,1,79.4999975738526,2|0,1:2|0:0,0:0:0:0:
482,121,45739,1,2,1:2:0:0:
475,106,45844,1,0,1:0:0:0:
468,93,45949,6,0,L|301:82,1,158.999995147705,4|0,3:1|0:0,0:0:0:0:
174,20,46368,1,10,0:0:0:0:
65,174,46578,2,0,L|157:179,1,79.4999975738526,2|0,0:0|0:0,0:0:0:0:
394,236,46788,2,0,P|298:216|251:256,1,158.999995147705,0|2,3:0|0:0,0:0:0:0:
211,357,47103,1,0,0:0:0:0:
211,357,47207,2,0,L|119:351,1,79.4999975738526,10|0,0:0|0:0,0:0:0:0:
0,237,47417,6,0,P|96:257|143:217,1,158.999995147705,2|0,0:0|3:0,0:0:0:0:
198,133,47732,1,0,0:0:0:0:
198,133,47837,1,0,0:0:0:0:
283,295,48047,2,0,P|327:273|366:268,1,79.4999975738526,10|0,0:0|0:0,0:0:0:0:
498,337,48256,2,0,P|458:310|434:278,1,79.4999975738526,2|2,0:0|0:0,0:0:0:0:
456,72,48466,5,2,3:2:0:0:
423,94,48570,1,0,0:0:0:0:
401,127,48675,1,2,0:0:0:0:
398,167,48780,1,2,0:0:0:0:
409,206,48886,2,0,P|357:176|302:169,1,79.4999975738526,10|0,0:0|0:0,0:0:0:0:
277,70,49096,2,0,P|230:97|181:103,1,79.4999975738526,2|2,0:0|0:0,0:0:0:0:
30,1,49305,6,0,P|64:76|23:138,1,158.999995147705,2|2,3:2|0:0,0:0:0:0:
160,364,49725,2,0,L|144:197,1,158.999995147705,10|0,0:0|0:0,0:0:0:0:
198,122,50040,1,2,0:0:0:0:
198,122,50145,2,0,B|275:99|275:99|347:140,1,158.999995147705,0|2,3:0|0:0,0:0:0:0:
443,304,50564,2,0,P|403:309|359:293,1,79.4999975738526,8|0,0:0|0:0,0:0:0:0:
245,204,50774,1,2,3:2:0:0:
245,204,50879,2,0,P|269:236|277:282,1,79.4999975738526,2|0,0:0|3:0,0:0:0:0:
105,254,51089,6,0,B|60:206|61:139|61:139|95:79,1,158.999995147705,12|0,0:0|3:0,0:0:0:0:
152,36,51403,2,0,P|196:41|235:51,1,79.4999975738526,12|0,0:0|0:0,0:0:0:0:
399,142,51613,2,0,B|316:71|215:98|215:98|181:167,1,238.499992721558,4|0,3:2|0:0,0:0:0:0:
266,199,52033,5,2,3:2:0:0:
291,231,52137,1,0,3:0:0:0:
301,272,52242,1,2,1:2:0:0:
295,313,52347,1,0,1:0:0:0:
273,349,52453,2,0,P|328:345|381:324,1,79.4999975738526,2|0,1:2|0:0,0:0:0:0:
512,196,52662,6,0,B|432:216|432:216|352:173,1,158.999995147705,4|0,3:1|0:0,0:0:0:0:
325,90,52977,1,0,3:0:0:0:
325,90,53082,1,10,0:0:0:0:
208,257,53291,2,0,P|159:280|118:282,1,79.4999975738526,2|0,0:0|0:0,0:0:0:0:
0,142,53501,2,0,L|165:155,1,158.999995147705,0|2,3:0|0:0,0:0:0:0:
252,163,53816,1,0,3:0:0:0:
252,163,53921,1,8,0:0:0:0:
461,5,54131,6,0,B|418:65|418:65|434:229,1,238.499992721558,4|0,3:2|0:0,0:0:0:0:
450,336,54550,1,2,3:2:0:0:
450,336,54760,1,10,3:2:0:0:
122,222,54970,2,0,P|224:176|314:271,1,238.499992721558,6|0,3:2|0:0,0:0:0:0:
332,336,55389,2,0,P|283:337|243:311,1,79.4999975738526,2|0,0:0|0:0,0:0:0:0:
122,222,55599,2,0,P|121:173|147:133,1,79.4999975738526,10|0,0:0|0:0,0:0:0:0:
245,31,55809,5,2,3:2:0:0:
245,31,55914,1,0,1:0:0:0:
245,31,56019,1,2,1:2:0:0:
310,250,56228,1,2,1:2:0:0:
339,125,56438,1,4,0:0:0:0:
204,202,56648,5,2,3:2:0:0:
204,202,56753,1,0,3:0:0:0:
204,202,56858,1,2,1:2:0:0:
461,168,57068,1,2,1:2:0:0:
339,125,57277,1,4,0:0:0:0:
473,343,57487,6,0,L|219:325,1,238.499992721558,2|0,3:2|0:0,0:0:0:0:
135,321,57907,1,2,3:2:0:0:
290,236,58117,2,0,P|307:192|306:157,1,79.4999975738526,10|0,0:2|0:0,0:0:0:0:
285,53,58326,1,2,3:2:0:0:
280,37,58431,1,2,3:2:0:0:
274,24,58536,5,0,3:0:0:0:
237,42,58640,1,0,0:0:0:0:
195,44,58745,1,0,3:0:0:0:
156,30,58850,1,0,1:0:0:0:
125,2,58956,2,0,P|104:68|103:93,1,79.4999975738526,2|0,3:2|3:0,0:0:0:0:
1,181,59166,2,0,P|22:247|23:272,1,79.4999975738526,2|0,3:2|3:0,0:0:0:0:
141,376,59375,6,0,L|317:363,1,158.999995147705,4|0,3:1|3:0,0:0:0:0:
393,322,59690,1,0,3:0:0:0:
393,322,59795,2,0,P|362:259|362:229,1,79.4999975738526,2|0,3:2|0:0,0:0:0:0:
476,215,60005,2,0,P|416:176|401:151,1,79.4999975738526,2|0,1:2|0:0,0:0:0:0:
501,85,60214,6,0,P|434:40|357:77,1,158.999995147705,2|0,3:2|3:0,0:0:0:0:
309,154,60529,1,2,3:2:0:0:
309,154,60634,2,0,P|258:181|218:183,1,79.4999975738526,0|0,3:0|0:0,0:0:0:0:
158,128,60844,1,2,3:2:0:0:
158,128,60949,1,0,1:0:0:0:
89,71,61054,6,0,P|109:168|51:224,1,158.999995147705,0|2,3:0|3:2,0:0:0:0:
140,308,61368,1,0,3:0:0:0:
140,308,61473,1,2,3:2:0:0:
309,154,61683,2,0,L|316:233,1,79.4999975738526,2|0,1:2|0:0,0:0:0:0:
388,349,61893,6,0,P|335:351|303:335,1,79.4999975738526,2|0,3:2|0:0,0:0:0:0:
229,281,62103,1,0,3:0:0:0:
229,281,62207,1,0,1:0:0:0:
145,215,62312,2,0,B|62:188|62:188|-4:224,1,158.999995147705,2|0,3:2|3:0,0:0:0:0:
31,108,62627,1,0,3:0:0:0:
31,108,62732,1,0,3:0:0:0:
218,152,62942,5,0,3:0:0:0:
218,152,63047,1,0,3:0:0:0:
218,152,63152,2,0,B|256:135|256:135|317:146,1,79.4999975738526,2|0,3:2|0:0,0:0:0:0:
412,161,63361,2,0,B|429:199|429:199|418:260,1,79.4999975738526,2|0,1:2|0:0,0:0:0:0:
464,366,63571,6,0,P|381:313|326:339,1,158.999995147705,2|0,3:2|3:0,0:0:0:0:
285,231,63886,1,2,3:2:0:0:
285,231,63991,2,0,P|250:276|242:298,1,79.4999975738526,0|0,3:0|0:0,0:0:0:0:
256,384,64200,5,10,0:0:0:0:
256,145,64620,1,2,0:0:0:0:
256,26,64830,1,2,0:0:0:0:
50,133,65040,6,0,P|113:113|169:150,1,132.5,6|2,0:0|0:0,0:0:0:0:
65,300,65459,1,2,3:2:0:0:
65,300,65564,1,0,3:0:0:0:
65,300,65669,1,2,3:2:0:0:
102,318,65773,1,0,3:0:0:0:
144,320,65878,1,0,3:0:0:0:
183,306,65983,1,0,1:0:0:0:
214,278,66089,6,0,P|275:246|363:286,1,158.999995147705,4|0,3:1|3:0,0:0:0:0:
450,227,66403,1,0,3:0:0:0:
450,227,66508,2,0,P|475:173|475:141,1,79.4999975738526,2|0,3:2|0:0,0:0:0:0:
405,63,66718,2,0,P|348:80|316:75,1,79.4999975738526,2|0,3:2|1:0,0:0:0:0:
181,12,66928,6,0,B|220:52|220:52|206:168,1,158.999995147705,2|0,3:2|3:0,0:0:0:0:
117,222,67242,1,2,3:2:0:0:
117,222,67347,2,0,B|90:263|90:263|96:301,1,79.4999975738526,0|0,3:0|0:0,0:0:0:0:
114,380,67557,1,2,3:2:0:0:
114,380,67662,1,0,1:0:0:0:
195,323,67767,6,0,P|255:369|337:348,1,158.999995147705,0|2,3:0|3:2,0:0:0:0:
303,247,68082,1,0,3:0:0:0:
303,247,68186,2,0,L|206:230,1,79.4999975738526,2|0,3:2|0:0,0:0:0:0:
122,259,68396,2,0,L|25:242,1,79.4999975738526,2|0,1:2|0:0,0:0:0:0:
113,125,68606,5,2,3:2:0:0:
144,103,68710,1,0,3:0:0:0:
181,98,68815,1,0,3:0:0:0:
217,109,68920,1,0,1:0:0:0:
245,135,69026,2,0,L|324:120,1,79.4999975738526,2|0,3:2|3:0,0:0:0:0:
442,43,69235,1,0,3:0:0:0:
442,43,69340,1,0,1:0:0:0:
442,43,69445,6,0,B|431:89|431:89|447:139|447:139|433:196,1,158.999995147705,4|0,1:0|3:0,0:0:0:0:
512,269,69760,2,0,P|426:238|380:279,1,158.999995147705,4|0,1:2|3:0,0:0:0:0:
228,322,70075,2,0,P|314:353|360:312,1,158.999995147705,4|0,1:2|3:0,0:0:0:0:
255,216,70494,6,0,L|197:224,3,52.9999983825684,0|0|0|0,3:0|1:0|1:0|1:0,0:0:0:0:
122,233,70809,1,0,1:0:0:0:
122,233,70914,2,0,L|131:154,1,79.4999975738526,0|0,3:0|0:0,0:0:0:0:
300,47,71124,6,0,B|220:22|220:22|154:64,1,158.999995147705,4|0,1:0|3:0,0:0:0:0:
14,48,71438,2,0,B|55:111|55:111|30:191,1,158.999995147705,4|0,1:2|3:0,0:0:0:0:
57,322,71753,2,0,L|230:304,1,158.999995147705,4|0,1:2|3:0,0:0:0:0:
191,177,72172,6,0,L|249:169,3,52.9999983825684,0|0|0|0,3:0|1:0|1:0|1:0,0:0:0:0:
324,160,72487,1,0,3:0:0:0:
324,160,72592,2,0,L|315:239,1,79.4999975738526,0|0,1:0|1:0,0:0:0:0:
301,363,72802,6,0,P|371:382|426:348,1,132.5,4|2,3:1|0:0,0:0:0:0:
480,298,73117,1,0,3:0:0:0:
480,298,73221,1,2,1:2:0:0:
496,155,73431,1,2,0:0:0:0:
496,155,73536,1,2,3:2:0:0:
389,221,73746,1,2,0:0:0:0:
389,221,73851,2,0,L|314:236,1,66.25,2|8,1:2|3:0,0:0:0:0:
241,130,74061,2,0,P|216:200|239:260,1,132.5,8|4,3:0|3:0,0:0:0:0:
233,252,74690,6,0,L|49:240,1,158.999995147705,4|0,3:1|0:0,0:0:0:0:
123,164,75005,2,0,L|281:174,1,158.999995147705,4|0,3:1|0:0,0:0:0:0:
332,96,75319,6,0,B|210:88|210:88|188:72|188:72|163:84|163:84|-8:73,1,298.124990901947,4|0,3:1|0:0,0:0:0:0:
