osu file format v14

[General]
AudioFilename: audio.mp3
AudioLeadIn: 0
PreviewTime: 63238
Countdown: 0
SampleSet: Soft
StackLeniency: 0.4
Mode: 0
LetterboxInBreaks: 0
WidescreenStoryboard: 0

[Editor]
Bookmarks: 938,8484,20263,32042,46766,64251,76214,90938,102717,114496,129220,146705,158668,170447,189588,201183,213146,224926,236521,242594
DistanceSpacing: 1
BeatDivisor: 2
GridSize: 4
TimelineZoom: 2.599999

[Metadata]
Title:Light a Way
TitleUnicode:Light a Way
Artist:Suzuyu
ArtistUnicode:鈴湯
Creator:lit120
Version:Normal
Source:クドわふたー
Tags:Kud Wafter Little Busters! リトルバスターズ! movie spin-off ost original soundtrack J.C.Staff Visual Arts Key japanese pop j-pop jpop anime vn visual novel eroge video game galgame galge -Hakurei- Amateurre
BeatmapID:3546421
BeatmapSetID:1733268

[Difficulty]
HPDrainRate:5
CircleSize:3.5
OverallDifficulty:5
ApproachRate:5
SliderMultiplier:0.999999904632568
SliderTickRate:1

[Events]
//Background and Video events
0,0,"kud wafter.jpg",0,0
//Break Periods
//Storyboard Layer 0 (Background)
//Storyboard Layer 1 (Fail)
//Storyboard Layer 2 (Pass)
//Storyboard Layer 3 (Foreground)
//Storyboard Layer 4 (Overlay)
//Storyboard Sound Samples

[TimingPoints]
-350,368.098159509202,4,2,10,40,1,0
1306,-100,4,2,14,40,0,0
1490,-100,4,2,12,40,0,0
1858,-100,4,2,10,40,0,0
2778,-100,4,2,14,40,0,0
2962,-100,4,2,12,40,0,0
3330,-100,4,2,10,40,0,0
4619,-100,4,2,15,40,0,0
4803,-100,4,2,16,40,0,0
4987,-100,4,2,17,40,0,0
5171,-100,4,2,12,40,0,0
5355,-100,4,2,10,40,0,0
5907,-100,4,2,15,40,0,0
6091,-100,4,2,14,40,0,0
6459,-100,4,2,13,40,0,0
6643,-100,4,2,10,40,0,0
7011,-100,4,2,11,40,0,0
7380,-100,4,2,1,40,0,0
7748,-100,4,2,1,60,0,0
8484,-100,4,2,1,80,0,0
18975,-100,4,2,1,60,0,0
32042,-100,4,2,1,70,0,0
64251,-100,4,2,1,80,0,1
90938,-100,4,2,1,80,0,0
102717,-100,4,2,1,70,0,0
146705,-100,4,2,1,80,0,0
176337,-100,4,2,1,70,0,0
186827,-100,4,2,1,60,0,0
189588,-100,4,2,1,50,0,0
201183,-100,4,2,1,80,0,1
224926,-100,4,2,1,80,0,0
236521,-100,4,2,1,60,0,0
242594,-100,4,2,1,5,0,0

[Colours]
Combo1 : 196,163,220
Combo2 : 241,204,188
Combo3 : 255,183,204
Combo4 : 150,213,243

[HitObjects]
47,60,938,6,0,P|60:148|64:197,1,99.9999904632568,2|2,0:0|0:0,0:0:0:0:
103,186,1490,2,0,P|90:274|86:323,1,99.9999904632568,2|2,0:0|0:0,0:0:0:0:
221,354,2410,2,0,P|234:266|238:217,1,99.9999904632568,2|2,0:0|0:0,0:0:0:0:
277,228,2962,2,0,P|264:140|260:91,1,99.9999904632568,2|2,0:0|0:0,0:0:0:0:
427,15,4067,6,0,P|393:92|409:194,1,149.999985694885,2|2,0:0|0:0,0:0:0:0:
429,192,4803,2,0,L|489:192,2,49.9999952316284,2|2|2,0:0|0:0|0:0,0:0:0:0:
395,227,5355,2,0,P|394:301|427:369,1,149.999985694885,2|2,0:0|0:0,0:0:0:0:
378,378,6091,2,0,P|308:360|247:362,1,99.9999904632568,2|2,0:0|0:0,0:0:0:0:
231,366,6643,1,2,0:0:0:0:
178,280,7011,2,0,P|187:217|194:169,1,99.9999904632568,2|2,0:0|0:3,0:0:0:0:
251,100,7748,2,0,L|202:82,1,49.9999952316284,2|2,1:2|1:2,0:0:0:0:
177,40,8116,2,0,L|128:58,1,49.9999952316284,2|8,1:2|0:3,0:0:0:0:
85,35,8484,6,0,P|75:109|36:165,1,99.9999904632568,6|0,3:2|1:2,0:0:0:0:
4,211,9220,2,0,P|14:285|53:341,1,99.9999904632568,2|0,3:2|1:2,0:0:0:0:
104,367,9956,1,2,3:2:0:0:
171,292,10324,1,0,1:2:0:0:
250,352,10692,2,0,P|334:343|375:343,1,99.9999904632568,2|0,3:2|1:2,0:0:0:0:
429,282,11429,6,0,P|411:218|432:156,1,99.9999904632568,2|0,3:2|1:2,0:0:0:0:
452,150,11981,2,0,P|456:100|439:54,1,99.9999904632568,2|2,0:2|3:2,0:0:0:0:
395,30,12533,1,2,1:2:0:0:
395,30,12717,2,0,P|336:49|273:64,1,99.9999904632568,6|0,3:2|3:2,0:0:0:0:
249,66,13269,1,2,1:2:0:0:
153,37,13637,2,0,P|166:108|171:149,1,99.9999904632568,2|2,3:2|1:2,0:0:0:0:
252,191,14373,6,0,P|239:262|234:303,1,99.9999904632568,6|0,3:2|1:2,0:0:0:0:
216,336,14926,1,2,0:2:0:0:
122,372,15294,1,2,3:2:0:0:
60,292,15662,2,0,P|53:242|43:193,1,99.9999904632568,2|2,3:2|3:2,0:0:0:0:
35,144,16214,1,2,1:2:0:0:
107,75,16582,2,0,L|119:14,2,49.9999952316284,0|0|0,3:2|3:2|1:2,0:0:0:0:
141,110,17134,1,2,0:2:0:0:
141,110,17318,6,0,P|200:104|254:102,1,99.9999904632568,6|0,3:2|1:2,0:0:0:0:
283,76,17870,1,2,3:2:0:0:
354,5,18238,2,0,P|362:46|365:62,1,49.9999952316284,2|2,3:2|1:2,0:0:0:0:
397,90,18607,2,0,P|352:161|313:244,1,149.999985694885,6|2,3:2|0:2,0:0:0:0:
231,260,19527,2,0,P|243:312|253:362,1,99.9999904632568,2|2,0:2|0:2,0:0:0:0:
350,377,20263,6,0,P|404:361|463:362,1,99.9999904632568,6|2,3:2|3:2,0:0:0:0:
489,332,20815,1,2,0:2:0:0:
423,256,21183,1,2,0:2:0:0:
495,187,21551,1,2,0:2:0:0:
495,187,21735,2,0,P|485:126|476:61,1,99.9999904632568,2|2,3:2|3:2,0:0:0:0:
397,31,22472,2,0,P|345:54|286:68,1,99.9999904632568,2|2,3:2|3:2,0:0:0:0:
253,67,23024,1,2,0:2:0:0:
253,67,23208,6,0,L|119:55,1,99.9999904632568,2|2,3:2|3:2,0:0:0:0:
103,54,23760,1,2,0:2:0:0:
38,130,24128,1,2,0:2:0:0:
114,194,24496,2,0,L|213:185,1,99.9999904632568,2|2,0:2|0:2,0:0:0:0:
263,181,25048,1,2,3:2:0:0:
324,260,25416,2,0,P|309:313|301:364,1,99.9999904632568,2|0,3:2|3:2,0:0:0:0:
255,376,25969,1,2,0:2:0:0:
255,376,26153,6,0,P|196:369|140:366,1,99.9999904632568,6|2,3:2|3:2,0:0:0:0:
102,281,26889,2,0,P|52:287|2:290,1,99.9999904632568,2|2,3:2|3:2,0:0:0:0:
30,194,27625,2,0,P|23:119|18:73,1,99.9999904632568,2|2,3:2|3:2,0:0:0:0:
56,60,28177,2,0,P|106:92|153:91,1,99.9999904632568,2|2,0:2|0:2,0:0:0:0:
190,72,28729,1,2,3:2:0:0:
281,32,29097,6,0,P|345:42|427:48,2,99.9999904632568,6|0|0,3:2|3:2|3:2,0:0:0:0:
274,81,30018,2,0,P|283:126|285:152,1,49.9999952316284,2|2,0:2|3:2,0:0:0:0:
292,179,30386,1,2,1:2:0:0:
474,349,31306,2,0,P|485:296|492:268,2,74.9999928474426,0|0|8,1:2|1:2|0:3,0:0:0:0:
426,365,32042,6,0,P|372:348|312:346,1,99.9999904632568,6|2,3:2|1:2,0:0:0:0:
278,343,32594,1,2,0:2:0:0:
194,287,32962,1,2,3:2:0:0:
129,363,33330,2,0,P|76:342|9:327,1,99.9999904632568,2|2,0:2|0:2,0:0:0:0:
10,287,33883,1,0,1:2:0:0:
72,208,34251,2,0,P|69:173|64:142,1,49.9999952316284,2|2,3:2|3:2,0:0:0:0:
29,126,34619,2,0,P|31:91|36:60,1,49.9999952316284,2|2,1:2|0:2,0:0:0:0:
73,46,34987,6,0,P|131:68|180:77,1,99.9999904632568,2|2,3:2|1:2,0:0:0:0:
218,76,35539,2,0,L|330:69,1,99.9999904632568,2|2,0:2|3:2,0:0:0:0:
395,6,36275,1,2,3:2:0:0:
479,60,36643,1,2,3:2:0:0:
453,157,37011,2,0,P|461:222|466:288,1,99.9999904632568,2|0,0:2|3:2,0:0:0:0:
450,304,37564,1,0,1:2:0:0:
365,249,37932,6,0,P|302:259|246:266,1,99.9999904632568,2|2,3:2|1:2,0:0:0:0:
187,202,38668,1,2,3:2:0:0:
187,202,38852,2,0,P|198:163|205:132,1,49.9999952316284,2|0,3:2|1:2,0:0:0:0:
186,105,39220,2,0,P|122:117|61:128,1,99.9999904632568,2|0,0:2|0:0,0:0:0:0:
39,137,39772,1,2,1:2:0:0:
78,229,40140,1,2,3:2:0:0:
78,229,40324,2,0,P|71:271|66:293,1,49.9999952316284,2|2,3:2|1:2,0:0:0:0:
102,372,40876,6,0,P|43:357|-9:358,2,99.9999904632568,2|2|2,3:2|1:2|3:2,0:0:0:0:
151,378,41797,1,2,3:2:0:0:
230,317,42165,2,0,P|290:331|343:346,1,99.9999904632568,2|0,0:2|0:0,0:0:0:0:
365,372,42717,1,2,1:2:0:0:
365,372,42901,2,0,P|425:358|478:343,1,99.9999904632568,6|2,3:2|3:2,0:0:0:0:
497,254,43637,1,2,0:2:0:0:
497,254,43821,6,0,P|491:190|486:118,1,99.9999904632568,6|0,3:2|1:2,0:0:0:0:
438,67,44557,1,2,1:2:0:0:
339,88,44926,1,2,1:2:0:0:
328,188,45294,2,8,L|268:212,1,49.9999952316284,2|2,1:2|1:2,0:0:0:0:
231,209,45662,2,0,P|185:180|152:144,1,99.9999904632568,6|2,1:2|1:2,0:0:0:0:
116,114,46214,1,8,0:3:0:0:
116,114,46398,2,0,P|78:125|29:131,1,49.9999952316284,4|2,0:3|1:2,0:0:0:0:
25,99,46766,6,0,P|39:196|20:276,1,149.999985694885,6|0,3:2|3:2,0:0:0:0:
50,293,47502,2,0,P|126:268|188:262,1,99.9999904632568,2|0,1:2|1:2,0:0:0:0:
229,209,48238,2,0,L|237:153,2,49.9999952316284,2|2|2,0:2|1:2|3:2,0:0:0:0:
296,283,48975,1,2,1:2:0:0:
296,283,49159,2,0,P|344:272|391:254,1,99.9999904632568,2|2,3:2|1:2,0:0:0:0:
404,206,49711,6,0,P|391:131|387:94,1,99.9999904632568,2|0,3:2|3:2,0:0:0:0:
406,9,50447,1,2,1:2:0:0:
505,27,50815,1,2,1:2:0:0:
487,125,51183,2,0,P|496:174|502:213,2,49.9999952316284,2|0|0,0:2|1:2|3:2,0:0:0:0:
388,107,51919,2,0,P|327:117|269:124,1,99.9999904632568,2|0,1:2|1:2,0:0:0:0:
242,104,52472,1,8,0:3:0:0:
242,104,52656,6,0,P|257:162|266:226,1,99.9999904632568,6|2,3:2|1:2,0:0:0:0:
313,288,53392,1,2,3:2:0:0:
313,288,53576,1,2,3:2:0:0:
227,340,53944,2,0,P|163:333|113:330,1,99.9999904632568,2|0,0:2|3:2,0:0:0:0:
77,326,54496,1,2,1:2:0:0:
29,238,54864,2,0,L|35:188,1,49.9999952316284,2|0,3:2|3:2,0:0:0:0:
42,138,55232,1,2,1:2:0:0:
122,78,55600,6,0,P|205:107|260:122,1,99.9999904632568,6|2,3:2|1:2,0:0:0:0:
286,181,56337,1,2,3:2:0:0:
286,181,56521,1,2,3:2:0:0:
355,110,56889,2,0,P|403:95|450:77,1,99.9999904632568,2|0,0:2|3:2,0:0:0:0:
491,105,57441,1,2,1:2:0:0:
455,198,57809,2,0,P|466:254|473:311,1,99.9999904632568,2|2,3:2|1:2,0:0:0:0:
442,337,58361,1,2,0:2:0:0:
442,337,58545,6,0,P|375:326|341:322,1,99.9999904632568,6|0,3:2|3:2,0:0:0:0:
256,272,59281,1,0,1:2:0:0:
168,322,59649,1,2,1:2:0:0:
168,322,59834,2,0,P|119:328|70:337,1,99.9999904632568,2|0,3:2|1:2,0:0:0:0:
25,314,60386,1,0,3:2:0:0:
77,228,60754,2,0,P|121:213|145:205,2,49.9999952316284,0|8|4,1:2|0:3|0:3,0:0:0:0:
45,189,61306,6,0,P|59:132|77:50,1,99.9999904632568,6|2,3:2|0:2,0:0:0:0:
77,42,61858,1,2,1:2:0:0:
173,13,62226,1,2,1:2:0:0:
224,98,62594,1,2,1:2:0:0:
224,98,62778,1,2,1:2:0:0:
460,17,63699,1,8,0:3:0:0:
460,17,63883,2,0,P|448:55|443:87,1,49.9999952316284,2|2,1:2|1:2,0:0:0:0:
411,100,64251,6,0,P|426:151|433:217,1,99.9999904632568,6|2,3:2|3:2,0:0:0:0:
398,234,64803,1,2,1:2:0:0:
321,169,65171,2,0,P|255:182|191:191,1,99.9999904632568,2|8,3:2|1:2,0:0:0:0:
183,218,65723,2,0,P|117:205|53:196,1,99.9999904632568,2|2,3:2|3:2,0:0:0:0:
46,167,66275,1,2,1:2:0:0:
6,259,66643,2,0,P|16:324|23:369,1,99.9999904632568,2|8,3:2|1:2,0:0:0:0:
68,374,67196,6,0,P|116:355|178:358,1,99.9999904632568,2|2,0:2|0:2,0:0:0:0:
209,374,67748,1,2,1:2:0:0:
305,347,68116,2,0,P|342:354|364:358,1,49.9999952316284,2|0,3:2|3:2,0:0:0:0:
401,371,68484,1,2,1:2:0:0:
401,371,68668,2,0,P|388:308|402:265,1,99.9999904632568,2|0,3:2|3:2,0:0:0:0:
437,245,69220,1,2,1:2:0:0:
437,245,69404,2,0,P|450:182|436:139,1,99.9999904632568,2|2,3:2|3:2,0:0:0:0:
408,110,69956,1,2,1:2:0:0:
342,34,70324,6,0,P|390:20|438:6,2,99.9999904632568,6|0|0,3:2|1:2|3:2,0:0:0:0:
293,46,71245,2,0,P|249:39|232:37,1,49.9999952316284,2|0,3:2|1:2,0:0:0:0:
197,57,71613,2,0,P|211:121|213:179,1,99.9999904632568,2|0,3:2|3:2,0:0:0:0:
274,234,72349,1,2,0:2:0:0:
196,296,72717,1,2,3:2:0:0:
196,296,72901,2,0,P|202:343|205:369,1,49.9999952316284,2|2,1:2|0:2,0:0:0:0:
157,368,73269,6,0,P|105:355|51:345,1,99.9999904632568,6|2,3:2|1:2,0:0:0:0:
18,255,74005,2,0,P|27:222|33:197,1,49.9999952316284,0|2,3:2|3:2,0:0:0:0:
68,173,74373,1,2,1:2:0:0:
68,173,74557,2,0,P|58:113|46:49,1,99.9999904632568,6|2,3:2|1:2,0:0:0:0:
85,37,75110,1,0,1:2:0:0:
85,37,75294,2,0,P|141:61|209:73,1,99.9999904632568,6|0,3:2|3:2,0:0:0:0:
228,72,75846,2,0,L|288:63,1,49.9999952316284,0|8,1:2|0:3,0:0:0:0:
324,47,76214,6,0,P|322:105|325:179,1,99.9999904632568,6|2,3:2|1:2,0:0:0:0:
389,221,76950,1,2,3:2:0:0:
483,188,77318,1,8,1:2:0:0:
483,188,77502,2,0,P|483:237|481:287,1,99.9999904632568,2|2,3:2|3:2,0:0:0:0:
469,336,78054,1,2,1:2:0:0:
375,373,78423,2,0,P|321:347|274:352,1,99.9999904632568,2|10,3:2|1:2,0:0:0:0:
235,366,78975,1,2,0:2:0:0:
235,366,79159,6,0,L|171:368,2,49.9999952316284,6|0|2,3:2|1:2|1:2,0:0:0:0:
245,317,79711,2,0,P|237:247|239:189,1,99.9999904632568,4|8,3:2|0:3,0:0:0:0:
310,150,80447,2,0,P|252:107|211:66,1,99.9999904632568,4|4,3:2|0:3,0:0:0:0:
182,92,80999,1,2,1:2:0:0:
182,92,81183,2,0,P|135:37|92:0,1,99.9999904632568,4|4,3:2|0:3,0:0:0:0:
65,10,81735,2,0,P|22:27|4:33,1,49.9999952316284,0|2,1:2|0:2,0:0:0:0:
2,75,82103,6,0,P|17:143|24:190,1,99.9999904632568,6|2,3:2|1:2,0:0:0:0:
82,252,82840,2,0,P|70:297|66:328,1,49.9999952316284,0|0,3:2|3:2,0:0:0:0:
89,346,83208,1,2,1:2:0:0:
89,346,83392,2,0,P|162:334|195:330,1,99.9999904632568,2|2,3:2|3:2,0:0:0:0:
237,323,83944,1,2,1:2:0:0:
320,267,84312,2,0,P|330:336|340:376,1,99.9999904632568,2|2,3:2|1:2,0:0:0:0:
435,382,85048,5,6,3:2:0:0:
482,294,85416,1,2,1:2:0:0:
412,222,85784,1,2,1:2:0:0:
412,222,85969,1,2,3:2:0:0:
459,134,86337,2,0,B|438:68|481:2|481:2|401:106|291:64,1,349.999966621399,6|0,3:2|1:2,0:0:0:0:
253,40,87809,6,0,P|195:57|120:74,1,99.9999904632568,6|2,3:2|0:2,0:0:0:0:
107,74,88361,1,2,1:2:0:0:
25,131,88729,2,0,P|17:102|7:66,2,49.9999952316284,2|2|2,1:2|1:2|1:2,0:0:0:0:
46,175,89281,1,2,3:2:0:0:
12,269,89649,1,2,3:2:0:0:
79,342,90018,2,0,P|143:327|200:320,1,99.9999904632568,6|0,3:2|1:2,0:0:0:0:
223,304,90570,2,0,P|261:318|283:323,1,49.9999952316284,0|8,1:2|0:3,0:0:0:0:
308,352,90938,6,0,P|372:337|429:330,1,99.9999904632568,6|0,3:2|1:2,0:0:0:0:
460,248,91674,2,0,P|445:184|438:127,1,99.9999904632568,2|0,3:2|1:2,0:0:0:0:
356,96,92410,1,2,3:2:0:0:
258,115,92778,1,0,1:2:0:0:
204,200,93146,2,0,P|140:185|83:178,1,99.9999904632568,2|0,3:2|1:2,0:0:0:0:
75,84,93883,6,0,P|124:76|172:64,1,99.9999904632568,2|0,3:2|1:2,0:0:0:0:
219,45,94435,2,0,P|268:52|316:64,1,99.9999904632568,2|2,0:2|3:2,0:0:0:0:
356,96,94987,1,2,1:2:0:0:
356,96,95171,2,0,P|343:165|337:214,1,99.9999904632568,6|0,3:2|3:2,0:0:0:0:
330,243,95723,1,2,1:2:0:0:
269,322,96091,2,0,P|338:344|370:364,1,99.9999904632568,2|2,3:2|1:2,0:0:0:0:
455,322,96827,6,0,P|442:253|436:204,1,99.9999904632568,6|0,3:2|1:2,0:0:0:0:
438,173,97380,1,2,0:2:0:0:
498,93,97748,1,2,3:2:0:0:
413,39,98116,2,0,P|365:53|317:64,1,99.9999904632568,2|2,3:2|3:2,0:0:0:0:
267,73,98668,1,2,1:2:0:0:
169,51,99036,2,0,P|123:41|96:41,2,49.9999952316284,0|0|0,3:2|3:2|1:2,0:0:0:0:
181,99,99588,1,2,0:2:0:0:
181,99,99772,6,0,P|170:163|162:236,1,99.9999904632568,6|0,3:2|1:2,0:0:0:0:
158,247,100324,1,2,3:2:0:0:
125,341,100692,2,0,P|99:325|72:314,1,49.9999952316284,2|2,3:2|1:2,0:0:0:0:
31,308,101061,2,0,P|45:245|58:178,1,99.9999904632568,6|2,3:2|3:2,0:0:0:0:
46,160,101613,2,0,P|33:126|27:91,1,49.9999952316284,2|2,1:2|1:2,0:0:0:0:
23,63,101981,1,2,3:2:0:0:
120,40,102349,2,0,P|144:44|169:51,1,49.9999952316284,2|4,1:2|0:3,0:0:0:0:
214,72,102717,6,0,P|272:68|329:66,1,99.9999904632568,6|2,3:2|1:2,0:0:0:0:
363,62,103269,1,2,0:2:0:0:
452,106,103637,1,2,3:2:0:0:
393,187,104005,1,2,0:2:0:0:
393,187,104189,2,0,P|401:242|410:311,1,99.9999904632568,2|2,3:2|1:2,0:0:0:0:
486,347,104926,2,0,P|495:305|503:278,2,49.9999952316284,2|2|2,3:2|3:2|1:2,0:0:0:0:
444,375,105478,1,2,0:2:0:0:
444,375,105662,6,0,P|386:372|334:373,1,99.9999904632568,2|2,3:2|1:2,0:0:0:0:
294,369,106214,1,2,0:2:0:0:
226,294,106582,1,2,3:2:0:0:
288,215,106950,2,0,P|283:133|281:72,1,99.9999904632568,2|2,0:2|0:2,0:0:0:0:
276,65,107502,1,2,1:2:0:0:
193,7,107870,2,0,P|150:25|131:32,1,49.9999952316284,2|0,3:2|3:2,0:0:0:0:
112,62,108238,2,0,P|69:44|50:37,1,49.9999952316284,2|2,1:2|0:2,0:0:0:0:
16,33,108607,6,0,P|25:103|27:152,1,99.9999904632568,2|2,3:2|1:2,0:0:0:0:
109,188,109343,2,0,P|100:258|98:307,1,99.9999904632568,2|2,3:2|1:2,0:0:0:0:
165,361,110079,2,0,P|211:328|269:322,1,99.9999904632568,2|2,3:2|1:2,0:0:0:0:
302,321,110631,2,0,L|415:341,1,99.9999904632568,2|0,0:2|3:2,0:0:0:0:
446,320,111183,1,2,1:2:0:0:
404,229,111551,6,0,P|421:153|433:103,2,99.9999904632568,2|0|0,3:2|1:2|3:2,0:0:0:0:
354,239,112472,2,0,P|317:224|283:216,1,49.9999952316284,2|2,3:2|1:2,0:0:0:0:
277,180,112840,2,0,P|229:222|134:203,1,149.999985694885,4|0,3:2|3:2,0:0:0:0:
77,142,113760,1,0,3:2:0:0:
152,76,114128,2,0,P|147:46|137:7,1,49.9999952316284,0|8,1:2|0:3,0:0:0:0:
185,2,114496,6,0,P|238:22|296:33,1,99.9999904632568,6|2,3:2|1:2,0:0:0:0:
329,41,115048,1,2,0:2:0:0:
423,8,115416,1,2,3:2:0:0:
473,94,115784,2,0,P|460:168|452:232,1,99.9999904632568,2|2,3:2|3:2,0:0:0:0:
447,241,116337,1,0,1:2:0:0:
365,298,116705,2,0,P|329:279|312:274,1,49.9999952316284,2|2,3:2|3:2,0:0:0:0:
291,235,117073,2,0,P|252:247|236:255,1,49.9999952316284,2|2,1:2|0:2,0:0:0:0:
194,242,117441,6,0,P|121:260|66:268,1,99.9999904632568,2|2,3:2|1:2,0:0:0:0:
46,266,117993,2,0,P|61:316|71:362,1,99.9999904632568,2|2,0:2|3:2,0:0:0:0:
169,381,118729,1,2,3:2:0:0:
256,331,119097,1,2,3:2:0:0:
343,381,119465,2,0,P|415:377|463:377,1,99.9999904632568,2|0,0:2|3:2,0:0:0:0:
480,343,120018,1,0,1:2:0:0:
433,254,120386,6,0,P|451:188|469:120,1,99.9999904632568,2|2,3:2|1:2,0:0:0:0:
426,63,121122,1,2,3:2:0:0:
426,63,121306,2,0,P|381:75|368:77,1,49.9999952316284,2|0,3:2|1:2,0:0:0:0:
333,98,121674,2,0,P|286:81|221:70,1,99.9999904632568,2|0,0:2|0:0,0:0:0:0:
187,62,122226,1,2,1:2:0:0:
96,19,122594,1,2,3:2:0:0:
96,19,122778,2,0,L|88:96,1,49.9999952316284,2|0,3:2|1:2,0:0:0:0:
99,168,123330,6,0,P|52:151|2:141,2,99.9999904632568,2|2|2,3:2|1:2|3:2,0:0:0:0:
144,189,124251,1,2,3:2:0:0:
230,238,124619,2,0,L|354:225,1,99.9999904632568,2|0,0:2|0:0,0:0:0:0:
375,208,125171,1,2,1:2:0:0:
375,208,125355,2,0,P|364:274|359:343,1,99.9999904632568,6|2,3:2|3:2,0:0:0:0:
331,347,125907,2,0,P|294:343|263:342,1,49.9999952316284,0|8,1:2|0:3,0:0:0:0:
231,336,126275,6,0,P|175:371|141:381,1,99.9999904632568,6|2,3:2|1:2,0:0:0:0:
52,338,127011,1,2,1:2:0:0:
102,251,127380,1,2,1:2:0:0:
12,209,127748,2,0,L|22:154,1,49.9999952316284,2|2,1:2|1:2,0:0:0:0:
52,120,128116,2,0,P|96:151|161:166,1,99.9999904632568,6|0,1:2|1:2,0:0:0:0:
188,153,128668,1,8,0:3:0:0:
188,153,128852,2,0,P|202:96|205:66,1,49.9999952316284,4|4,0:3|0:3,0:0:0:0:
237,71,129220,6,0,P|289:108|396:103,1,149.999985694885,6|0,3:2|3:2,0:0:0:0:
421,126,129956,2,0,P|434:174|451:221,1,99.9999904632568,2|0,1:2|1:2,0:0:0:0:
455,321,130692,2,0,P|486:329|508:340,2,49.9999952316284,2|2|2,0:2|1:2|3:2,0:0:0:0:
367,274,131429,1,2,1:2:0:0:
367,274,131613,2,0,P|318:293|254:314,1,99.9999904632568,2|2,3:2|1:2,0:0:0:0:
223,314,132165,6,0,P|135:302|101:301,1,99.9999904632568,2|0,3:2|3:2,0:0:0:0:
40,357,132901,1,2,1:2:0:0:
34,257,133269,1,2,1:2:0:0:
117,201,133637,2,0,P|131:166|140:145,2,49.9999952316284,2|0|0,0:2|1:2|3:2,0:0:0:0:
29,158,134373,2,0,P|40:89|46:40,1,99.9999904632568,8|0,0:3|1:2,0:0:0:0:
84,29,134926,1,8,0:3:0:0:
84,29,135110,6,0,P|139:50|191:54,1,99.9999904632568,6|2,3:2|1:2,0:0:0:0:
275,24,135846,1,2,3:2:0:0:
275,24,136030,1,2,3:2:0:0:
312,116,136398,2,0,P|301:190|294:258,1,99.9999904632568,2|0,0:2|3:2,0:0:0:0:
290,264,136950,1,2,1:2:0:0:
348,344,137318,2,0,P|388:340|411:339,1,49.9999952316284,2|0,3:2|3:2,0:0:0:0:
447,336,137686,1,2,1:2:0:0:
485,243,138054,6,0,P|478:184|470:100,1,99.9999904632568,6|2,3:2|1:2,0:0:0:0:
500,47,138791,1,2,3:2:0:0:
500,47,138975,1,2,3:2:0:0:
407,10,139343,2,0,P|355:26|289:39,1,99.9999904632568,2|0,0:2|3:2,0:0:0:0:
261,44,139895,1,2,1:2:0:0:
163,23,140263,2,0,P|177:87|184:127,1,99.9999904632568,2|2,3:2|1:2,0:0:0:0:
225,147,140815,1,2,0:2:0:0:
225,147,140999,6,0,P|211:211|204:251,1,99.9999904632568,6|0,3:2|3:2,0:0:0:0:
251,333,141735,1,0,1:2:0:0:
161,376,142103,1,2,1:2:0:0:
161,376,142288,2,0,P|108:370|23:363,1,99.9999904632568,2|0,3:2|1:2,0:0:0:0:
15,346,142840,1,0,3:2:0:0:
72,264,143208,2,0,P|104:244|123:227,2,49.9999952316284,0|8|4,1:2|0:3|0:3,0:0:0:0:
30,235,143760,6,0,P|47:168|61:107,1,99.9999904632568,6|2,3:2|0:2,0:0:0:0:
71,91,144312,1,2,1:2:0:0:
164,55,144680,1,2,1:2:0:0:
222,135,145048,1,2,1:2:0:0:
222,135,145232,2,0,P|279:128|399:115,1,149.999985694885,6|6,1:2|1:2,0:0:0:0:
459,70,146153,1,8,0:3:0:0:
459,70,146337,2,0,P|463:111|468:139,1,49.9999952316284,2|2,1:2|1:2,0:0:0:0:
489,162,146705,6,0,P|461:210|453:274,1,99.9999904632568,6|2,3:2|3:2,0:0:0:0:
450,303,147257,1,2,1:2:0:0:
450,303,147441,2,0,P|402:275|338:267,1,99.9999904632568,2|2,0:2|3:2,0:0:0:0:
260,249,148177,2,0,P|185:274|86:307,1,149.999985694885,2|2,3:2|1:2,0:0:0:0:
69,310,148913,1,2,0:2:0:0:
13,227,149281,1,2,3:2:0:0:
83,155,149649,6,0,P|71:89|64:37,1,99.9999904632568,2|2,0:2|0:2,0:0:0:0:
101,20,150202,1,2,1:2:0:0:
101,20,150386,2,0,P|154:47|210:60,1,99.9999904632568,2|2,0:2|3:2,0:0:0:0:
284,18,151122,2,0,P|278:85|275:146,1,99.9999904632568,2|2,3:2|3:2,0:0:0:0:
263,216,151858,1,2,3:2:0:0:
322,296,152226,1,2,3:2:0:0:
322,296,152410,2,0,P|361:291|385:288,1,49.9999952316284,2|0,1:2|0:0,0:0:0:0:
420,300,152778,6,0,P|422:246|443:202,1,99.9999904632568,4|2,3:2|1:2,0:0:0:0:
501,125,153515,2,0,P|474:118|450:105,1,49.9999952316284,2|2,3:2|3:2,0:0:0:0:
416,75,153883,2,0,P|389:82|365:95,1,49.9999952316284,2|2,1:2|3:2,0:0:0:0:
322,109,154251,2,0,P|262:99|222:92,1,99.9999904632568,2|2,0:2|1:2,0:0:0:0:
176,180,154987,2,0,P|185:225|188:244,1,49.9999952316284,2|2,3:2|3:2,0:0:0:0:
187,278,155355,1,2,1:2:0:0:
105,335,155723,5,6,3:2:0:0:
16,293,156091,1,2,1:2:0:0:
7,193,156459,1,2,3:2:0:0:
89,137,156827,1,2,1:2:0:0:
89,137,157011,2,0,P|82:81|66:13,1,99.9999904632568,6|2,3:2|1:2,0:0:0:0:
114,10,157564,1,2,1:2:0:0:
114,10,157748,2,0,P|171:34|232:46,1,99.9999904632568,6|2,3:2|1:2,0:0:0:0:
257,52,158300,1,2,1:2:0:0:
356,40,158668,6,0,P|392:28|425:16,2,49.9999952316284,6|2|2,3:2|0:2|1:2,0:0:0:0:
317,132,159404,2,0,P|309:169|303:203,1,49.9999952316284,2|2,3:2|3:2,0:0:0:0:
284,225,159772,1,2,1:2:0:0:
284,225,159956,2,0,P|302:295|312:351,1,99.9999904632568,2|2,3:2|3:2,0:0:0:0:
340,359,160508,1,2,1:2:0:0:
432,322,160876,2,0,P|467:338|490:345,2,49.9999952316284,2|2|2,3:2|3:2|1:2,0:0:0:0:
405,225,161613,5,4,3:2:0:0:
405,225,161797,2,0,P|426:188|438:172,1,49.9999952316284,2|2,1:2|1:2,0:0:0:0:
463,144,162165,2,0,P|453:89|447:31,1,99.9999904632568,4|8,3:2|0:3,0:0:0:0:
403,23,162717,1,2,1:2:0:0:
403,23,162901,2,0,P|379:32|290:50,1,99.9999904632568,6|2,3:2|3:2,0:0:0:0:
258,62,163453,1,4,1:2:0:0:
164,26,163821,1,8,0:3:0:0:
128,120,164189,1,0,1:2:0:0:
222,156,164557,6,0,P|214:222|209:275,1,99.9999904632568,6|0,3:2|1:2,0:0:0:0:
206,355,165294,1,2,3:2:0:0:
206,355,165478,1,2,3:2:0:0:
113,384,165846,2,0,P|58:376|1:367,1,99.9999904632568,2|2,3:2|3:2,0:0:0:0:
1,320,166398,1,2,1:2:0:0:
56,236,166766,2,0,P|46:171|39:129,1,99.9999904632568,2|2,3:2|1:2,0:0:0:0:
85,47,167502,6,0,P|138:61|187:69,1,99.9999904632568,4|0,3:2|1:2,0:0:0:0:
256,135,168238,1,2,3:2:0:0:
256,135,168423,1,2,1:2:0:0:
329,68,168791,2,0,P|378:59|427:46,1,99.9999904632568,6|2,3:2|3:2,0:0:0:0:
470,69,169343,1,0,1:2:0:0:
433,161,169711,2,0,P|441:193|445:234,1,49.9999952316284,0|2,3:2|1:2,0:0:0:0:
486,235,170079,2,0,P|478:267|474:308,1,49.9999952316284,2|8,1:2|0:3,0:0:0:0:
438,317,170447,6,0,P|380:305|326:303,1,99.9999904632568,6|2,3:2|1:2,0:0:0:0:
289,299,170999,1,2,0:2:0:0:
205,354,171367,1,2,3:2:0:0:
148,271,171735,2,0,P|166:203|178:162,1,99.9999904632568,2|2,3:2|0:2,0:0:0:0:
265,132,172472,2,0,P|247:64|235:23,1,99.9999904632568,2|2,3:2|3:2,0:0:0:0:
140,18,173208,1,2,3:2:0:0:
140,18,173392,6,0,P|82:35|30:42,1,99.9999904632568,2|2,1:2|1:2,0:0:0:0:
9,135,174128,2,0,P|5:159|1:184,2,49.9999952316284,2|2|2,1:2|3:2|1:2,0:0:0:0:
57,122,174680,1,2,3:2:0:0:
84,217,175048,1,2,0:2:0:0:
174,174,175416,1,2,3:2:0:0:
201,269,175784,1,2,3:2:0:0:
201,269,175969,2,0,P|193:317|192:335,1,49.9999952316284,0|8,1:2|0:3,0:0:0:0:
219,360,176337,6,0,P|286:349|331:347,1,99.9999904632568,6|2,3:2|1:2,0:0:0:0:
413,375,177073,1,2,3:2:0:0:
413,375,177257,1,2,3:2:0:0:
468,291,177625,2,0,P|462:232|453:159,1,99.9999904632568,2|0,0:2|3:2,0:0:0:0:
444,143,178177,1,2,1:2:0:0:
360,88,178545,2,0,P|322:97|301:100,1,49.9999952316284,2|0,3:2|3:2,0:0:0:0:
261,107,178913,1,2,1:2:0:0:
188,176,179281,6,0,P|199:230|205:286,1,99.9999904632568,6|2,3:2|1:2,0:0:0:0:
259,357,180018,1,2,3:2:0:0:
259,357,180202,1,2,3:2:0:0:
161,380,180570,2,0,P|96:368|52:363,1,99.9999904632568,2|0,0:2|3:2,0:0:0:0:
32,323,181122,1,2,1:2:0:0:
81,236,181490,2,0,P|71:173|63:134,1,99.9999904632568,2|2,3:2|1:2,0:0:0:0:
44,91,182042,1,2,0:2:0:0:
44,91,182226,6,0,P|102:100|160:89,1,99.9999904632568,6|0,3:2|3:2,0:0:0:0:
224,36,182962,1,0,1:2:0:0:
284,115,183330,1,2,1:2:0:0:
284,115,183515,2,0,P|272:177|261:240,1,99.9999904632568,6|0,3:2|1:2,0:0:0:0:
256,262,184067,1,0,3:2:0:0:
201,345,184435,2,0,P|157:333|136:332,2,49.9999952316284,0|8|4,1:2|0:3|0:3,0:0:0:0:
242,372,184987,6,0,P|301:363|362:356,1,99.9999904632568,6|2,3:2|0:2,0:0:0:0:
390,360,185539,1,2,1:2:0:0:
487,382,185907,1,2,1:2:0:0:
458,287,186275,1,2,1:2:0:0:
458,287,186459,2,0,P|470:236|481:188,1,99.9999904632568,6|0,3:2|3:2,0:0:0:0:
511,150,187011,2,0,P|499:99|488:51,1,99.9999904632568,0|0,1:2|1:2,0:0:0:0:
397,10,187748,2,0,P|396:52|393:94,1,74.9999928474426,0|4,1:2|0:3,0:0:0:0:
62,351,189588,6,0,P|53:288|41:240,2,99.9999904632568,6|2|2,3:2|3:2|3:2,0:0:0:0:
158,376,190692,1,8,3:2:0:0:
158,376,190876,2,0,P|206:352|259:349,1,99.9999904632568,2|2,0:2|0:2,0:0:0:0:
300,357,191429,1,2,3:2:0:0:
372,288,191797,2,0,P|366:227|361:172,1,99.9999904632568,2|8,3:2|3:2,0:0:0:0:
402,97,192533,6,0,P|461:111|530:125,2,99.9999904632568,0|2|2,3:2|3:2|3:2,0:0:0:0:
330,27,193637,1,2,3:2:0:0:
330,27,193821,2,0,P|281:37|182:61,1,149.999985694885,2|2,0:2|3:2,0:0:0:0:
137,80,194557,2,0,P|76:73|34:45,1,99.9999904632568,2|2,0:2|0:2,0:0:0:0:
10,92,195110,1,2,3:2:0:0:
45,185,195478,6,0,P|37:266|35:313,2,99.9999904632568,6|0|0,3:2|3:2|3:2,0:0:0:0:
89,162,196398,1,2,0:2:0:0:
168,221,196766,2,0,P|235:206|289:206,1,99.9999904632568,2|0,0:2|0:0,0:0:0:0:
354,250,197502,2,0,P|421:265|475:265,1,99.9999904632568,2|2,0:2|0:2,0:0:0:0:
483,305,198054,2,0,P|471:339|466:363,1,49.9999952316284,2|2,3:2|0:2,0:0:0:0:
420,370,198423,6,0,P|351:361|301:360,1,99.9999904632568,2|0,3:2|3:2,0:0:0:0:
238,303,199159,1,0,3:2:0:0:
167,374,199527,1,2,3:2:0:0:
167,374,199711,1,2,1:2:0:0:
24,233,200447,2,0,P|55:174|17:57,1,149.999985694885,0|4,1:2|0:3,0:0:0:0:
80,58,201183,6,0,P|142:76|203:91,1,99.9999904632568,6|2,3:2|0:2,0:0:0:0:
225,94,201735,1,2,1:2:0:0:
322,70,202103,2,0,P|305:160|299:210,1,99.9999904632568,2|8,3:2|1:2,0:0:0:0:
262,196,202656,2,0,P|279:286|285:336,1,99.9999904632568,2|2,3:2|3:2,0:0:0:0:
291,342,203208,1,2,1:2:0:0:
374,286,203576,2,0,P|464:303|514:309,1,99.9999904632568,2|8,3:2|1:2,0:0:0:0:
505,266,204128,6,0,P|493:209|485:155,1,99.9999904632568,2|2,0:2|0:2,0:0:0:0:
481,118,204680,1,2,1:2:0:0:
418,39,205048,2,0,P|384:52|360:62,1,49.9999952316284,2|0,3:2|3:2,0:0:0:0:
326,80,205416,1,2,1:2:0:0:
326,80,205600,2,0,P|260:66|211:62,1,99.9999904632568,2|0,3:2|3:2,0:0:0:0:
186,34,206153,1,2,1:2:0:0:
186,34,206337,2,0,P|120:48|71:52,1,99.9999904632568,2|2,3:2|3:2,0:0:0:0:
47,80,206889,1,2,1:2:0:0:
96,166,207257,6,0,P|162:152|211:148,2,99.9999904632568,6|0|0,3:2|1:2|3:2,0:0:0:0:
72,209,208177,2,0,P|81:249|87:276,1,49.9999952316284,2|0,3:2|1:2,0:0:0:0:
124,285,208545,2,0,P|173:279|222:267,1,99.9999904632568,2|0,3:2|3:2,0:0:0:0:
306,214,209281,1,2,0:2:0:0:
376,285,209649,1,2,3:2:0:0:
376,285,209834,2,0,P|368:321|365:355,1,49.9999952316284,2|2,1:2|0:2,0:0:0:0:
319,352,210202,6,0,P|269:357|220:369,1,99.9999904632568,6|2,3:2|1:2,0:0:0:0:
121,379,210938,2,0,L|63:369,1,49.9999952316284,0|2,3:2|3:2,0:0:0:0:
38,333,211306,1,2,1:2:0:0:
38,333,211490,2,0,P|48:268|54:232,1,99.9999904632568,4|2,3:2|1:2,0:0:0:0:
85,196,212042,1,0,1:2:0:0:
85,196,212226,2,0,P|75:131|69:95,1,99.9999904632568,6|8,3:2|0:3,0:0:0:0:
106,63,212778,2,0,P|154:77|176:79,1,49.9999952316284,4|2,0:3|1:2,0:0:0:0:
202,90,213146,6,0,P|273:82|331:77,1,99.9999904632568,14|10,3:2|1:2,0:0:0:0:
389,31,213883,1,10,1:2:0:0:
447,112,214251,2,0,P|443:148|439:193,1,49.9999952316284,10|2,1:2|3:2,0:0:0:0:
435,211,214619,1,10,1:2:0:0:
476,301,214987,2,0,P|431:327|391:361,1,99.9999904632568,10|10,1:2|1:2,0:0:0:0:
345,368,215539,1,2,3:2:0:0:
345,368,215723,2,0,P|312:360|292:356,1,49.9999952316284,10|0,1:2|3:2,0:0:0:0:
253,330,216091,6,0,P|220:338|200:342,2,49.9999952316284,6|0|2,3:2|1:2|1:2,0:0:0:0:
269,282,216643,2,0,P|257:220|253:167,1,99.9999904632568,6|8,3:2|0:3,0:0:0:0:
311,101,217380,2,0,P|257:91|214:74,1,99.9999904632568,6|4,3:2|0:3,0:0:0:0:
176,42,217932,1,10,1:2:0:0:
176,42,218116,2,0,P|122:52|79:69,1,99.9999904632568,6|8,3:2|0:3,0:0:0:0:
38,96,218668,2,0,P|45:137|51:158,1,49.9999952316284,8|4,0:3|0:3,0:0:0:0:
74,186,219036,6,0,P|66:241|60:300,1,99.9999904632568,6|2,3:2|1:2,0:0:0:0:
31,380,219772,2,0,P|77:372|108:369,1,49.9999952316284,0|0,3:2|3:2,0:0:0:0:
128,356,220140,1,2,1:2:0:0:
128,356,220324,2,0,P|186:368|232:375,1,99.9999904632568,2|2,3:2|3:2,0:0:0:0:
275,379,220876,1,2,1:2:0:0:
338,301,221245,2,0,P|328:244|318:175,1,99.9999904632568,2|2,3:2|1:2,0:0:0:0:
243,140,221981,5,6,3:2:0:0:
278,46,222349,1,2,1:2:0:0:
378,51,222717,1,2,1:2:0:0:
378,51,222901,1,8,0:3:0:0:
405,147,223269,2,0,B|465:165|511:122|511:122|476:208|491:285,1,249.999976158142,6|2,3:2|0:2,0:0:0:0:
430,336,224557,2,0,P|405:330|380:327,1,49.9999952316284,2|2,0:2|0:2,0:0:0:0:
338,301,224926,6,0,P|281:328|228:348,1,99.9999904632568,6|0,3:2|1:2,0:0:0:0:
152,376,225662,2,0,P|95:349|42:329,1,99.9999904632568,2|0,3:2|1:2,0:0:0:0:
6,251,226398,1,2,3:2:0:0:
85,190,226766,1,0,1:2:0:0:
31,106,227134,2,0,P|46:49|63:-7,1,99.9999904632568,2|0,3:2|1:2,0:0:0:0:
157,2,227870,6,0,P|204:26|259:41,1,99.9999904632568,2|0,3:2|1:2,0:0:0:0:
285,74,228423,2,0,P|332:50|387:35,1,99.9999904632568,2|2,0:2|3:2,0:0:0:0:
420,61,228975,1,2,1:2:0:0:
420,61,229159,2,0,P|404:143|397:183,1,99.9999904632568,6|0,3:2|3:2,0:0:0:0:
390,208,229711,1,2,1:2:0:0:
301,253,230079,2,0,P|225:237|201:234,1,99.9999904632568,2|2,3:2|1:2,0:0:0:0:
105,210,230815,6,0,P|121:286|124:310,1,99.9999904632568,6|0,3:2|1:2,0:0:0:0:
133,357,231367,1,2,0:2:0:0:
230,381,231735,1,2,3:2:0:0:
319,337,232103,2,0,P|376:350|445:361,1,99.9999904632568,2|2,3:2|3:2,0:0:0:0:
464,339,232656,1,2,1:2:0:0:
411,253,233024,2,0,P|400:230|389:208,2,49.9999952316284,0|0|0,3:2|3:2|1:2,0:0:0:0:
459,241,233576,1,2,0:2:0:0:
459,241,233760,6,0,P|480:188|483:141,1,99.9999904632568,6|0,3:2|1:2,0:0:0:0:
456,103,234312,1,2,3:2:0:0:
372,48,234680,2,0,P|325:57|309:60,1,49.9999952316284,2|2,3:2|1:2,0:0:0:0:
276,38,235048,2,0,P|293:90|199:102,1,149.999985694885,6|2,3:2|0:3,0:0:0:0:
129,78,235969,2,0,P|117:155|109:212,1,99.9999904632568,0|4,1:2|0:3,0:0:0:0:
102,225,236521,5,6,3:2:0:0:
256,192,236705,12,0,242594,0:0:0:0:
