osu file format v14

[General]
AudioFilename: audio.mp3
AudioLeadIn: 0
PreviewTime: 63238
Countdown: 0
SampleSet: Soft
StackLeniency: 0.4
Mode: 0
LetterboxInBreaks: 0
WidescreenStoryboard: 0

[Editor]
Bookmarks: 938,8484,20263,32042,46766,64251,76214,90938,102717,114496,129220,146705,158668,170447,189588,201183,213146,224926,236521,242594
DistanceSpacing: 1
BeatDivisor: 4
GridSize: 4
TimelineZoom: 1.499999

[Metadata]
Title:Light a Way
TitleUnicode:Light a Way
Artist:Suzuyu
ArtistUnicode:鈴湯
Creator:lit120
Version:Future Dreams
Source:クドわふたー
Tags:Kud Wafter Little Busters! リトルバスターズ! movie spin-off ost original soundtrack J.C.Staff Visual Arts Key japanese pop j-pop jpop anime vn visual novel eroge video game galgame galge -Hakurei- Amateurre
BeatmapID:3542768
BeatmapSetID:1733268

[Difficulty]
HPDrainRate:6
CircleSize:4.3
OverallDifficulty:9
ApproachRate:9.3
SliderMultiplier:1.8
SliderTickRate:1

[Events]
//Background and Video events
0,0,"kud wafter.jpg",0,0
//Break Periods
//Storyboard Layer 0 (Background)
//Storyboard Layer 1 (Fail)
//Storyboard Layer 2 (Pass)
//Storyboard Layer 3 (Foreground)
//Storyboard Layer 4 (Overlay)
//Storyboard Sound Samples

[TimingPoints]
-350,368.098159509202,4,2,10,40,1,0
938,-200,4,2,10,40,0,0
1306,-200,4,2,14,40,0,0
1490,-200,4,2,12,40,0,0
1858,-200,4,2,10,40,0,0
2778,-200,4,2,14,40,0,0
2962,-200,4,2,12,40,0,0
3330,-200,4,2,10,40,0,0
4619,-200,4,2,15,40,0,0
4803,-200,4,2,16,40,0,0
4987,-200,4,2,17,40,0,0
5171,-200,4,2,12,40,0,0
5355,-200,4,2,10,40,0,0
5907,-200,4,2,15,40,0,0
6091,-200,4,2,14,40,0,0
6459,-200,4,2,13,40,0,0
6643,-200,4,2,10,40,0,0
7011,-200,4,2,11,40,0,0
7380,-200,4,2,1,40,0,0
7748,-200,4,2,1,60,0,0
8484,-55.5555555555556,4,2,1,80,0,0
8760,-55.5555555555556,4,2,1,5,0,0
8852,-83.3333333333333,4,2,1,80,0,0
12441,-83.3333333333333,4,2,1,5,0,0
12533,-83.3333333333333,4,2,1,80,0,0
12625,-83.3333333333333,4,2,1,5,0,0
12717,-55.5555555555556,4,2,1,80,0,0
12993,-55.5555555555556,4,2,1,5,0,0
13085,-83.3333333333333,4,2,1,80,0,0
14373,-55.5555555555556,4,2,1,80,0,0
14649,-55.5555555555556,4,2,1,5,0,0
14742,-83.3333333333333,4,2,1,80,0,0
17318,-55.5555555555556,4,2,1,80,0,0
17594,-55.5555555555556,4,2,1,5,0,0
17686,-83.3333333333333,4,2,1,80,0,0
17778,-83.3333333333333,4,2,1,5,0,0
17870,-55.5555555555556,4,2,1,80,0,0
18146,-83.3333333333333,4,2,1,5,0,0
18238,-83.3333333333333,4,2,1,80,0,0
18330,-83.3333333333333,4,2,1,5,0,0
18423,-83.3333333333333,4,2,1,80,0,0
18515,-83.3333333333333,4,2,1,5,0,0
18607,-83.3333333333333,4,2,1,80,0,0
18975,-83.3333333333333,4,2,1,60,0,0
20263,-133.333333333333,4,2,1,60,0,0
26429,-133.333333333333,4,2,1,5,0,0
26521,-133.333333333333,4,2,1,60,0,0
32042,-100,4,2,1,70,0,0
36551,-100,4,2,1,5,0,0
36643,-100,4,2,1,70,0,0
38208,-100,4,2,1,5,0,0
38300,-100,4,2,1,70,0,0
41153,-100,4,2,1,5,0,0
41245,-100,4,2,1,70,0,0
43821,-62.5,4,2,1,70,0,0
44097,-100,4,2,1,5,0,0
44189,-100,4,2,1,70,0,0
52656,-62.5,4,2,1,70,0,0
52932,-100,4,2,1,5,0,0
53024,-100,4,2,1,70,0,0
55600,-62.5,4,2,1,70,0,0
55876,-100,4,2,1,5,0,0
55969,-100,4,2,1,70,0,0
61306,-62.5,4,2,1,70,0,0
61582,-62.5,4,2,1,5,0,0
61674,-62.5,4,2,1,70,0,0
61950,-62.5,4,2,1,5,0,0
62042,-62.5,4,2,1,70,0,0
62134,-62.5,4,2,1,5,0,0
62226,-55.5555555555556,4,2,1,70,0,0
62318,-62.5,4,2,1,5,0,0
62410,-55.5555555555556,4,2,1,70,0,0
62502,-62.5,4,2,1,5,0,0
62594,-55.5555555555556,4,2,1,70,0,0
62686,-62.5,4,2,1,5,0,0
62778,-100,4,2,1,70,0,0
64251,-55.5555555555556,4,2,1,80,0,1
64527,-55.5555555555556,4,2,1,5,0,1
64619,-83.3333333333333,4,2,1,80,0,1
65447,-83.3333333333333,4,2,1,5,0,1
65539,-83.3333333333333,4,2,1,80,0,1
65631,-83.3333333333333,4,2,1,5,0,1
65723,-83.3333333333333,4,2,1,80,0,1
66919,-83.3333333333333,4,2,1,5,0,1
67011,-83.3333333333333,4,2,1,80,0,1
67103,-83.3333333333333,4,2,1,5,0,1
67196,-83.3333333333333,4,2,1,80,0,1
68024,-83.3333333333333,4,2,1,5,0,1
68116,-83.3333333333333,4,2,1,80,0,1
68576,-83.3333333333333,4,2,1,5,0,1
68668,-83.3333333333333,4,2,1,80,0,1
68944,-83.3333333333333,4,2,1,5,0,1
69036,-83.3333333333333,4,2,1,80,0,1
69128,-83.3333333333333,4,2,1,5,0,1
69220,-83.3333333333333,4,2,1,80,0,1
69312,-83.3333333333333,4,2,1,5,0,1
69404,-83.3333333333333,4,2,1,80,0,1
69680,-83.3333333333333,4,2,1,5,0,1
69772,-83.3333333333333,4,2,1,80,0,1
69864,-83.3333333333333,4,2,1,5,0,1
69956,-83.3333333333333,4,2,1,80,0,1
70324,-55.5555555555556,4,2,1,80,0,1
70600,-83.3333333333333,4,2,1,5,0,1
70692,-83.3333333333333,4,2,1,80,0,1
73269,-55.5555555555556,4,2,1,80,0,1
73545,-83.3333333333333,4,2,1,5,0,1
73637,-83.3333333333333,4,2,1,80,0,1
74557,-55.5555555555556,4,2,1,80,0,1
74834,-83.3333333333333,4,2,1,5,0,1
74926,-83.3333333333333,4,2,1,80,0,1
75018,-83.3333333333333,4,2,1,5,0,1
75110,-83.3333333333333,4,2,1,80,0,1
75202,-83.3333333333333,4,2,1,5,0,1
75294,-55.5555555555556,4,2,1,80,0,1
75570,-83.3333333333333,4,2,1,5,0,1
75662,-83.3333333333333,4,2,1,80,0,1
75754,-83.3333333333333,4,2,1,5,0,1
75846,-55.5555555555556,4,2,1,80,0,1
76490,-83.3333333333333,4,2,1,5,0,1
76582,-83.3333333333333,4,2,1,80,0,1
77226,-83.3333333333333,4,2,1,5,0,1
77318,-83.3333333333333,4,2,1,80,0,1
77410,-83.3333333333333,4,2,1,5,0,1
77502,-83.3333333333333,4,2,1,80,0,1
78699,-83.3333333333333,4,2,1,5,0,1
78791,-83.3333333333333,4,2,1,80,0,1
79251,-83.3333333333333,4,2,1,5,0,1
79343,-55.5555555555556,4,2,1,80,0,1
79987,-83.3333333333333,4,2,1,5,0,1
80079,-83.3333333333333,4,2,1,80,0,1
80171,-83.3333333333333,4,2,1,5,0,1
80263,-83.3333333333333,4,2,1,80,0,1
80355,-83.3333333333333,4,2,1,5,0,1
80447,-55.5555555555556,4,2,1,80,0,1
80723,-83.3333333333333,4,2,1,5,0,1
80815,-83.3333333333333,4,2,1,80,0,1
80907,-83.3333333333333,4,2,1,5,0,1
80999,-83.3333333333333,4,2,1,80,0,1
81091,-83.3333333333333,4,2,1,5,0,1
81183,-55.5555555555556,4,2,1,80,0,1
81459,-83.3333333333333,4,2,1,5,0,1
81551,-83.3333333333333,4,2,1,80,0,1
81643,-83.3333333333333,4,2,1,5,0,1
81735,-83.3333333333333,4,2,1,80,0,1
81827,-83.3333333333333,4,2,1,5,0,1
81919,-55.5555555555556,4,2,1,80,0,1
82380,-83.3333333333333,4,2,1,5,0,1
82472,-83.3333333333333,4,2,1,80,0,1
85048,-55.5555555555556,4,2,1,80,0,1
85324,-83.3333333333333,4,2,1,5,0,1
85416,-83.3333333333333,4,2,1,80,0,1
85876,-83.3333333333333,4,2,1,5,0,1
85969,-83.3333333333333,4,2,1,80,0,1
86061,-83.3333333333333,4,2,1,5,0,1
86153,-83.3333333333333,4,2,1,80,0,1
86245,-83.3333333333333,4,2,1,5,0,1
86337,-133.333333333333,4,2,1,80,0,1
87625,-83.3333333333333,4,2,1,80,0,1
87717,-133.333333333333,4,2,1,5,0,1
87809,-55.5555555555556,4,2,1,80,0,1
88085,-55.5555555555556,4,2,1,5,0,1
88177,-71.4285714285714,4,2,1,80,0,1
88453,-62.5,4,2,1,5,0,1
88545,-71.4285714285714,4,2,1,80,0,1
88637,-62.5,4,2,1,5,0,1
88729,-71.4285714285714,4,2,1,80,0,1
88821,-62.5,4,2,1,5,0,1
88913,-71.4285714285714,4,2,1,80,0,1
89005,-62.5,4,2,1,5,0,1
89097,-71.4285714285714,4,2,1,80,0,1
89189,-55.5555555555556,4,2,1,5,0,1
89281,-55.5555555555556,4,2,1,80,0,1
89557,-55.5555555555556,4,2,1,5,0,1
89649,-55.5555555555556,4,2,1,80,0,1
89926,-55.5555555555556,4,2,1,5,0,1
90018,-83.3333333333333,4,2,1,80,0,1
90938,-55.5555555555556,4,2,1,80,0,0
91214,-83.3333333333333,4,2,1,5,0,0
91306,-83.3333333333333,4,2,1,80,0,0
94895,-83.3333333333333,4,2,1,5,0,0
94987,-83.3333333333333,4,2,1,80,0,0
95079,-83.3333333333333,4,2,1,5,0,0
95171,-55.5555555555556,4,2,1,80,0,0
95447,-83.3333333333333,4,2,1,5,0,0
95539,-83.3333333333333,4,2,1,80,0,0
96827,-55.5555555555556,4,2,1,80,0,0
97103,-83.3333333333333,4,2,1,5,0,0
97196,-83.3333333333333,4,2,1,80,0,0
99772,-55.5555555555556,4,2,1,80,0,0
100048,-83.3333333333333,4,2,1,5,0,0
100140,-83.3333333333333,4,2,1,80,0,0
100232,-83.3333333333333,4,2,1,5,0,0
100324,-55.5555555555556,4,2,1,80,0,0
100600,-55.5555555555556,4,2,1,5,0,0
100692,-83.3333333333333,4,2,1,80,0,0
100784,-83.3333333333333,4,2,1,5,0,0
100876,-83.3333333333333,4,2,1,80,0,0
100969,-83.3333333333333,4,2,1,5,0,0
101061,-55.5555555555556,4,2,1,80,0,0
101337,-83.3333333333333,4,2,1,5,0,0
101429,-83.3333333333333,4,2,1,80,0,0
101521,-83.3333333333333,4,2,1,5,0,0
101613,-83.3333333333333,4,2,1,80,0,0
101705,-83.3333333333333,4,2,1,5,0,0
101797,-83.3333333333333,4,2,1,80,0,0
102717,-100,4,2,1,70,0,0
108883,-100,4,2,1,5,0,0
108975,-100,4,2,1,70,0,0
109987,-100,4,2,1,5,0,0
110079,-100,4,2,1,70,0,0
119005,-100,4,2,1,5,0,0
119097,-100,4,2,1,70,0,0
120662,-100,4,2,1,5,0,0
120754,-100,4,2,1,70,0,0
123607,-100,4,2,1,5,0,0
123699,-100,4,2,1,70,0,0
126275,-62.5,4,2,1,70,0,0
126551,-100,4,2,1,5,0,0
126643,-100,4,2,1,70,0,0
135110,-62.5,4,2,1,70,0,0
135386,-100,4,2,1,5,0,0
135478,-100,4,2,1,70,0,0
138054,-62.5,4,2,1,70,0,0
138330,-100,4,2,1,5,0,0
138423,-100,4,2,1,70,0,0
143760,-62.5,4,2,1,70,0,0
144036,-100,4,2,1,5,0,0
144128,-62.5,4,2,1,70,0,0
144404,-62.5,4,2,1,5,0,0
144496,-62.5,4,2,1,70,0,0
144588,-62.5,4,2,1,5,0,0
144680,-55.5555555555556,4,2,1,70,0,0
144772,-55.5555555555556,4,2,1,5,0,0
144864,-55.5555555555556,4,2,1,70,0,0
144956,-55.5555555555556,4,2,1,5,0,0
145048,-55.5555555555556,4,2,1,70,0,0
145140,-55.5555555555556,4,2,1,5,0,0
145232,-62.5,4,2,1,70,0,0
146061,-62.5,4,2,1,5,0,0
146153,-100,4,2,1,70,0,0
146245,-62.5,4,2,1,5,0,0
146337,-62.5,4,2,1,70,0,0
146705,-55.5555555555556,4,2,1,80,0,0
146981,-83.3333333333333,4,2,1,5,0,0
147073,-83.3333333333333,4,2,1,80,0,0
147165,-83.3333333333333,4,2,1,5,0,0
147257,-83.3333333333333,4,2,1,80,0,0
147349,-83.3333333333333,4,2,1,5,0,0
147441,-83.3333333333333,4,2,1,80,0,0
147901,-83.3333333333333,4,2,1,5,0,0
147993,-83.3333333333333,4,2,1,80,0,0
148085,-83.3333333333333,4,2,1,5,0,0
148177,-83.3333333333333,4,2,1,80,0,0
148821,-83.3333333333333,4,2,1,5,0,0
148913,-83.3333333333333,4,2,1,80,0,0
150110,-83.3333333333333,4,2,1,5,0,0
150202,-83.3333333333333,4,2,1,80,0,0
150294,-83.3333333333333,4,2,1,5,0,0
150386,-83.3333333333333,4,2,1,80,0,0
150846,-83.3333333333333,4,2,1,5,0,0
150938,-83.3333333333333,4,2,1,80,0,0
151030,-83.3333333333333,4,2,1,5,0,0
151122,-83.3333333333333,4,2,1,80,0,0
151582,-83.3333333333333,4,2,1,5,0,0
151674,-83.3333333333333,4,2,1,80,0,0
151766,-83.3333333333333,4,2,1,5,0,0
151858,-83.3333333333333,4,2,1,80,0,0
152318,-83.3333333333333,4,2,1,5,0,0
152410,-83.3333333333333,4,2,1,80,0,0
152778,-55.5555555555556,4,2,1,80,0,0
153146,-83.3333333333333,4,2,1,80,0,0
155079,-83.3333333333333,4,2,1,5,0,0
155171,-83.3333333333333,4,2,1,80,0,0
155723,-55.5555555555556,4,2,1,80,0,0
156459,-33.3333333333333,4,2,1,80,0,0
157011,-55.5555555555556,4,2,1,80,0,0
157288,-33.3333333333333,4,2,1,5,0,0
157380,-83.3333333333333,4,2,1,80,0,0
157472,-83.3333333333333,4,2,1,5,0,0
157564,-83.3333333333333,4,2,1,80,0,0
157656,-83.3333333333333,4,2,1,5,0,0
157748,-83.3333333333333,4,2,1,80,0,0
159496,-83.3333333333333,4,2,1,5,0,0
159588,-83.3333333333333,4,2,1,80,0,0
159680,-83.3333333333333,4,2,1,5,0,0
159772,-83.3333333333333,4,2,1,80,0,0
159864,-83.3333333333333,4,2,1,5,0,0
159956,-83.3333333333333,4,2,1,80,0,0
160600,-83.3333333333333,4,2,1,5,0,0
160692,-83.3333333333333,4,2,1,80,0,0
160784,-83.3333333333333,4,2,1,5,0,0
160876,-83.3333333333333,4,2,1,80,0,0
160969,-83.3333333333333,4,2,1,5,0,0
161061,-83.3333333333333,4,2,1,80,0,0
161153,-83.3333333333333,4,2,1,5,0,0
161245,-83.3333333333333,4,2,1,80,0,0
161337,-83.3333333333333,4,2,1,5,0,0
161429,-83.3333333333333,4,2,1,80,0,0
161705,-83.3333333333333,4,2,1,5,0,0
161797,-55.5555555555556,4,2,1,80,0,0
162441,-83.3333333333333,4,2,1,5,0,0
162533,-83.3333333333333,4,2,1,80,0,0
162625,-83.3333333333333,4,2,1,5,0,0
162717,-83.3333333333333,4,2,1,80,0,0
162809,-83.3333333333333,4,2,1,5,0,0
162901,-55.5555555555556,4,2,1,80,0,0
163177,-83.3333333333333,4,2,1,5,0,0
163269,-83.3333333333333,4,2,1,80,0,0
163361,-83.3333333333333,4,2,1,5,0,0
163453,-55.5555555555556,4,2,1,80,0,0
163729,-83.3333333333333,4,2,1,5,0,0
163821,-83.3333333333333,4,2,1,80,0,0
163913,-83.3333333333333,4,2,1,5,0,0
164005,-55.5555555555556,4,2,1,80,0,0
164834,-83.3333333333333,4,2,1,5,0,0
164926,-83.3333333333333,4,2,1,80,0,0
165386,-83.3333333333333,4,2,1,5,0,0
165478,-83.3333333333333,4,2,1,80,0,0
166306,-83.3333333333333,4,2,1,5,0,0
166398,-83.3333333333333,4,2,1,80,0,0
167410,-83.3333333333333,4,2,1,5,0,0
167502,-55.5555555555556,4,2,1,80,0,0
167778,-83.3333333333333,4,2,1,5,0,0
167870,-83.3333333333333,4,2,1,80,0,0
168330,-83.3333333333333,4,2,1,5,0,0
168423,-83.3333333333333,4,2,1,80,0,0
168791,-55.5555555555556,4,2,1,80,0,0
169067,-83.3333333333333,4,2,1,5,0,0
169159,-83.3333333333333,4,2,1,80,0,0
169251,-83.3333333333333,4,2,1,5,0,0
169343,-83.3333333333333,4,2,1,80,0,0
169803,-83.3333333333333,4,2,1,5,0,0
169895,-55.5555555555556,4,2,1,80,0,0
170723,-83.3333333333333,4,2,1,5,0,0
170815,-83.3333333333333,4,2,1,80,0,0
171275,-83.3333333333333,4,2,1,5,0,0
171367,-83.3333333333333,4,2,1,80,0,0
171643,-83.3333333333333,4,2,1,5,0,0
171735,-83.3333333333333,4,2,1,80,0,0
172380,-83.3333333333333,4,2,1,5,0,0
172472,-83.3333333333333,4,2,1,80,0,0
172748,-83.3333333333333,4,2,1,5,0,0
172840,-83.3333333333333,4,2,1,80,0,0
173116,-83.3333333333333,4,2,1,5,0,0
173208,-83.3333333333333,4,2,1,80,0,0
174220,-83.3333333333333,4,2,1,5,0,0
174312,-83.3333333333333,4,2,1,80,0,0
174588,-83.3333333333333,4,2,1,5,0,0
174680,-83.3333333333333,4,2,1,80,0,0
175324,-83.3333333333333,4,2,1,5,0,0
175416,-83.3333333333333,4,2,1,80,0,0
175692,-83.3333333333333,4,2,1,5,0,0
175784,-83.3333333333333,4,2,1,80,0,0
176337,-62.5,4,2,1,70,0,0
176613,-100,4,2,1,5,0,0
176705,-100,4,2,1,70,0,0
179281,-62.5,4,2,1,70,0,0
179557,-100,4,2,1,5,0,0
179649,-100,4,2,1,70,0,0
184987,-62.5,4,2,1,70,0,0
185263,-100,4,2,1,5,0,0
185355,-62.5,4,2,1,70,0,0
185631,-62.5,4,2,1,5,0,0
185723,-62.5,4,2,1,70,0,0
185815,-62.5,4,2,1,5,0,0
185907,-55.5555555555556,4,2,1,70,0,0
185999,-55.5555555555556,4,2,1,5,0,0
186091,-55.5555555555556,4,2,1,70,0,0
186183,-55.5555555555556,4,2,1,5,0,0
186275,-55.5555555555556,4,2,1,70,0,0
186367,-55.5555555555556,4,2,1,5,0,0
186459,-62.5,4,2,1,70,0,0
186827,-62.5,4,2,1,60,0,0
187011,-100,4,2,1,60,0,0
189588,-133.333333333333,4,2,1,50,0,0
190600,-133.333333333333,4,2,1,5,0,0
190692,-133.333333333333,4,2,1,50,0,0
190784,-133.333333333333,4,2,1,5,0,0
190876,-133.333333333333,4,2,1,50,0,0
192257,-133.333333333333,4,2,1,5,0,0
192349,-133.333333333333,4,2,1,50,0,0
199803,-133.333333333333,4,2,1,5,0,0
200447,-133.333333333333,4,2,1,50,0,0
201183,-50,4,2,1,80,0,1
201459,-71.4285714285714,4,2,1,5,0,1
201551,-71.4285714285714,4,2,1,80,0,1
202380,-71.4285714285714,4,2,1,5,0,1
202472,-71.4285714285714,4,2,1,80,0,1
202564,-71.4285714285714,4,2,1,5,0,1
202656,-71.4285714285714,4,2,1,80,0,1
203852,-71.4285714285714,4,2,1,5,0,1
203944,-71.4285714285714,4,2,1,80,0,1
204036,-71.4285714285714,4,2,1,5,0,1
204128,-71.4285714285714,4,2,1,80,0,1
204956,-71.4285714285714,4,2,1,5,0,1
205048,-71.4285714285714,4,2,1,80,0,1
205508,-71.4285714285714,4,2,1,5,0,1
205600,-71.4285714285714,4,2,1,80,0,1
205876,-71.4285714285714,4,2,1,5,0,1
205969,-71.4285714285714,4,2,1,80,0,1
206061,-71.4285714285714,4,2,1,5,0,1
206153,-71.4285714285714,4,2,1,80,0,1
206245,-71.4285714285714,4,2,1,5,0,1
206337,-71.4285714285714,4,2,1,80,0,1
206613,-71.4285714285714,4,2,1,5,0,1
206705,-71.4285714285714,4,2,1,80,0,1
206797,-71.4285714285714,4,2,1,5,0,1
206889,-71.4285714285714,4,2,1,80,0,1
207257,-50,4,2,1,80,0,1
207533,-71.4285714285714,4,2,1,5,0,1
207625,-71.4285714285714,4,2,1,80,0,1
210202,-50,4,2,1,80,0,1
210478,-71.4285714285714,4,2,1,5,0,1
210570,-71.4285714285714,4,2,1,80,0,1
211490,-50,4,2,1,80,0,1
211766,-71.4285714285714,4,2,1,5,0,1
211858,-71.4285714285714,4,2,1,80,0,1
211950,-71.4285714285714,4,2,1,5,0,1
212042,-71.4285714285714,4,2,1,80,0,1
212134,-71.4285714285714,4,2,1,5,0,1
212226,-71.4285714285714,4,2,1,80,0,1
212318,-71.4285714285714,4,2,1,5,0,1
212410,-71.4285714285714,4,2,1,80,0,1
213975,-71.4285714285714,4,2,1,5,0,1
214067,-71.4285714285714,4,2,1,80,0,1
214343,-71.4285714285714,4,2,1,5,0,1
214435,-71.4285714285714,4,2,1,80,0,1
215079,-71.4285714285714,4,2,1,5,0,1
215171,-71.4285714285714,4,2,1,80,0,1
215447,-71.4285714285714,4,2,1,5,0,1
215539,-71.4285714285714,4,2,1,80,0,1
215815,-71.4285714285714,4,2,1,5,0,1
215907,-71.4285714285714,4,2,1,80,0,1
216183,-71.4285714285714,4,2,1,5,0,1
216275,-71.4285714285714,4,2,1,80,0,1
216367,-71.4285714285714,4,2,1,5,0,1
216459,-71.4285714285714,4,2,1,80,0,1
216551,-71.4285714285714,4,2,1,5,0,1
216643,-50,4,2,1,80,0,1
216919,-71.4285714285714,4,2,1,5,0,1
217011,-71.4285714285714,4,2,1,80,0,1
217103,-71.4285714285714,4,2,1,5,0,1
217196,-71.4285714285714,4,2,1,80,0,1
217288,-71.4285714285714,4,2,1,5,0,1
217380,-50,4,2,1,80,0,1
217656,-50,4,2,1,5,0,1
217748,-71.4285714285714,4,2,1,80,0,1
217840,-71.4285714285714,4,2,1,5,0,1
217932,-71.4285714285714,4,2,1,80,0,1
218024,-71.4285714285714,4,2,1,5,0,1
218116,-71.4285714285714,4,2,1,80,0,1
218208,-71.4285714285714,4,2,1,5,0,1
218300,-50,4,2,1,80,0,1
219312,-71.4285714285714,4,2,1,5,0,1
219404,-71.4285714285714,4,2,1,80,0,1
222073,-71.4285714285714,4,2,1,5,0,1
222165,-71.4285714285714,4,2,1,80,0,1
222441,-71.4285714285714,4,2,1,5,0,1
222533,-71.4285714285714,4,2,1,80,0,1
222809,-71.4285714285714,4,2,1,5,0,1
222901,-71.4285714285714,4,2,1,80,0,1
222993,-71.4285714285714,4,2,1,5,0,1
223085,-71.4285714285714,4,2,1,80,0,1
223177,-71.4285714285714,4,2,1,5,0,1
223269,-133.333333333333,4,2,1,80,0,1
224926,-50,4,2,1,80,0,0
225202,-71.4285714285714,4,2,1,5,0,0
225294,-71.4285714285714,4,2,1,80,0,0
228883,-71.4285714285714,4,2,1,5,0,0
228975,-71.4285714285714,4,2,1,80,0,0
229067,-71.4285714285714,4,2,1,5,0,0
229159,-50,4,2,1,80,0,0
229435,-71.4285714285714,4,2,1,5,0,0
229527,-71.4285714285714,4,2,1,80,0,0
230815,-50,4,2,1,80,0,0
231091,-71.4285714285714,4,2,1,5,0,0
231183,-71.4285714285714,4,2,1,80,0,0
233760,-50,4,2,1,80,0,0
234036,-71.4285714285714,4,2,1,5,0,0
234128,-71.4285714285714,4,2,1,80,0,0
234220,-71.4285714285714,4,2,1,5,0,0
234312,-50,4,2,1,80,0,0
234588,-71.4285714285714,4,2,1,5,0,0
234680,-71.4285714285714,4,2,1,80,0,0
234772,-71.4285714285714,4,2,1,5,0,0
234864,-71.4285714285714,4,2,1,80,0,0
234956,-71.4285714285714,4,2,1,5,0,0
235048,-71.4285714285714,4,2,1,80,0,0
236061,-71.4285714285714,4,2,1,5,0,0
236153,-285.714285714286,4,2,1,80,0,0
236521,-285.714285714286,4,2,1,60,0,0
242594,-285.714285714286,4,2,1,5,0,0

[Colours]
Combo1 : 196,163,220
Combo2 : 241,204,188
Combo3 : 255,183,204
Combo4 : 150,213,243

[HitObjects]
94,144,938,6,0,L|103:252,1,90,2|2,0:0|0:0,0:0:0:0:
172,167,1490,2,0,L|164:77,1,90,2|2,0:0|0:0,0:0:0:0:
418,144,2410,6,0,L|409:252,1,90,2|2,0:0|0:0,0:0:0:0:
340,167,2962,2,0,L|347:77,1,90,2|2,0:0|0:0,0:0:0:0:
256,349,3699,5,0,0:0:0:0:
256,349,3883,1,0,0:0:0:0:
192,284,4067,2,0,P|256:266|320:284,1,135,2|2,0:0|0:0,0:0:0:0:
301,116,4803,5,2,0:0:0:0:
256,194,4987,1,2,0:0:0:0:
211,116,5171,1,2,0:0:0:0:
256,38,5355,6,0,L|381:26,1,90,2|0,0:0|0:0,0:0:0:0:
256,116,5907,1,2,0:0:0:0:
166,29,6091,2,0,L|256:38,1,90,2|2,0:0|0:0,0:0:0:0:
256,116,6643,1,2,0:0:0:0:
256,116,7011,6,0,L|256:206,1,90,2|2,0:0|0:3,0:0:0:0:
166,116,7564,1,0,1:2:0:0:
166,116,7656,1,0,1:2:0:0:
166,116,7748,5,2,1:2:0:0:
113,103,7840,1,2,1:2:0:0:
66,117,7932,1,2,1:2:0:0:
34,149,8024,1,2,1:2:0:0:
21,188,8116,1,2,1:2:0:0:
23,223,8208,1,2,1:2:0:0:
34,252,8300,1,8,0:3:0:0:
51,272,8392,1,2,0:2:0:0:
105,287,8484,6,0,B|201:279|201:279|239:249|239:249|336:242,1,242.999992584229,6|0,3:2|0:0,0:0:0:0:
442,380,8852,6,0,P|415:300|404:257,1,107.999996704102,0|0,1:2|0:0,0:0:0:0:
490,71,9220,1,2,3:2:0:0:
402,197,9404,1,0,3:2:0:0:
247,5,9588,1,0,1:2:0:0:
370,100,9772,1,2,0:0:0:0:
370,100,9864,1,2,0:0:0:0:
370,100,9956,6,0,P|297:89|256:85,1,107.999996704102,2|0,3:2|3:2,0:0:0:0:
95,207,10324,2,0,P|148:201|201:192,1,107.999996704102,0|0,1:2|0:0,0:0:0:0:
324,361,10692,2,0,P|287:299|267:252,1,107.999996704102,2|0,3:2|3:2,0:0:0:0:
150,23,11061,1,0,1:2:0:0:
49,108,11245,1,2,0:0:0:0:
49,108,11337,1,2,0:0:0:0:
49,108,11429,6,0,P|66:214|81:333,1,215.999993408203,2|0,3:2|1:2,0:0:0:0:
303,167,11981,2,0,P|263:185|198:210,1,107.999996704102,2|0,0:2|3:2,0:0:0:0:
382,26,12349,2,0,P|389:64|393:96,1,53.9999983520508,2|0,3:2|0:0,0:0:0:0:
322,146,12533,2,0,P|314:107|311:76,1,53.9999983520508,2|0,1:2|0:0,0:0:0:0:
469,275,12717,6,0,B|451:340|387:356|387:356|340:308|355:246,1,242.999992584229,6|0,3:2|0:0,0:0:0:0:
432,183,13085,5,0,3:2:0:0:
297,71,13269,2,0,P|243:90|187:107,1,107.999996704102,2|0,1:2|0:0,0:0:0:0:
52,13,13637,1,2,3:2:0:0:
181,117,13821,1,0,3:2:0:0:
0,266,14005,1,2,1:2:0:0:
115,360,14189,1,2,0:2:0:0:
115,360,14281,1,2,0:2:0:0:
115,360,14373,6,0,B|254:372|176:250|316:262,1,242.999992584229,6|0,3:2|0:0,0:0:0:0:
396,314,14742,5,0,1:2:0:0:
433,116,14926,2,0,P|416:167|401:219,1,107.999996704102,2|0,0:2|3:2,0:0:0:0:
247,54,15294,2,0,P|264:105|279:156,1,107.999996704102,2|0,3:2|1:2,0:0:0:0:
155,333,15662,6,0,P|49:337|25:223,1,215.999993408203,2|2,3:2|3:2,0:0:0:0:
57,63,16214,1,2,1:2:0:0:
113,158,16398,1,2,0:0:0:0:
113,158,16490,1,2,0:0:0:0:
113,158,16582,2,0,P|104:212|100:266,1,107.999996704102,2|0,3:2|3:2,0:0:0:0:
228,78,16950,1,0,1:2:0:0:
332,159,17134,1,2,0:2:0:0:
332,159,17226,1,2,0:2:0:0:
332,159,17318,6,0,B|484:133|484:133|519:95|485:40,1,242.999992584229,6|0,3:2|0:0,0:0:0:0:
397,8,17686,2,0,P|404:52|406:70,1,53.9999983520508,0|0,1:2|0:0,0:0:0:0:
508,218,17870,6,0,B|481:299|490:381|490:381|482:345|451:308,1,242.999992584229,2|0,3:2|0:0,0:0:0:0:
354,233,18238,2,0,P|399:246|424:250,1,53.9999983520508,2|0,3:2|0:0,0:0:0:0:
243,355,18423,2,0,P|288:342|313:338,1,53.9999983520508,2|0,1:2|0:0,0:0:0:0:
141,226,18607,6,0,P|148:168|166:4,1,215.999993408203,6|2,3:2|0:2,0:0:0:0:
258,103,19159,1,2,0:2:0:0:
322,57,19343,1,2,0:2:0:0:
394,89,19527,1,2,0:2:0:0:
401,169,19711,1,2,0:2:0:0:
336,215,19895,1,2,0:2:0:0:
265,181,20079,1,2,0:2:0:0:
265,181,20171,1,2,0:2:0:0:
265,181,20263,6,0,P|264:247|316:292,1,135.000005149842,6|2,3:2|3:2,0:0:0:0:
402,205,20815,2,0,P|369:211|336:215,1,67.5000025749208,2|0,0:2|3:2,0:0:0:0:
291,368,21183,2,0,P|324:362|357:358,1,67.5000025749208,2|0,0:2|3:2,0:0:0:0:
232,269,21551,1,2,0:2:0:0:
232,269,21643,1,2,0:0:0:0:
232,269,21735,6,0,B|179:278|179:278|164:300|164:300|111:310,1,135.000005149842,2|2,3:2|3:2,0:0:0:0:
36,276,22288,1,2,0:2:0:0:
113,161,22472,2,0,P|107:194|103:228,1,67.5000025749208,2|2,3:2|0:2,0:0:0:0:
21,159,22840,2,0,P|16:125|10:92,1,67.5000025749208,2|2,3:2|0:2,0:0:0:0:
131,13,23208,6,0,P|207:38|281:51,1,135.000005149842,2|2,3:2|3:2,0:0:0:0:
330,125,23760,2,0,P|280:136|238:151,1,67.5000025749208,2|0,0:2|3:2,0:0:0:0:
362,27,24128,2,0,P|394:36|427:42,1,67.5000025749208,2|0,0:2|3:2,0:0:0:0:
473,144,24496,1,2,0:2:0:0:
473,144,24588,1,2,0:0:0:0:
473,144,24680,6,0,P|467:212|461:291,1,135.000005149842,2|2,3:2|3:2,0:0:0:0:
446,359,25232,1,8,0:3:0:0:
330,295,25416,1,2,3:2:0:0:
390,239,25600,1,8,0:3:0:0:
364,369,25784,1,0,3:2:0:0:
249,277,25969,1,2,0:2:0:0:
249,277,26061,1,2,0:2:0:0:
249,277,26153,6,0,P|204:286|129:298,1,101.250003862381,6|0,3:2|0:0,0:0:0:0:
69,268,26521,2,0,P|115:278|150:285,1,67.5000025749208,2|0,3:2|0:0,0:0:0:0:
129,146,26889,2,0,P|154:185|174:215,1,67.5000025749208,2|0,3:2|0:0,0:0:0:0:
257,102,27257,2,0,P|247:148|240:183,1,67.5000025749208,2|0,3:2|0:0,0:0:0:0:
378,161,27625,6,0,P|444:152|512:148,1,135.000005149842,2|2,3:2|3:2,0:0:0:0:
459,62,28177,2,0,P|391:57|324:49,1,135.000005149842,2|2,0:2|0:2,0:0:0:0:
242,168,28729,2,0,P|249:134|257:102,1,67.5000025749208,2|2,3:2|0:2,0:0:0:0:
114,11,29097,6,0,P|123:78|129:146,2,135.000005149842,6|0|0,3:2|3:2|3:2,0:0:0:0:
45,92,30018,1,2,0:2:0:0:
155,160,30202,1,2,3:2:0:0:
4,240,30386,1,2,1:2:0:0:
4,240,31214,5,0,1:2:0:0:
10,255,31306,2,0,P|9:284|6:305,2,33.7500012874604,0|0|0,1:2|1:2|1:2,0:0:0:0:
87,232,31582,1,0,1:2:0:0:
111,236,31674,1,0,1:2:0:0:
136,240,31766,1,0,1:2:0:0:
161,244,31858,1,8,0:3:0:0:
368,349,32042,6,0,P|282:362|224:275,1,180,6|2,3:2|1:2,0:0:0:0:
322,189,32594,2,0,P|316:234|313:279,1,90,2|0,0:2|3:2,0:0:0:0:
215,158,32962,2,0,P|211:113|205:68,1,90,2|0,3:2|1:2,0:0:0:0:
309,11,33330,6,0,B|410:-8|362:87|464:67,1,180,2|2,0:2|0:2,0:0:0:0:
334,176,33883,2,0,P|330:131|324:86,1,90,0|2,1:2|0:2,0:0:0:0:
421,241,34251,1,2,3:2:0:0:
322,189,34435,1,2,3:2:0:0:
194,366,34619,1,2,1:2:0:0:
293,314,34803,1,2,0:2:0:0:
293,314,34895,1,2,0:0:0:0:
293,314,34987,6,0,P|231:260|119:281,1,180,2|2,3:2|1:2,0:0:0:0:
0,364,35539,2,0,P|62:351|108:345,1,90,2|0,0:2|3:2,0:0:0:0:
226,226,35907,1,2,3:2:0:0:
53,168,36091,1,0,1:2:0:0:
189,47,36275,6,0,P|179:113|126:74,1,135,2|0,3:2|0:0,0:0:0:0:
204,23,36643,2,0,P|265:38|328:49,1,90,2|0,3:2|1:2,0:0:0:0:
394,159,37011,1,2,0:2:0:0:
394,159,37103,1,2,0:0:0:0:
394,159,37196,1,0,3:2:0:0:
304,61,37380,1,0,3:2:0:0:
235,237,37564,2,0,P|243:305|246:360,1,90,0|0,1:2|0:0,0:0:0:0:
354,378,37932,6,0,P|419:344|507:339,1,135,2|0,3:2|0:0,0:0:0:0:
374,252,38300,2,0,P|367:302|358:357,1,90,2|0,1:2|0:0,0:0:0:0:
472,173,38668,1,2,3:2:0:0:
380,96,38852,2,0,P|315:112|270:120,1,90,2|0,3:2|1:2,0:0:0:0:
174,384,39220,6,0,B|71:398|124:305|21:319,1,180,2|0,0:2|0:0,0:0:0:0:
187,155,39772,2,0,P|177:218|172:257,1,90,2|0,1:2|0:0,0:0:0:0:
71,49,40140,1,2,3:2:0:0:
14,195,40324,1,2,3:2:0:0:
189,73,40508,2,0,P|252:83|291:88,1,90,2|0,1:2|0:0,0:0:0:0:
466,186,40876,6,0,P|396:185|360:120,1,135,2|0,3:2|0:0,0:0:0:0:
440,32,41245,2,0,P|435:77|432:122,1,90,2|0,1:2|0:0,0:0:0:0:
371,309,41613,1,2,3:2:0:0:
266,206,41797,2,0,P|271:251|274:296,1,90,2|0,3:2|1:2,0:0:0:0:
163,382,42165,6,0,B|92:370|92:370|72:340|72:340|1:327,1,180,2|0,0:2|0:0,0:0:0:0:
129,212,42717,1,2,1:2:0:0:
17,81,42901,2,0,P|22:126|25:171,1,90,6|0,3:2|0:0,0:0:0:0:
139,24,43269,1,2,3:2:0:0:
209,196,43453,1,0,1:2:0:0:
123,129,43637,1,2,0:2:0:0:
123,129,43729,1,2,0:2:0:0:
124,128,43821,6,0,B|264:107|264:107|305:115|310:157,1,216,6|0,3:2|0:0,0:0:0:0:
345,251,44189,5,0,1:2:0:0:
209,196,44373,1,2,1:2:0:0:
366,22,44557,5,2,1:2:0:0:
311,158,44742,1,2,1:2:0:0:
137,1,44926,5,2,1:2:0:0:
273,56,45110,1,2,1:2:0:0:
116,230,45294,5,2,1:2:0:0:
171,94,45478,1,2,1:2:0:0:
207,346,45662,5,6,1:2:0:0:
262,210,45846,1,2,1:2:0:0:
262,210,45938,1,0,1:2:0:0:
262,210,46030,5,0,1:2:0:0:
196,262,46214,1,8,0:3:0:0:
116,230,46398,1,4,0:3:0:0:
207,346,46582,1,2,1:2:0:0:
353,326,46766,6,0,P|345:236|339:146,1,180,6|0,3:2|0:0,0:0:0:0:
324,57,47318,1,0,3:2:0:0:
254,173,47502,2,0,P|296:157|340:146,1,90,2|0,1:2|3:2,0:0:0:0:
409,29,47870,2,0,P|367:45|324:57,1,90,0|2,1:2|3:2,0:0:0:0:
162,205,48238,5,2,0:0:0:0:
91,145,48423,1,2,1:2:0:0:
192,24,48607,2,0,P|181:67|176:112,1,90,2|2,3:2|0:2,0:0:0:0:
7,176,48975,1,2,1:2:0:0:
7,176,49159,2,0,P|50:162|91:145,1,90,2|2,3:2|0:2,0:0:0:0:
230,262,49527,1,2,1:2:0:0:
26,362,49711,6,0,P|71:312|183:346,1,180,2|0,3:2|3:2,0:0:0:0:
261,347,50263,1,0,3:2:0:0:
213,174,50447,2,0,P|224:218|230:262,1,90,2|0,1:2|3:2,0:0:0:0:
350,362,50815,2,0,P|338:318|332:273,1,90,2|0,1:2|3:2,0:0:0:0:
440,161,51183,5,2,0:2:0:0:
382,22,51367,1,0,1:2:0:0:
291,142,51551,1,0,3:2:0:0:
371,109,51735,1,2,0:2:0:0:
371,109,51827,1,2,0:2:0:0:
371,109,51919,1,2,1:2:0:0:
243,37,52103,1,0,1:2:0:0:
243,37,52196,1,0,1:2:0:0:
243,37,52288,2,0,P|190:47|138:57,1,90,0|8,1:2|0:3,0:0:0:0:
6,230,52656,6,0,P|53:147|153:188,1,216,6|0,3:2|0:0,0:0:0:0:
93,307,53024,6,0,P|87:262|82:218,1,90,2|0,1:2|0:0,0:0:0:0:
205,368,53392,1,2,3:2:0:0:
258,278,53576,2,0,P|325:294|366:302,1,90,2|0,3:2|1:2,0:0:0:0:
460,195,53944,6,0,B|451:123|451:123|423:102|423:102|413:31,1,180,2|0,0:2|3:2,0:0:0:0:
288,196,54496,2,0,P|331:185|375:175,1,90,2|0,1:2|0:0,0:0:0:0:
453,333,54864,1,2,3:2:0:0:
358,271,55048,1,0,3:2:0:0:
204,376,55232,2,0,P|214:332|224:288,1,90,2|0,1:2|0:0,0:0:0:0:
138,105,55600,6,0,B|110:51|51:49|51:49|19:100|44:151,1,216,6|0,3:2|0:0,0:0:0:0:
126,199,55969,6,0,P|169:188|213:178,1,90,2|0,1:2|0:0,0:0:0:0:
315,57,56337,1,2,3:2:0:0:
220,0,56521,2,0,P|231:43|241:87,1,90,2|0,3:2|1:2,0:0:0:0:
312,266,56889,6,0,B|381:248|381:248|399:218|399:218|470:202,1,180,2|0,0:2|3:2,0:0:0:0:
393,367,57441,2,0,P|349:355|306:346,1,90,2|0,1:2|0:0,0:0:0:0:
231,165,57809,2,0,P|274:176|318:186,1,90,2|0,3:2|3:2,0:0:0:0:
196,328,58177,1,2,1:2:0:0:
312,266,58361,1,2,0:2:0:0:
156,132,58545,6,0,P|81:193|1:163,1,180,6|0,3:2|3:2,0:0:0:0:
70,103,59097,1,0,3:2:0:0:
148,221,59281,2,0,P|151:176|156:132,1,90,0|0,1:2|3:2,0:0:0:0:
77,13,59649,1,2,1:2:0:0:
163,42,59834,6,0,P|280:32|370:27,1,180,2|0,3:2|1:2,0:0:0:0:
433,150,60386,2,0,P|364:136|318:122,1,90,0|0,3:2|0:0,0:0:0:0:
221,276,60754,1,0,1:2:0:0:
150,206,60938,1,8,0:3:0:0:
246,179,61122,1,4,0:3:0:0:
399,363,61306,6,0,B|276:373|345:265|221:276,1,216,6|0,3:2|0:0,0:0:0:0:
125,303,61674,1,2,0:2:0:0:
246,179,61858,6,0,P|244:139|230:110,1,72,2|0,1:2|0:0,0:0:0:0:
90,143,62042,2,0,P|91:182|105:211,1,72,2|0,1:2|0:0,0:0:0:0:
205,328,62226,6,0,B|214:288|214:288|194:254,1,80.9999975280763,2|0,1:2|0:0,0:0:0:0:
3,108,62410,2,0,B|33:135|33:135|73:135,1,80.9999975280763,2|0,1:2|0:0,0:0:0:0:
296,44,62594,2,0,B|256:56|256:56|237:91,1,80.9999975280763,2|0,1:2|0:0,0:0:0:0:
168,160,62778,5,2,1:2:0:0:
168,160,63699,5,8,0:3:0:0:
165,133,63791,1,2,0:2:0:0:
172,102,63883,1,2,1:2:0:0:
194,73,63975,1,2,1:2:0:0:
230,56,64067,1,2,1:2:0:0:
274,61,64159,1,2,1:2:0:0:
321,116,64251,6,0,B|297:211|297:211|322:251|322:251|300:345,1,242.999992584229,6|0,3:2|0:0,0:0:0:0:
219,384,64619,5,2,3:2:0:0:
107,251,64803,2,0,P|39:267|-18:276,1,107.999996704102,2|0,1:2|0:0,0:0:0:0:
102,105,65171,1,2,3:2:0:0:
23,32,65355,6,0,P|18:70|12:101,1,53.9999983520508,8|0,0:2|0:0,0:0:0:0:
103,165,65539,2,0,P|108:127|114:96,1,53.9999983520508,8|0,1:2|0:0,0:0:0:0:
234,13,65723,6,0,B|356:-4|293:107|416:90,1,215.999993408203,2|2,3:2|3:2,0:0:0:0:
256,216,66275,2,0,P|251:162|245:108,1,107.999996704102,2|0,1:2|0:0,0:0:0:0:
350,272,66643,1,2,3:2:0:0:
436,176,66827,6,0,P|430:202|427:229,1,53.9999983520508,8|0,3:2|0:0,0:0:0:0:
330,334,67011,2,0,P|335:307|338:280,1,53.9999983520508,8|0,1:2|0:0,0:0:0:0:
245,108,67196,1,2,0:2:0:0:
245,108,67288,1,2,0:2:0:0:
245,108,67380,6,0,P|251:162|256:216,1,107.999996704102,2|2,3:2|0:2,0:0:0:0:
95,344,67748,2,0,P|130:273|206:311,1,161.999995056153,2|0,1:2|0:0,0:0:0:0:
109,366,68116,2,0,P|55:359|1:354,1,107.999996704102,2|0,3:2|3:2,0:0:0:0:
123,201,68484,2,0,P|119:182|115:122,1,53.9999983520508,2|0,1:2|0:0,0:0:0:0:
28,46,68668,6,0,B|1:83|1:83|55:66|147:63,1,161.999995056153,2|0,3:2|0:0,0:0:0:0:
238,7,69036,2,0,P|203:16|167:21,1,53.9999983520508,0|0,3:2|0:0,0:0:0:0:
308,128,69220,2,0,P|273:119|237:114,1,53.9999983520508,2|0,1:2|0:0,0:0:0:0:
442,9,69404,6,0,P|434:83|425:186,1,161.999995056153,2|0,3:2|0:0,0:0:0:0:
491,283,69772,2,0,P|479:258|463:237,1,53.9999983520508,2|0,3:2|0:0,0:0:0:0:
359,206,69956,2,0,P|304:214|231:222,1,107.999996704102,2|2,1:2|0:2,0:0:0:0:
23,347,70324,6,0,P|136:342|153:231,1,242.999992584229,6|0,3:2|0:0,0:0:0:0:
68,168,70692,6,0,P|73:222|77:276,1,107.999996704102,0|0,1:2|0:0,0:0:0:0:
200,383,71061,1,0,3:2:0:0:
282,145,71245,1,2,3:2:0:0:
163,254,71429,1,0,1:2:0:0:
324,374,71613,6,0,B|446:391|383:280|508:297,1,215.999993408203,2|0,3:2|3:2,0:0:0:0:
399,145,72165,1,0,1:2:0:0:
495,72,72349,2,0,P|489:145|484:213,1,107.999996704102,2|0,0:2|3:2,0:0:0:0:
401,319,72717,1,2,3:2:0:0:
323,176,72901,1,2,1:2:0:0:
403,226,73085,1,2,0:2:0:0:
403,226,73177,1,2,0:2:0:0:
403,226,73269,6,0,B|249:210|249:210|210:179|224:131,1,242.999992584229,6|0,3:2|0:0,0:0:0:0:
325,32,73637,6,0,P|319:105|314:173,1,107.999996704102,2|2,1:2|0:2,0:0:0:0:
214,303,74005,1,0,3:2:0:0:
323,176,74189,1,2,3:2:0:0:
391,372,74373,1,2,1:2:0:0:
219,211,74557,6,0,B|123:231|123:231|98:271|98:271|3:292,1,242.999992584229,6|0,3:2|0:0,0:0:0:0:
44,149,74926,2,0,P|42:175|39:202,1,53.9999983520508,2|0,1:2|0:0,0:0:0:0:
177,354,75110,2,0,P|179:327|182:301,1,53.9999983520508,0|0,1:2|0:0,0:0:0:0:
303,119,75294,6,0,B|454:145|454:145|504:127|493:65,1,242.999992584229,6|0,3:2|0:0,0:0:0:0:
410,3,75662,2,0,P|412:43|419:77,1,53.9999983520508,0|0,3:2|0:0,0:0:0:0:
488,216,75846,5,0,1:2:0:0:
484,242,75938,1,8,0:3:0:0:
481,269,76030,1,8,0:3:0:0:
478,296,76122,1,4,0:3:0:0:
418,337,76214,6,0,B|278:344|360:224|220:232,1,242.999992584229,6|0,3:2|0:0,0:0:0:0:
127,337,76582,6,0,P|209:323|256:322,1,107.999996704102,2|0,1:2|0:0,0:0:0:0:
91,185,76950,1,2,3:2:0:0:
21,297,77134,6,0,P|12:266|5:240,1,53.9999983520508,8|0,0:2|0:0,0:0:0:0:
99,174,77318,2,0,P|108:205|115:231,1,53.9999983520508,8|0,1:2|0:0,0:0:0:0:
2,41,77502,6,0,B|88:51|88:51|113:84|113:84|198:96,1,215.999993408203,2|2,3:2|3:2,0:0:0:0:
326,235,78054,2,0,P|270:220|209:213,1,107.999996704102,2|0,1:2|0:0,0:0:0:0:
96,369,78423,1,2,3:2:0:0:
35,245,78607,6,0,P|28:271|21:297,1,53.9999983520508,8|0,3:2|0:0,0:0:0:0:
107,382,78791,2,0,P|163:367|224:360,1,107.999996704102,10|2,1:2|0:2,0:0:0:0:
350,138,79159,6,0,L|342:200,1,53.9999983520508,6|0,3:2|0:0,0:0:0:0:
326,318,79343,1,0,1:2:0:0:
326,318,79435,1,0,1:2:0:0:
326,318,79527,1,2,1:2:0:0:
166,163,79711,6,0,B|147:115|154:47|179:4|179:4|134:19|117:65,1,242.999992584229,4|0,3:2|0:0,0:0:0:0:
64,131,80079,2,0,P|68:162|72:197,1,53.9999983520508,8|0,0:3|0:0,0:0:0:0:
206,288,80263,2,0,P|202:257|198:222,1,53.9999983520508,2|0,1:2|0:0,0:0:0:0:
295,34,80447,6,0,B|458:48|458:48|498:72|495:137,1,242.999992584229,4|0,3:2|0:0,0:0:0:0:
395,197,80815,2,0,P|403:166|410:124,1,53.9999983520508,4|0,0:3|0:0,0:0:0:0:
510,301,80999,2,0,P|502:270|495:228,1,53.9999983520508,2|0,1:2|0:0,0:0:0:0:
346,372,81183,6,0,B|249:356|249:356|222:318|222:318|126:301,1,242.999992584229,4|0,3:2|0:0,0:0:0:0:
31,358,81551,2,0,P|42:322|52:287,1,53.9999983520508,4|0,0:3|0:0,0:0:0:0:
151,214,81735,2,0,P|143:189|135:163,1,53.9999983520508,0|0,1:2|0:0,0:0:0:0:
9,21,81919,1,2,0:2:0:0:
9,21,82011,1,2,0:2:0:0:
9,21,82103,6,0,B|23:62|30:127|25:173|25:173|41:122|70:96,1,242.999992584229,6|0,3:2|0:0,0:0:0:0:
144,33,82472,6,0,P|230:54|263:61,1,107.999996704102,2|0,1:2|0:0,0:0:0:0:
364,221,82840,1,0,3:2:0:0:
246,139,83024,1,0,3:2:0:0:
181,368,83208,1,2,1:2:0:0:
280,243,83392,6,0,B|402:226|339:337|464:320,1,215.999993408203,2|2,3:2|3:2,0:0:0:0:
415,164,83944,2,0,P|431:93|443:52,1,107.999996704102,2|0,1:2|0:0,0:0:0:0:
263,11,84312,1,2,3:2:0:0:
331,119,84496,1,2,3:2:0:0:
159,189,84680,2,0,P|85:174|23:169,1,107.999996704102,2|0,1:2|0:0,0:0:0:0:
186,384,85048,6,0,B|235:358|286:353|334:375|334:375|329:329|271:316,1,242.999992584229,6|0,3:2|0:0,0:0:0:0:
178,277,85416,6,0,P|104:292|42:297,1,107.999996704102,2|0,1:2|3:2,0:0:0:0:
219,32,85784,2,0,P|186:63|176:82,1,53.9999983520508,2|0,1:2|0:0,0:0:0:0:
159,189,85969,2,0,P|147:144|135:127,1,53.9999983520508,2|0,3:2|0:0,0:0:0:0:
53,59,86153,2,0,P|96:71|118:69,1,53.9999983520508,0|0,1:2|0:0,0:0:0:0:
282,182,86337,6,0,B|359:110|555:59|551:190|514:263|412:232|436:148,1,405.000015449525,6|0,3:2|0:0,0:0:0:0:
372,2,87625,2,0,P|369:41|362:90,1,53.9999983520508,0|0,1:2|0:0,0:0:0:0:
301,267,87809,6,0,B|161:286|232:161|95:181,1,242.999992584229,6|0,3:2|0:0,0:0:0:0:
8,209,88177,1,2,0:2:0:0:
166,46,88361,6,0,P|181:79|199:107,1,62.9999980773926,2|0,1:2|0:0,0:0:0:0:
198,289,88545,2,0,P|204:258|207:226,1,62.9999980773926,2|0,1:2|0:0,0:0:0:0:
314,73,88729,2,0,P|287:98|265:124,1,62.9999980773926,2|0,1:2|0:0,0:0:0:0:
95,181,88913,2,0,P|131:176|164:167,1,62.9999980773926,2|0,1:2|0:0,0:0:0:0:
335,223,89097,2,0,P|302:205|271:192,1,62.9999980773926,2|0,1:2|0:0,0:0:0:0:
62,266,89281,6,0,P|39:363|134:331,1,242.999992584229,2|0,3:2|0:0,0:0:0:0:
208,227,89649,6,0,B|345:207|274:332|414:313,1,242.999992584229,2|0,3:2|0:0,0:0:0:0:
486,232,90018,6,0,P|480:168|475:107,1,107.999996704102,6|8,3:2|0:3,0:0:0:0:
327,2,90386,1,0,1:2:0:0:
267,7,90478,1,0,1:2:0:0:
230,47,90570,1,0,1:2:0:0:
199,84,90662,1,0,1:2:0:0:
157,96,90754,1,8,0:3:0:0:
120,86,90846,1,4,0:3:0:0:
158,17,90938,6,0,P|151:114|138:290,1,242.999992584229,6|0,3:2|0:0,0:0:0:0:
55,353,91306,6,0,P|50:299|45:245,1,107.999996704102,0|0,1:2|0:0,0:0:0:0:
120,86,91674,1,2,3:2:0:0:
216,198,91858,1,0,3:2:0:0:
20,123,92042,1,0,1:2:0:0:
158,17,92226,1,2,0:0:0:0:
158,17,92318,1,2,0:0:0:0:
158,17,92410,6,0,P|231:36|278:46,1,107.999996704102,2|0,3:2|3:2,0:0:0:0:
413,118,92778,2,0,P|360:129|308:143,1,107.999996704102,0|0,1:2|0:0,0:0:0:0:
257,343,93146,2,0,P|296:306|306:246,1,107.999996704102,2|0,3:2|3:2,0:0:0:0:
119,160,93515,1,0,1:2:0:0:
7,298,93699,1,2,0:0:0:0:
7,298,93791,1,2,0:0:0:0:
7,298,93883,6,0,P|114:280|220:264,1,215.999993408203,2|0,3:2|1:2,0:0:0:0:
364,360,94435,2,0,P|311:352|257:343,1,107.999996704102,2|0,0:2|3:2,0:0:0:0:
437,226,94803,2,0,P|430:252|425:278,1,53.9999983520508,2|0,3:2|0:0,0:0:0:0:
353,171,94987,2,0,P|359:144|364:118,1,53.9999983520508,2|0,1:2|0:0,0:0:0:0:
496,36,95171,6,0,B|360:0|415:134|280:97,1,242.999992584229,6|0,3:2|0:0,0:0:0:0:
207,48,95539,5,0,3:2:0:0:
47,205,95723,2,0,P|117:189|158:184,1,107.999996704102,2|0,1:2|0:0,0:0:0:0:
291,325,96091,1,2,3:2:0:0:
354,180,96275,1,0,3:2:0:0:
159,291,96459,1,2,1:2:0:0:
28,99,96643,1,2,0:2:0:0:
28,99,96735,1,2,0:2:0:0:
28,99,96827,6,0,B|51:62|86:47|86:47|61:96|48:147|47:205,1,242.999992584229,6|0,3:2|0:0,0:0:0:0:
64,293,97196,5,0,1:2:0:0:
183,159,97380,2,0,P|176:73|176:31,1,107.999996704102,2|0,0:2|3:2,0:0:0:0:
298,238,97748,2,0,P|296:291|290:345,1,107.999996704102,2|0,3:2|1:2,0:0:0:0:
478,141,98116,6,0,B|392:158|392:158|370:194|370:194|286:212,1,215.999993408203,2|2,3:2|3:2,0:0:0:0:
456,232,98668,1,2,1:2:0:0:
309,122,98852,1,2,0:0:0:0:
309,122,98944,1,2,0:0:0:0:
309,122,99036,2,0,P|316:67|322:8,1,107.999996704102,2|0,3:2|3:2,0:0:0:0:
478,141,99404,1,0,1:2:0:0:
395,321,99588,1,2,0:2:0:0:
395,321,99680,1,2,0:2:0:0:
395,321,99772,6,0,B|257:349|320:218|183:248,1,242.999992584229,6|0,3:2|0:0,0:0:0:0:
108,314,100140,2,0,P|112:347|114:379,1,53.9999983520508,0|0,1:2|0:0,0:0:0:0:
43,180,100324,6,0,B|-29:101|12:9|116:13|95:76,1,242.999992584229,2|0,3:2|0:0,0:0:0:0:
183,161,100692,2,0,P|131:153|108:152,1,53.9999983520508,2|0,3:2|0:0,0:0:0:0:
291,33,100876,2,0,P|239:41|216:42,1,53.9999983520508,2|0,1:2|0:0,0:0:0:0:
396,150,101061,6,0,B|371:245|371:245|396:285|396:285|374:379,1,242.999992584229,6|0,3:2|0:0,0:0:0:0:
293,295,101429,6,0,P|242:305|221:319,1,53.9999983520508,2|0,3:2|0:0,0:0:0:0:
92,384,101613,2,0,P|108:335|107:309,1,53.9999983520508,2|0,1:2|0:0,0:0:0:0:
116,165,101797,2,0,P|149:203|172:215,1,53.9999983520508,2|0,1:2|1:2,0:0:0:0:
167,281,101981,1,2,3:2:0:0:
167,281,102073,1,0,1:2:0:0:
167,281,102165,1,8,0:3:0:0:
276,133,102349,1,2,1:2:0:0:
272,106,102441,1,8,0:3:0:0:
269,79,102533,1,4,0:3:0:0:
266,52,102625,1,4,0:3:0:0:
203,16,102717,6,0,B|100:-1|150:93|47:75,1,180,6|2,3:2|1:2,0:0:0:0:
131,206,103269,2,0,P|197:188|248:182,1,90,2|0,0:2|3:2,0:0:0:0:
62,277,103637,2,0,P|30:247|0:213,1,90,2|0,3:2|1:2,0:0:0:0:
160,301,104005,1,2,0:2:0:0:
160,301,104097,1,2,0:2:0:0:
160,301,104189,6,0,P|246:286|356:278,1,180,2|2,3:2|1:2,0:0:0:0:
419,317,104742,1,2,0:2:0:0:
306,168,104926,2,0,P|321:237|325:275,1,90,2|2,3:2|3:2,0:0:0:0:
432,153,105294,2,0,P|438:108|449:64,1,90,2|2,1:2|0:2,0:0:0:0:
282,11,105662,6,0,P|231:57|110:69,1,180,2|2,3:2|1:2,0:0:0:0:
214,236,106214,2,0,P|220:191|231:147,1,90,2|0,0:2|3:2,0:0:0:0:
124,337,106582,1,2,3:2:0:0:
44,176,106766,1,0,1:2:0:0:
209,252,106950,6,0,B|280:242|280:242|301:214|301:214|373:205,1,180,2|2,0:2|0:2,0:0:0:0:
453,337,107502,1,2,1:2:0:0:
340,379,107686,1,2,0:2:0:0:
340,379,107778,1,2,0:2:0:0:
340,379,107870,2,0,P|350:335|357:290,1,90,2|0,3:2|3:2,0:0:0:0:
225,167,108238,1,2,1:2:0:0:
127,280,108423,1,2,0:2:0:0:
127,280,108515,1,2,0:2:0:0:
127,280,108607,6,0,P|57:278|27:211,1,135,2|0,3:2|0:0,0:0:0:0:
138,168,108975,2,0,P|130:212|122:256,1,90,2|0,1:2|0:0,0:0:0:0:
30,84,109343,1,2,3:2:0:0:
137,148,109527,1,0,3:2:0:0:
277,23,109711,2,0,P|276:80|214:59,1,135,2|0,1:2|0:0,0:0:0:0:
290,8,110079,6,0,B|361:18|361:18|382:46|382:46|454:55,1,180,2|2,3:2|1:2,0:0:0:0:
512,217,110631,2,0,P|470:152|361:157,1,180,2|0,0:2|3:2,0:0:0:0:
402,320,111183,2,0,P|409:275|419:232,1,90,2|2,1:2|0:2,0:0:0:0:
237,341,111551,6,0,B|134:355|187:262|84:276,2,180,2|0|0,3:2|1:2|3:2,0:0:0:0:
176,216,112472,1,2,3:2:0:0:
75,364,112656,1,2,1:2:0:0:
14,192,112840,6,0,P|25:97|40:-9,1,180,4|2,3:2|0:0,0:0:0:0:
117,98,113392,1,2,3:2:0:0:
117,98,113576,2,0,P|161:88|206:84,1,90,2|0,0:0|3:2,0:0:0:0:
298,7,113944,2,0,L|291:51,1,45,2|0,1:2|1:2,0:0:0:0:
276,142,114128,1,2,1:2:0:0:
276,142,114220,1,0,1:2:0:0:
276,142,114312,1,8,0:3:0:0:
418,312,114496,6,0,P|361:247|274:249,1,180,6|2,3:2|1:2,0:0:0:0:
231,356,115048,2,0,P|275:346|320:342,1,90,2|0,0:2|3:2,0:0:0:0:
191,240,115416,2,0,P|146:235|102:225,1,90,2|0,3:2|1:2,0:0:0:0:
248,121,115784,6,0,B|319:131|319:131|340:159|340:159|412:168,1,180,2|2,3:2|3:2,0:0:0:0:
414,1,116337,2,0,P|397:68|384:118,1,90,0|2,1:2|0:2,0:0:0:0:
432,247,116705,1,2,3:2:0:0:
313,175,116889,1,2,3:2:0:0:
241,369,117073,1,2,1:2:0:0:
191,240,117257,1,2,0:2:0:0:
191,240,117349,1,2,0:0:0:0:
191,240,117441,6,0,P|200:163|211:44,1,180,2|2,3:2|1:2,0:0:0:0:
74,1,117993,2,0,P|81:63|89:114,1,90,2|0,0:2|3:2,0:0:0:0:
177,246,118361,1,2,3:2:0:0:
31,182,118545,1,0,1:2:0:0:
101,367,118729,6,0,P|105:308|40:328,1,135,2|0,3:2|0:0,0:0:0:0:
116,381,119097,2,0,P|177:373|213:371,1,90,2|0,3:2|1:2,0:0:0:0:
312,294,119465,1,2,0:2:0:0:
312,294,119557,1,2,0:0:0:0:
312,294,119649,1,2,3:2:0:0:
191,240,119834,1,0,3:2:0:0:
295,82,120018,2,0,P|285:159|283:196,1,90,0|0,1:2|0:0,0:0:0:0:
333,377,120386,6,0,B|386:369|386:369|401:348|401:348|455:341,1,135,2|0,3:2|0:0,0:0:0:0:
491,239,120754,2,0,P|481:293|474:343,1,90,2|0,1:2|0:0,0:0:0:0:
378,157,121122,1,2,3:2:0:0:
294,281,121306,2,0,P|348:271|398:264,1,90,2|0,3:2|1:2,0:0:0:0:
258,178,121674,6,0,P|196:170|58:149,1,180,2|0,0:2|0:0,0:0:0:0:
211,1,122226,2,0,P|199:65|189:124,1,90,2|0,1:2|0:0,0:0:0:0:
136,282,122594,1,2,3:2:0:0:
262,198,122778,1,2,3:2:0:0:
335,384,122962,2,0,P|281:374|231:367,1,90,0|0,1:2|0:0,0:0:0:0:
57,281,123330,6,0,P|85:221|157:206,1,135,2|0,3:2|0:0,0:0:0:0:
224,297,123699,2,0,P|180:288|136:282,1,90,2|0,1:2|0:0,0:0:0:0:
5,150,124067,1,2,3:2:0:0:
107,45,124251,2,0,P|98:89|91:133,1,90,2|0,3:2|1:2,0:0:0:0:
237,285,124619,6,0,B|338:304|290:209|392:229,1,180,2|0,0:2|0:0,0:0:0:0:
476,291,125171,1,2,1:2:0:0:
431,148,125355,2,0,P|438:100|453:45,1,90,6|0,3:2|0:0,0:0:0:0:
309,4,125723,1,2,3:2:0:0:
153,126,125907,1,0,1:2:0:0:
119,124,125999,1,0,1:2:0:0:
90,108,126091,1,8,0:3:0:0:
68,83,126183,1,4,0:3:0:0:
59,51,126275,6,0,B|76:135|76:135|51:170|51:170|67:255,1,216,6|0,3:2|0:0,0:0:0:0:
103,333,126643,5,2,1:2:0:0:
145,220,126827,1,2,1:2:0:0:
275,372,127011,5,2,1:2:0:0:
180,297,127196,1,2,1:2:0:0:
364,220,127380,5,2,1:2:0:0:
264,287,127564,1,2,1:2:0:0:
247,88,127748,5,2,1:2:0:0:
280,204,127932,1,2,1:2:0:0:
85,158,128116,5,6,1:2:0:0:
206,163,128300,1,2,1:2:0:0:
206,163,128392,1,0,1:2:0:0:
206,163,128484,5,0,1:2:0:0:
103,333,128668,1,8,0:3:0:0:
216,374,128852,1,4,0:3:0:0:
180,297,129036,1,4,0:3:0:0:
310,202,129220,6,0,B|381:215|381:215|401:245|401:245|472:257,1,180,6|0,3:2|0:0,0:0:0:0:
453,168,129772,1,0,3:2:0:0:
329,291,129956,2,0,P|338:359|341:387,1,90,2|0,1:2|3:2,0:0:0:0:
453,168,130324,2,0,P|444:100|441:72,1,90,0|2,1:2|3:2,0:0:0:0:
235,206,130692,5,2,0:0:0:0:
307,125,130876,1,2,1:2:0:0:
188,14,131061,2,0,P|193:58|199:103,1,90,2|2,3:2|0:2,0:0:0:0:
389,159,131429,1,2,1:2:0:0:
389,159,131613,2,0,P|348:141|307:125,1,90,2|2,3:2|0:2,0:0:0:0:
163,260,131981,1,2,1:2:0:0:
84,218,132165,6,0,P|156:170|234:205,1,180,2|0,3:2|3:2,0:0:0:0:
163,260,132717,1,0,3:2:0:0:
71,129,132901,2,0,P|78:173|84:218,1,90,2|0,1:2|3:2,0:0:0:0:
175,349,133269,2,0,P|168:304|163:260,1,90,2|0,1:2|3:2,0:0:0:0:
316,130,133637,5,2,0:2:0:0:
222,8,133821,1,0,1:2:0:0:
164,151,134005,1,0,3:2:0:0:
235,97,134189,1,2,0:2:0:0:
235,97,134281,1,2,0:2:0:0:
235,97,134373,1,8,0:3:0:0:
329,219,134557,1,0,1:2:0:0:
329,219,134649,1,0,1:2:0:0:
329,219,134742,2,0,P|323:292|323:333,1,90,0|8,1:2|0:3,0:0:0:0:
480,158,135110,6,0,P|492:59|396:29,1,216,6|0,3:2|0:0,0:0:0:0:
337,116,135478,6,0,P|381:108|426:102,1,90,2|0,1:2|0:0,0:0:0:0:
243,6,135846,1,2,3:2:0:0:
158,109,136030,2,0,P|170:167|180:229,1,90,2|0,3:2|1:2,0:0:0:0:
260,350,136398,6,0,B|159:372|204:275|103:299,1,180,2|0,0:2|3:2,0:0:0:0:
3,153,136950,2,0,P|15:211|25:273,1,90,2|0,1:2|0:0,0:0:0:0:
141,98,137318,1,2,3:2:0:0:
19,44,137502,1,0,3:2:0:0:
150,202,137686,2,0,P|194:193|239:185,1,90,2|0,1:2|0:0,0:0:0:0:
419,16,138054,6,0,P|316:47|333:164,1,216,6|0,3:2|0:0,0:0:0:0:
399,186,138423,6,0,P|392:141|387:97,1,90,2|0,1:2|0:0,0:0:0:0:
270,296,138791,1,2,3:2:0:0:
159,230,138975,2,0,P|114:239|70:247,1,90,2|0,3:2|1:2,0:0:0:0:
214,364,139343,6,0,B|285:351|285:351|305:321|305:321|376:309,1,180,2|0,0:2|3:2,0:0:0:0:
238,185,139895,2,0,P|235:250|230:301,1,90,2|0,1:2|0:0,0:0:0:0:
316,123,140263,2,0,P|312:78|310:33,1,90,2|0,3:2|3:2,0:0:0:0:
136,152,140631,1,2,1:2:0:0:
168,20,140815,1,2,0:2:0:0:
315,146,140999,6,0,B|415:166|369:70|470:92,1,180,6|0,3:2|3:2,0:0:0:0:
511,174,141551,1,0,3:2:0:0:
398,278,141735,2,0,P|341:270|304:268,1,90,0|0,1:2|3:2,0:0:0:0:
163,373,142103,1,2,1:2:0:0:
71,293,142288,6,0,B|84:222|84:222|114:202|114:202|126:131,1,180,2|0,3:2|1:2,0:0:0:0:
22,56,142840,2,0,P|30:119|36:160,1,90,0|0,3:2|0:0,0:0:0:0:
226,69,143208,1,0,1:2:0:0:
159,4,143392,1,8,0:3:0:0:
137,94,143576,1,4,0:3:0:0:
262,198,143760,6,0,B|401:176|401:176|437:155|427:100,1,216,6|0,3:2|0:0,0:0:0:0:
361,44,144128,1,2,0:2:0:0:
246,210,144312,6,0,P|257:259|265:310,1,72,2|0,1:2|0:0,0:0:0:0:
385,360,144496,2,0,P|374:311|366:260,1,72,2|0,1:2|0:0,0:0:0:0:
194,383,144680,6,0,B|227:361|227:361|268:365,1,80.9999975280763,2|0,1:2|0:0,0:0:0:0:
437,187,144864,2,0,B|403:208|403:208|362:204,1,80.9999975280763,2|0,1:2|0:0,0:0:0:0:
176,106,145048,2,0,B|209:84|209:84|250:88,1,80.9999975280763,2|0,1:2|0:0,0:0:0:0:
69,337,145232,6,0,B|95:224|95:224|65:177|65:177|94:65,1,288,6|0,1:2|3:2,0:0:0:0:
25,27,145692,1,0,3:2:0:0:
25,27,145784,2,0,P|43:124|143:125,1,216,6|0,1:2|0:0,0:0:0:0:
166,8,146153,6,0,P|168:30|171:53,1,45,8|0,0:3|0:0,0:0:0:0:
276,158,146337,1,2,1:2:0:0:
311,152,146429,1,2,1:2:0:0:
338,129,146521,1,2,1:2:0:0:
350,95,146613,1,2,1:2:0:0:
343,61,146705,6,0,P|356:158|375:331,1,242.999992584229,6|0,3:2|0:0,0:0:0:0:
302,360,147073,6,0,P|291:342|281:308,1,53.9999983520508,2|0,3:2|0:0,0:0:0:0:
442,244,147257,2,0,P|453:262|463:296,1,53.9999983520508,2|0,1:2|0:0,0:0:0:0:
294,175,147441,2,0,P|307:98|315:43,1,107.999996704102,2|0,0:2|3:2,0:0:0:0:
170,4,147809,2,0,P|178:43|183:72,1,53.9999983520508,2|0,3:2|0:0,0:0:0:0:
91,154,147993,2,0,P|83:115|78:86,1,53.9999983520508,2|0,1:2|0:0,0:0:0:0:
210,190,148177,6,0,B|195:275|195:275|160:299|160:299|144:383,1,215.999993408203,2|0,3:2|3:2,0:0:0:0:
15,301,148729,2,0,L|75:292,1,53.9999983520508,2|0,1:2|0:0,0:0:0:0:
195,276,148913,2,0,L|74:292,1,107.999996704102,2|0,0:2|3:2,0:0:0:0:
304,170,149281,2,0,L|183:153,1,107.999996704102,2|0,3:2|1:2,0:0:0:0:
360,321,149649,1,2,0:2:0:0:
360,321,149742,1,2,0:0:0:0:
360,321,149834,5,2,3:2:0:0:
287,367,150018,2,0,P|276:341|275:305,1,53.9999983520508,2|0,0:2|0:0,0:0:0:0:
433,275,150202,2,0,P|444:301|445:337,1,53.9999983520508,2|0,1:2|0:0,0:0:0:0:
321,187,150386,2,0,P|326:138|333:28,1,107.999996704102,2|0,0:2|3:2,0:0:0:0:
499,182,150754,6,0,P|459:172|433:168,1,53.9999983520508,2|0,3:2|0:0,0:0:0:0:
387,43,150938,2,0,P|347:53|321:57,1,53.9999983520508,2|0,1:2|0:0,0:0:0:0:
196,179,151122,2,0,P|250:174|304:170,1,107.999996704102,2|0,3:2|0:0,0:0:0:0:
467,369,151490,6,0,P|444:354|422:338,1,53.9999983520508,2|0,3:2|0:0,0:0:0:0:
383,224,151674,2,0,P|382:250|378:277,1,53.9999983520508,2|0,1:2|0:0,0:0:0:0:
300,370,151858,2,0,P|246:352|187:345,1,107.999996704102,2|0,3:2|0:0,0:0:0:0:
54,202,152226,2,0,L|63:262,1,53.9999983520508,2|0,3:2|0:0,0:0:0:0:
79,382,152410,2,0,L|63:261,1,107.999996704102,2|0,1:2|0:0,0:0:0:0:
0,55,152778,6,0,B|138:32|69:160|207:138,1,242.999992584229,4|2,3:2|0:2,0:0:0:0:
307,95,153146,5,2,1:2:0:0:
303,121,153238,1,2,0:2:0:0:
300,148,153330,1,2,0:2:0:0:
298,175,153423,1,2,0:2:0:0:
296,202,153515,2,0,P|301:263|305:323,1,107.999996704102,2|2,3:2|3:2,0:0:0:0:
466,381,153883,2,0,P|469:327|474:273,1,107.999996704102,2|2,1:2|3:2,0:0:0:0:
511,48,154251,5,2,0:2:0:0:
468,37,154343,1,2,0:2:0:0:
426,53,154435,1,2,3:2:0:0:
402,90,154527,1,2,0:2:0:0:
343,137,154619,5,2,1:2:0:0:
300,148,154711,1,2,0:2:0:0:
258,132,154803,1,2,0:2:0:0:
234,95,154895,1,2,0:2:0:0:
175,48,154987,6,0,P|131:57|100:60,1,53.9999983520508,2|0,3:2|0:0,0:0:0:0:
29,205,155171,1,2,3:2:0:0:
22,190,155263,1,2,0:2:0:0:
16,175,155355,5,2,1:2:0:0:
67,174,155447,1,2,0:2:0:0:
104,210,155539,1,2,0:2:0:0:
104,261,155631,1,2,0:2:0:0:
46,305,155723,6,0,P|22:302|-4:299,1,40.4999987640381,6|2,3:2|0:2,0:0:0:0:
144,205,155907,2,0,P|124:207|103:210,1,40.4999987640381,2|2,0:2|0:2,0:0:0:0:
232,341,156091,2,0,P|208:338|182:335,1,40.4999987640381,2|2,1:2|0:2,0:0:0:0:
330,169,156275,2,0,P|306:172|280:175,1,40.4999987640381,2|2,0:2|0:2,0:0:0:0:
418,376,156459,6,0,B|407:346|407:346|371:331,1,67.5000025749208,2|2,3:2|0:2,0:0:0:0:
219,226,156643,2,0,B|251:232|251:232|282:208,1,67.5000025749208,2|2,3:2|0:2,0:0:0:0:
448,128,156827,2,0,B|426:152|426:152|432:191,1,67.5000025749208,2|2,1:2|0:2,0:0:0:0:
228,62,157011,6,0,B|132:82|132:82|107:122|107:122|12:143,1,242.999992584229,6|0,3:2|0:0,0:0:0:0:
29,8,157380,2,0,P|37:33|43:60,1,53.9999983520508,2|0,1:2|0:0,0:0:0:0:
211,197,157564,2,0,P|202:171|196:144,1,53.9999983520508,2|0,1:2|0:0,0:0:0:0:
347,1,157748,6,0,P|413:20|478:36,1,107.999996704102,6|0,3:2|1:2,0:0:0:0:
510,227,158116,1,2,1:2:0:0:
507,280,158208,1,0,1:2:0:0:
480,320,158300,1,2,1:2:0:0:
442,341,158392,1,8,0:3:0:0:
404,343,158484,1,4,0:3:0:0:
373,333,158576,1,4,0:3:0:0:
328,278,158668,6,0,P|336:211|343:155,1,107.999996704102,6|2,3:2|0:2,0:0:0:0:
195,29,159036,2,0,P|201:82|207:136,1,107.999996704102,2|2,1:2|0:2,0:0:0:0:
44,296,159404,2,0,P|78:264|103:246,1,53.9999983520508,2|0,3:2|0:0,0:0:0:0:
211,228,159588,2,0,P|166:213|138:200,1,53.9999983520508,2|0,3:2|0:0,0:0:0:0:
70,117,159772,2,0,P|79:162|82:193,1,53.9999983520508,2|0,1:2|0:0,0:0:0:0:
168,357,159956,5,2,3:2:0:0:
168,357,160048,1,2,0:2:0:0:
168,357,160140,2,0,P|232:346|296:337,1,107.999996704102,2|2,0:2|3:2,0:0:0:0:
432,240,160508,2,0,P|423:290|419:332,1,53.9999983520508,2|0,1:2|0:0,0:0:0:0:
300,162,160692,2,0,P|305:189|310:216,1,53.9999983520508,2|0,0:2|0:0,0:0:0:0:
478,78,160876,6,0,P|452:87|427:96,1,53.9999983520508,2|0,3:2|0:0,0:0:0:0:
310,216,161061,2,0,P|314:189|319:162,1,53.9999983520508,2|0,3:2|0:0,0:0:0:0:
275,1,161245,2,0,P|296:17|316:35,1,53.9999983520508,2|0,1:2|0:0,0:0:0:0:
354,98,161429,1,2,0:2:0:0:
150,2,161613,6,0,L|160:54,1,53.9999983520508,4|0,3:2|0:0,0:0:0:0:
180,161,161797,1,2,1:2:0:0:
180,161,161889,1,0,1:2:0:0:
180,161,161981,1,2,1:2:0:0:
5,337,162165,6,0,B|143:360|74:232|212:254,1,242.999992584229,4|0,3:2|0:0,0:0:0:0:
189,382,162533,2,0,P|186:355|180:328,1,53.9999983520508,8|0,0:3|0:0,0:0:0:0:
29,209,162717,2,0,P|32:236|38:263,1,53.9999983520508,2|0,1:2|0:0,0:0:0:0:
277,86,162901,6,0,B|252:22|186:13|186:13|145:66|166:126,1,242.999992584229,6|0,3:2|0:0,0:0:0:0:
248,176,163269,2,0,P|296:167|308:165,1,53.9999983520508,2|0,3:2|0:0,0:0:0:0:
485,37,163453,6,0,B|460:3|423:2|423:2|453:34|480:86|478:163,1,242.999992584229,4|0,1:2|0:0,0:0:0:0:
436,228,163821,2,0,P|435:254|440:280,1,53.9999983520508,8|0,0:3|0:0,0:0:0:0:
275,376,164005,1,2,1:2:0:0:
215,371,164097,1,0,1:2:0:0:
178,331,164189,1,0,1:2:0:0:
147,294,164281,1,0,1:2:0:0:
105,282,164373,1,8,0:3:0:0:
68,292,164465,1,4,0:3:0:0:
106,361,164557,6,0,B|128:265|128:265|103:225|103:225|128:130,1,242.999992584229,6|0,3:2|0:0,0:0:0:0:
89,11,164926,6,0,P|103:83|113:137,1,107.999996704102,0|0,1:2|0:0,0:0:0:0:
242,209,165294,2,0,L|252:146,1,53.9999983520508,2|0,3:2|0:0,0:0:0:0:
271,22,165478,2,0,L|250:146,1,107.999996704102,2|0,3:2|1:2,0:0:0:0:
356,323,165846,6,0,P|290:296|243:297,1,107.999996704102,2|0,3:2|0:0,0:0:0:0:
427,171,166214,2,0,L|435:233,1,53.9999983520508,2|0,3:2|0:0,0:0:0:0:
449,358,166398,2,0,L|432:232,1,107.999996704102,2|0,1:2|0:0,0:0:0:0:
340,97,166766,1,2,3:2:0:0:
242,209,166950,1,0,3:2:0:0:
128,49,167134,2,0,B|154:10|154:10|139:152,1,161.999995056153,2|0,1:2|0:0,0:0:0:0:
65,178,167502,6,0,P|176:167|205:279,1,242.999992584229,4|0,3:2|0:0,0:0:0:0:
137,348,167870,6,0,P|132:294|126:240,1,107.999996704102,0|0,1:2|0:0,0:0:0:0:
271,22,168238,2,0,L|260:84,1,53.9999983520508,2|0,3:2|0:0,0:0:0:0:
242,209,168423,2,0,L|262:84,1,107.999996704102,2|0,1:2|0:0,0:0:0:0:
511,198,168791,6,0,B|371:175|440:303|302:280,1,242.999992584229,6|0,3:2|0:0,0:0:0:0:
199,349,169159,2,0,P|205:323|211:297,1,53.9999983520508,2|0,3:2|0:0,0:0:0:0:
224,102,169343,2,0,L|242:209,1,107.999996704102,0|2,1:2|0:2,0:0:0:0:
107,382,169711,6,0,P|100:355|95:329,1,53.9999983520508,0|0,3:2|0:0,0:0:0:0:
23,177,169895,1,2,1:2:0:0:
4,126,169987,1,0,1:2:0:0:
14,78,170079,1,2,1:2:0:0:
41,45,170171,1,0,1:2:0:0:
74,28,170263,1,8,0:3:0:0:
106,25,170355,1,4,0:3:0:0:
157,76,170447,6,0,P|142:178|123:345,1,242.999992584229,6|0,3:2|0:0,0:0:0:0:
199,382,170815,6,0,P|262:371|324:364,1,107.999996704102,2|2,1:2|0:2,0:0:0:0:
459,148,171183,2,0,L|446:201,1,53.9999983520508,0|0,1:2|0:0,0:0:0:0:
422,308,171367,1,2,3:2:0:0:
294,75,171551,6,0,L|310:127,1,53.9999983520508,0|0,1:2|0:0,0:0:0:0:
341,232,171735,1,2,3:2:0:0:
113,94,171919,6,0,P|47:108|-23:117,1,107.999996704102,0|2,1:2|0:2,0:0:0:0:
212,185,172288,2,0,L|205:131,1,53.9999983520508,0|0,1:2|0:0,0:0:0:0:
192,33,172472,1,2,3:2:0:0:
80,268,172656,6,0,L|89:190,1,53.9999983520508,0|0,1:2|0:0,0:0:0:0:
100,116,172840,1,2,3:2:0:0:
232,337,173024,6,0,L|222:259,1,53.9999983520508,0|0,1:2|0:0,0:0:0:0:
212,185,173208,1,2,3:2:0:0:
405,302,173392,6,0,P|458:294|512:289,1,107.999996704102,2|0,1:2|0:0,0:0:0:0:
312,118,173760,2,0,P|258:125|204:130,1,107.999996704102,2|2,1:2|0:2,0:0:0:0:
404,41,174128,6,0,L|413:115,1,53.9999983520508,2|0,1:2|0:0,0:0:0:0:
423,186,174312,1,2,3:2:0:0:
313,379,174496,6,0,L|303:304,1,53.9999983520508,2|0,1:2|0:0,0:0:0:0:
294,234,174680,1,2,3:2:0:0:
70,335,174864,6,0,P|124:328|178:323,1,107.999996704102,0|2,1:2|0:2,0:0:0:0:
28,91,175232,2,0,L|51:166,1,53.9999983520508,0|0,1:2|0:0,0:0:0:0:
73,237,175416,1,2,3:2:0:0:
197,27,175600,6,0,L|176:103,1,53.9999983520508,0|0,1:2|0:0,0:0:0:0:
157,174,175784,1,2,3:2:0:0:
373,61,175969,5,0,1:2:0:0:
373,61,176061,1,0,1:2:0:0:
373,61,176153,1,8,0:3:0:0:
501,332,176337,6,0,B|378:350|440:238|316:257,1,216,6|0,3:2|0:0,0:0:0:0:
244,352,176705,6,0,P|315:338|369:335,1,90,2|0,1:2|0:0,0:0:0:0:
193,190,177073,1,2,3:2:0:0:
120,291,177257,2,0,P|130:353|135:393,1,90,2|0,3:2|1:2,0:0:0:0:
21,194,177625,6,0,B|30:122|30:122|58:101|58:101|68:30,1,180,2|0,0:2|3:2,0:0:0:0:
193,190,178177,2,0,P|150:175|104:166,1,90,2|0,1:2|0:0,0:0:0:0:
279,59,178545,1,2,3:2:0:0:
163,13,178729,1,0,3:2:0:0:
284,159,178913,2,0,P|326:144|373:135,1,90,2|0,1:2|0:0,0:0:0:0:
509,310,179281,6,0,B|456:352|456:352|485:308|496:259|478:196,1,216,6|0,3:2|0:0,0:0:0:0:
488,109,179649,6,0,P|472:176|462:214,1,90,2|0,1:2|0:0,0:0:0:0:
336,351,180018,1,2,3:2:0:0:
246,239,180202,2,0,P|298:256|357:269,1,90,2|0,3:2|1:2,0:0:0:0:
488,109,180570,6,0,B|415:117|415:117|394:145|394:145|324:156,1,180,2|0,0:2|3:2,0:0:0:0:
188,33,181122,2,0,P|204:102|208:152,1,90,2|0,1:2|0:0,0:0:0:0:
97,279,181490,2,0,P|85:236|79:192,1,90,2|0,3:2|3:2,0:0:0:0:
253,280,181858,1,2,1:2:0:0:
155,365,182042,1,2,0:2:0:0:
79,192,182226,6,0,P|88:102|96:12,1,180,6|0,3:2|3:2,0:0:0:0:
15,52,182778,1,0,3:2:0:0:
163,150,182962,2,0,P|213:141|258:135,1,90,0|0,1:2|3:2,0:0:0:0:
358,49,183330,1,2,1:2:0:0:
481,227,183515,6,0,P|426:161|340:173,1,180,6|0,3:2|1:2,0:0:0:0:
386,335,184067,2,0,P|389:290|394:246,1,90,0|0,3:2|0:0,0:0:0:0:
461,43,184435,1,0,1:2:0:0:
367,79,184619,1,8,0:3:0:0:
444,141,184803,1,4,0:3:0:0:
263,261,184987,6,0,B|140:277|203:165|80:183,1,216,6|0,3:2|0:0,0:0:0:0:
2,138,185355,1,2,0:2:0:0:
144,14,185539,6,0,P|137:50|133:86,1,72,2|0,1:2|0:0,0:0:0:0:
241,184,185723,2,0,P|249:138|255:72,1,72,2|0,1:2|0:0,0:0:0:0:
35,298,185907,6,0,B|75:291|75:291|102:261,1,80.9999975280763,2|0,1:2|0:0,0:0:0:0:
334,238,186091,2,0,B|308:207|308:207|267:199,1,80.9999975280763,2|0,1:2|0:0,0:0:0:0:
133,9,186275,2,0,B|119:47|119:47|133:86,1,80.9999975280763,2|0,1:2|0:0,0:0:0:0:
218,325,186459,6,0,B|381:349|299:199|463:225,1,288,6|0,3:2|3:2,0:0:0:0:
427,304,186919,1,0,3:2:0:0:
427,304,187011,6,0,P|393:276|377:234,1,90,0|0,1:2|3:2,0:0:0:0:
448,76,187380,2,0,P|440:120|413:155,1,90,0|0,1:2|3:2,0:0:0:0:
239,171,187748,1,0,1:2:0:0:
266,158,187840,1,8,0:3:0:0:
295,155,187932,1,4,0:3:0:0:
325,162,188024,1,4,0:3:0:0:
325,162,189588,6,0,P|331:127|341:87,1,67.5000025749208,6|2,3:2|0:2,0:0:0:0:
289,31,189956,2,0,P|216:49|131:63,1,135.000005149842,2|2,3:2|3:2,0:0:0:0:
9,131,190508,6,0,P|3:104|0:90,1,33.7500012874604,8|0,0:2|0:0,0:0:0:0:
53,17,190692,2,0,P|59:44|62:58,1,33.7500012874604,8|0,3:2|0:0,0:0:0:0:
118,177,190876,6,0,P|113:226|111:258,1,67.5000025749208,2|0,0:2|3:2,0:0:0:0:
106,325,191245,1,2,0:2:0:0:
219,244,191429,2,0,P|293:265|364:279,1,135.000005149842,2|2,3:2|3:2,0:0:0:0:
427,381,191981,6,0,P|432:354|436:326,1,33.7500012874604,8|0,0:2|0:0,0:0:0:0:
506,289,192165,2,0,P|501:316|497:344,1,33.7500012874604,8|0,3:2|0:0,0:0:0:0:
424,215,192349,1,2,0:2:0:0:
424,215,192441,1,2,0:0:0:0:
424,215,192533,6,0,P|415:169|407:139,1,67.5000025749208,0|2,3:2|0:2,0:0:0:0:
336,43,192901,2,0,P|384:58|472:80,2,135.000005149842,2|2|2,3:2|3:2|3:2,0:0:0:0:
237,140,193821,1,2,0:2:0:0:
237,140,194005,6,0,P|287:133|335:128,1,67.5000025749208,0|0,3:2|0:0,0:0:0:0:
209,49,194373,1,2,3:2:0:0:
154,187,194557,2,0,P|163:253|172:320,1,135.000005149842,2|2,0:2|0:2,0:0:0:0:
57,369,195110,1,2,3:2:0:0:
33,288,195294,1,2,0:2:0:0:
33,288,195386,1,2,0:0:0:0:
33,288,195478,6,0,P|42:221|51:154,2,135.000005149842,6|0|0,3:2|3:2|3:2,0:0:0:0:
163,254,196398,2,0,P|212:263|250:269,1,67.5000025749208,2|0,0:2|3:2,0:0:0:0:
333,171,196766,6,0,P|300:208|276:238,1,67.5000025749208,2|0,0:2|3:2,0:0:0:0:
320,359,197134,2,0,P|303:312|289:276,1,67.5000025749208,0|0,0:0|3:2,0:0:0:0:
205,178,197502,1,2,0:2:0:0:
205,178,197594,1,2,0:0:0:0:
205,178,197686,2,0,P|221:131|235:95,1,67.5000025749208,2|2,3:2|0:2,0:0:0:0:
301,29,198054,1,2,3:2:0:0:
218,95,198238,1,2,0:2:0:0:
344,150,198423,6,0,P|402:144|495:140,1,135.000005149842,2|0,3:2|3:2,0:0:0:0:
429,292,198975,2,0,P|423:258|415:223,1,67.5000025749208,2|0,0:2|3:2,0:0:0:0:
323,144,199343,1,2,0:2:0:0:
213,202,199527,1,2,3:2:0:0:
320,359,199711,2,0,P|326:335|327:316,1,33.7500012874604,2|0,1:2|0:0,0:0:0:0:
326,326,200447,5,0,1:2:0:0:
310,323,200539,1,0,1:2:0:0:
293,320,200631,1,0,1:2:0:0:
276,318,200723,1,0,1:2:0:0:
260,315,200815,2,0,L|221:308,2,33.7500012874604,0|8|4,3:2|0:3|0:3,0:0:0:0:
88,375,201183,6,0,B|112:270|112:270|84:225|84:225|111:120,1,270,6|0,3:2|0:0,0:0:0:0:
147,27,201551,5,2,0:2:0:0:
329,139,201735,2,0,P|264:110|197:105,1,125.999996154785,2|0,1:2|0:0,0:0:0:0:
390,17,202103,1,2,3:2:0:0:
468,151,202288,6,0,P|476:114|484:87,1,62.9999980773926,8|0,3:2|0:0,0:0:0:0:
407,11,202472,2,0,P|399:48|391:75,1,62.9999980773926,8|0,1:2|0:0,0:0:0:0:
273,219,202656,6,0,B|304:294|298:377|298:377|307:322|345:299,1,251.999992309571,2|2,3:2|3:2,0:0:0:0:
499,169,203208,2,0,P|439:188|378:200,1,125.999996154785,2|0,1:2|0:0,0:0:0:0:
192,362,203576,1,2,3:2:0:0:
108,213,203760,6,0,P|101:250|90:288,1,62.9999980773926,8|0,3:2|0:0,0:0:0:0:
183,354,203944,2,0,P|190:317|201:279,1,62.9999980773926,8|0,1:2|0:0,0:0:0:0:
301,163,204128,1,2,0:2:0:0:
301,163,204220,1,2,0:0:0:0:
301,163,204312,6,0,P|292:97|284:12,1,125.999996154785,0|2,3:2|0:2,0:0:0:0:
84,170,204680,2,0,P|177:168|200:78,1,188.999994232178,2|0,1:2|0:0,0:0:0:0:
87,22,205048,2,0,P|80:84|72:147,1,125.999996154785,2|0,3:2|3:2,0:0:0:0:
24,382,205416,2,0,P|15:366|19:316,1,62.9999980773926,2|0,1:2|0:0,0:0:0:0:
102,258,205600,6,0,B|209:241|154:340|261:325,1,188.999994232178,2|0,3:2|0:0,0:0:0:0:
317,226,205969,2,0,P|276:241|245:248,1,62.9999980773926,0|0,3:2|0:0,0:0:0:0:
415,379,206153,2,0,P|374:364|343:357,1,62.9999980773926,2|0,1:2|0:0,0:0:0:0:
506,226,206337,6,0,P|502:147|497:14,1,188.999994232178,2|0,3:2|0:0,0:0:0:0:
411,1,206705,2,0,P|409:53|406:97,1,62.9999980773926,2|0,3:2|0:0,0:0:0:0:
323,186,206889,2,0,P|260:174|194:167,1,125.999996154785,2|2,1:2|0:2,0:0:0:0:
2,304,207257,6,0,B|32:373|105:381|105:381|149:320|122:255,1,270,6|0,3:2|0:0,0:0:0:0:
62,182,207625,6,0,P|69:120|77:46,1,125.999996154785,0|0,1:2|0:0,0:0:0:0:
188,5,207993,1,0,3:2:0:0:
303,177,208177,1,2,3:2:0:0:
158,105,208361,1,0,1:2:0:0:
353,9,208545,6,0,P|342:147|336:304,1,251.999992309571,2|0,3:2|3:2,0:0:0:0:
196,384,209097,1,0,1:2:0:0:
120,269,209281,2,0,P|225:303|269:314,1,125.999996154785,2|0,0:2|3:2,0:0:0:0:
395,369,209649,1,2,3:2:0:0:
270,199,209834,1,2,1:2:0:0:
381,110,210018,1,2,0:2:0:0:
381,110,210110,1,2,0:2:0:0:
381,110,210202,6,0,B|275:128|275:128|245:171|245:171|137:188,1,270,6|0,3:2|0:0,0:0:0:0:
17,143,210570,6,0,P|30:205|39:268,1,125.999996154785,2|2,1:2|0:2,0:0:0:0:
217,369,210938,1,0,3:2:0:0:
127,175,211122,1,2,3:2:0:0:
4,349,211306,1,2,1:2:0:0:
244,226,211490,6,0,B|410:240|410:240|470:269|454:334,1,270,4|0,3:2|0:0,0:0:0:0:
351,378,211858,2,0,P|358:342|375:306,1,62.9999980773926,2|0,1:2|0:0,0:0:0:0:
511,206,212042,2,0,P|476:217|436:221,1,62.9999980773926,0|0,1:2|0:0,0:0:0:0:
283,154,212226,2,0,P|310:178|333:210,1,62.9999980773926,6|0,3:2|0:0,0:0:0:0:
197,359,212410,5,0,1:2:0:0:
139,381,212502,1,0,1:2:0:0:
83,370,212594,1,8,0:3:0:0:
48,332,212686,1,8,0:3:0:0:
37,290,212778,1,4,0:3:0:0:
44,252,212870,1,4,0:3:0:0:
60,224,212962,1,2,1:2:0:0:
80,206,213054,1,2,1:2:0:0:
135,154,213146,6,0,P|130:76|122:14,1,125.999996154785,14|2,3:2|0:2,0:0:0:0:
248,243,213515,2,0,P|240:305|237:368,1,125.999996154785,10|0,1:2|0:0,0:0:0:0:
420,188,213883,6,0,L|406:123,1,62.9999980773926,10|0,1:2|0:0,0:0:0:0:
383,9,214067,1,0,3:2:0:0:
248,243,214251,6,0,L|261:178,1,62.9999980773926,10|0,1:2|0:0,0:0:0:0:
285,64,214435,1,2,3:2:0:0:
69,196,214619,6,0,P|77:258|80:321,1,125.999996154785,10|0,1:2|0:0,0:0:0:0:
6,66,214987,2,0,L|68:78,1,62.9999980773926,10|0,1:2|0:0,0:0:0:0:
178,102,215171,1,0,3:2:0:0:
219,367,215355,6,0,L|198:306,1,62.9999980773926,10|0,1:2|0:0,0:0:0:0:
164,200,215539,1,2,3:2:0:0:
372,31,215723,6,0,L|330:78,1,62.9999980773926,10|0,1:2|0:0,0:0:0:0:
255,163,215907,1,0,3:2:0:0:
497,378,216091,6,0,B|468:365|468:365|452:338,1,62.9999980773926,6|0,3:2|0:0,0:0:0:0:
433,170,216275,2,0,B|436:201|436:201|421:228,1,62.9999980773926,0|0,1:2|0:0,0:0:0:0:
286,329,216459,2,0,B|310:310|310:310|342:309,1,62.9999980773926,2|0,1:2|0:0,0:0:0:0:
490,78,216643,6,0,B|338:41|405:189|253:154,1,270,6|0,3:2|0:0,0:0:0:0:
225,63,217011,2,0,P|256:58|286:65,1,62.9999980773926,8|0,0:3|0:0,0:0:0:0:
281,245,217196,2,0,P|249:249|219:243,1,62.9999980773926,2|0,1:2|0:0,0:0:0:0:
41,5,217380,6,0,B|68:110|68:110|40:155|40:155|64:260,1,270,6|0,3:2|0:0,0:0:0:0:
156,369,217748,2,0,P|146:339|129:312,1,62.9999980773926,4|0,0:3|0:0,0:0:0:0:
2,255,217932,2,0,P|32:262|64:260,1,62.9999980773926,10|0,1:2|0:0,0:0:0:0:
178,179,218116,2,0,P|156:202|142:230,1,62.9999980773926,6|0,3:2|0:0,0:0:0:0:
337,376,218300,5,0,1:2:0:0:
399,380,218392,1,0,1:2:0:0:
447,350,218484,1,8,0:3:0:0:
468,304,218576,1,8,0:3:0:0:
465,260,218668,1,8,0:3:0:0:
446,226,218760,1,8,0:3:0:0:
422,205,218852,1,4,0:3:0:0:
398,195,218944,1,4,0:3:0:0:
328,205,219036,6,0,B|174:236|246:91|93:120,1,270,6|0,3:2|0:0,0:0:0:0:
0,227,219404,6,0,P|74:213|131:208,1,125.999996154785,2|0,1:2|0:0,0:0:0:0:
298,118,219772,1,0,3:2:0:0:
170,42,219956,1,0,3:2:0:0:
302,228,220140,1,2,1:2:0:0:
165,360,220324,6,0,B|264:344|264:344|293:304|293:304|393:290,1,251.999992309571,2|2,3:2|3:2,0:0:0:0:
192,143,220876,2,0,P|204:238|207:296,1,125.999996154785,2|0,1:2|0:0,0:0:0:0:
353,381,221245,1,2,3:2:0:0:
377,197,221429,1,2,3:2:0:0:
165,360,221613,2,0,P|63:342|0:342,1,125.999996154785,2|0,1:2|0:0,0:0:0:0:
153,65,221981,6,0,B|167:92|167:92|164:123,1,62.9999980773926,6|0,3:2|0:0,0:0:0:0:
9,215,222165,1,0,1:2:0:0:
9,215,222257,1,0,1:2:0:0:
9,215,222349,2,0,B|25:188|25:188|54:175,1,62.9999980773926,2|0,1:2|0:0,0:0:0:0:
211,265,222533,1,0,1:2:0:0:
211,265,222625,1,0,1:2:0:0:
211,265,222717,6,0,B|179:264|179:264|154:245,1,62.9999980773926,2|0,1:2|0:0,0:0:0:0:
153,65,222901,2,0,B|167:92|167:92|164:123,1,62.9999980773926,8|0,0:3|0:0,0:0:0:0:
9,215,223085,2,0,B|25:188|25:188|54:175,1,62.9999980773926,4|0,0:3|0:0,0:0:0:0:
274,97,223269,6,0,B|354:187|557:198|551:55|481:-17|381:20|432:97,1,405.000015449525,6|0,3:2|0:0,0:0:0:0:
477,233,224557,1,2,0:2:0:0:
473,256,224649,1,2,0:2:0:0:
470,279,224742,1,2,0:2:0:0:
467,303,224834,1,2,0:2:0:0:
405,339,224926,6,0,B|250:362|329:221|175:242,1,270,6|0,3:2|0:0,0:0:0:0:
80,353,225294,6,0,P|177:333|237:328,1,125.999996154785,0|0,1:2|0:0,0:0:0:0:
60,218,225662,1,2,3:2:0:0:
188,126,225846,1,0,3:2:0:0:
20,16,226030,1,0,1:2:0:0:
85,117,226214,1,2,0:0:0:0:
85,117,226306,1,2,0:0:0:0:
85,117,226398,6,0,P|160:102|235:91,1,125.999996154785,2|0,3:2|3:2,0:0:0:0:
320,251,226766,2,0,P|257:241|196:228,1,125.999996154785,0|0,1:2|0:0,0:0:0:0:
333,6,227134,2,0,P|341:87|348:152,1,125.999996154785,2|0,3:2|3:2,0:0:0:0:
400,311,227502,1,0,1:2:0:0:
320,250,227686,1,2,0:0:0:0:
320,250,227778,1,2,0:0:0:0:
320,250,227870,6,0,P|432:215|499:312,1,251.999992309571,2|0,3:2|1:2,0:0:0:0:
368,384,228423,2,0,P|306:371|244:361,1,125.999996154785,2|0,0:2|3:2,0:0:0:0:
39,228,228791,2,0,P|43:260|48:306,1,62.9999980773926,2|0,3:2|0:0,0:0:0:0:
140,365,228975,2,0,P|136:333|131:287,1,62.9999980773926,2|0,1:2|0:0,0:0:0:0:
249,169,229159,6,0,B|330:79|295:-33|174:-15|207:66,1,270,6|0,3:2|0:0,0:0:0:0:
162,140,229527,5,0,3:2:0:0:
320,251,229711,2,0,P|381:238|443:228,1,125.999996154785,2|0,1:2|0:0,0:0:0:0:
289,74,230079,1,2,3:2:0:0:
430,20,230263,1,0,3:2:0:0:
314,239,230447,1,2,1:2:0:0:
162,140,230631,1,2,1:2:0:0:
162,140,230723,1,2,1:2:0:0:
162,140,230815,6,0,B|94:174|92:248|92:248|155:287|219:256,1,270,6|0,3:2|0:0,0:0:0:0:
249,169,231183,5,0,1:2:0:0:
342,369,231367,2,0,P|266:355|186:355,1,125.999996154785,2|0,0:2|3:2,0:0:0:0:
386,234,231735,2,0,P|448:230|510:218,1,125.999996154785,2|0,3:2|1:2,0:0:0:0:
377,42,232103,6,0,B|275:56|275:56|246:96|246:96|147:112,1,251.999992309571,2|2,3:2|3:2,0:0:0:0:
346,145,232656,1,2,1:2:0:0:
179,10,232840,1,2,0:0:0:0:
179,10,232932,1,2,0:0:0:0:
179,10,233024,2,0,P|93:35|36:47,1,125.999996154785,2|0,3:2|3:2,0:0:0:0:
181,210,233392,1,0,1:2:0:0:
276,56,233576,1,2,0:2:0:0:
276,56,233668,1,2,0:2:0:0:
276,56,233760,6,0,P|258:189|247:324,1,270,6|0,3:2|0:0,0:0:0:0:
165,372,234128,2,0,P|155:342|153:311,1,62.9999980773926,0|0,1:2|0:0,0:0:0:0:
282,158,234312,6,0,B|446:201|446:201|516:188|501:105,1,270,2|0,3:2|0:0,0:0:0:0:
416,46,234680,2,0,P|421:99|422:136,1,62.9999980773926,2|0,3:2|0:0,0:0:0:0:
273,237,234864,2,0,P|268:184|267:147,1,62.9999980773926,2|0,1:2|0:0,0:0:0:0:
79,6,235048,6,0,B|45:155|45:155|85:217|85:217|55:365,1,377.999988464356,6|2,3:2|0:3,0:0:0:0:
55,365,235969,6,0,B|79:250,1,62.9999980773926,0|0,1:2|0:0,0:0:0:0:
86,218,236153,1,0,1:2:0:0:
86,218,236245,1,8,0:3:0:0:
86,218,236337,1,4,0:3:0:0:
256,354,236521,6,0,B|287:266|308:216|360:194|427:225|451:186|458:95|420:37|352:22|285:22|256:111|256:111|226:21|159:21|92:36|53:94|60:186|84:225|151:194|203:216|224:266|256:354,1,1039.49996827698,6|0,3:2|0:0,0:0:0:0:
