osu file format v14

[General]
AudioFilename: audio.mp3
AudioLeadIn: 0
PreviewTime: 223406
Countdown: 0
SampleSet: Normal
StackLeniency: 0.7
Mode: 1
LetterboxInBreaks: 0
WidescreenStoryboard: 1

[Editor]
DistanceSpacing: 0.1
BeatDivisor: 4
GridSize: 4
TimelineZoom: 2

[Metadata]
Title:Euphorium
TitleUnicode:ユーフォリアム
Artist:Suzuyu
ArtistUnicode:鈴湯
Creator:Riana
Version:Yuki Oni
Source:アストラエアの白き永遠 Finale -白き星の夢-
Tags:opening op favorite astralair no Shiroki Towa full ver version astral air vn visual novel galgame galge eroge japanese pop jpop j-pop video game hoshi no yume 山本美禰子 yamamoto mineko 小高光太郎 odaka koutarou kotaro UiNA yuzu__rinrin yzrin
BeatmapID:2797441
BeatmapSetID:1351238

[Difficulty]
HPDrainRate:6
CircleSize:3
OverallDifficulty:6
ApproachRate:5
SliderMultiplier:1.4
SliderTickRate:1

[Events]
//Background and Video events
0,0,"154445h0th8687711h0111.jpg",0,-10
//Break Periods
2,181429,187771
//Storyboard Layer 0 (Background)
//Storyboard Layer 1 (Fail)
//Storyboard Layer 2 (Pass)
//Storyboard Layer 3 (Foreground)
//Storyboard Layer 4 (Overlay)
//Storyboard Sound Samples

[TimingPoints]
584,322.58064516129,4,1,0,40,1,0
584,-153.846153846153,4,1,0,40,0,0
4454,-153.846153846153,4,1,0,50,0,0
5422,-121.951219512195,4,1,0,50,0,0
5503,-119.047619047619,4,1,0,50,0,0
5583,-116.279069767442,4,1,0,50,0,0
5664,-113.636363636364,4,1,0,50,0,0
5745,-111.111111111111,4,1,0,70,0,0
10261,-111.111111111111,4,1,0,70,0,0
10342,-108.108108108108,4,1,0,70,0,0
10422,-105.263157894737,4,1,0,70,0,0
10503,-102.564102564103,4,1,0,70,0,0
10583,-100,4,1,0,70,0,0
10906,-90.9090909090909,4,1,0,80,0,0
15261,-90.9090909090909,4,1,0,65,0,0
16067,-90.9090909090909,4,1,0,80,0,0
21229,-133.333333333333,4,1,0,65,0,0
21390,-133.333333333333,4,1,0,45,0,0
23809,-153.846153846153,4,1,0,45,0,0
34132,-153.846153846153,4,1,0,45,0,0
43648,-133.333333333333,4,1,0,45,0,0
44132,-133.333333333333,4,1,0,45,0,0
44454,-133.333333333333,4,1,0,60,0,0
44616,-111.111111111111,4,1,0,60,0,0
54454,-104.166666666667,4,1,0,60,0,0
54616,-102.040816326531,4,1,0,60,0,0
54696,-101.010101010101,4,1,0,60,0,0
54777,-100,4,1,0,60,0,0
59938,-100,4,1,0,60,0,0
64454,-100,4,1,0,60,0,0
65100,-100,4,1,0,60,0,0
65422,-125,4,1,0,50,0,0
68648,-117.64705882353,4,1,0,50,0,0
68809,-114.285714285715,4,1,0,50,0,0
68971,-111.111111111111,4,1,0,50,0,0
70261,-111.111111111111,4,1,0,50,0,0
71229,-111.111111111111,4,1,0,50,0,0
72519,-98.0392156862745,4,1,0,50,0,0
72600,-96.1538461538461,4,1,0,70,0,0
72680,-94.3396226415094,4,1,0,70,0,0
72761,-92.5925925925926,4,1,0,70,0,0
72842,-90.9090909090909,4,1,0,80,0,0
74051,-90.9090909090909,4,1,0,80,0,0
75422,-111.111111111111,4,1,0,60,0,0
75503,-111.111111111111,4,1,0,60,0,0
76390,-153.846153846153,4,1,0,60,0,0
76713,-153.846153846153,4,1,0,60,0,0
77196,-153.846153846153,4,1,0,60,0,0
77680,-98.0392156862746,4,1,0,60,0,0
77761,-96.1538461538461,4,1,0,60,0,0
77842,-94.3396226415094,4,1,0,60,0,0
77922,-92.5925925925926,4,1,0,60,0,0
78003,-90.9090909090909,4,1,0,90,0,1
81874,-92.5925925925926,4,1,0,90,0,1
81954,-94.3396226415094,4,1,0,90,0,1
82035,-96.1538461538461,4,1,0,90,0,1
82116,-98.0392156862746,4,1,0,90,0,1
82196,-100,4,1,0,90,0,1
82358,-104.166666666667,4,1,0,90,0,1
83003,-94.3396226415094,4,1,0,90,0,1
83083,-92.5925925925926,4,1,0,90,0,1
83164,-90.9090909090909,4,1,0,90,0,1
87680,-94.3396226415094,4,1,0,90,0,1
87761,-96.1538461538461,4,1,0,90,0,1
87842,-98.0392156862745,4,1,0,90,0,1
87922,-100,4,1,0,90,0,1
88003,-102.040816326531,4,1,0,90,0,1
88083,-104.166666666667,4,1,0,90,0,1
88164,-106.382978723404,4,1,0,90,0,1
88245,-108.695652173913,4,1,0,90,0,1
88325,-111.111111111111,4,1,0,90,0,1
88648,-66.6666666666667,4,1,0,90,0,1
88809,-90.9090909090909,4,1,0,90,0,1
92842,-90.9090909090909,4,1,0,90,0,1
93003,-88.8888888888889,4,1,0,90,0,1
93083,-87.9120879120879,4,1,0,90,0,1
93164,-86.9565217391304,4,1,0,90,0,1
93325,-85.1063829787234,4,1,0,90,0,1
93406,-84.2105263157895,4,1,0,90,0,1
93487,-83.3333333333333,4,1,0,90,0,1
96067,-83.3333333333333,4,1,0,90,0,1
96390,-100,4,1,0,90,0,1
98164,-100,4,1,0,90,0,1
99777,-100,4,1,0,90,0,0
101148,-100,4,1,0,40,0,0
101229,-153.846153846153,4,1,0,40,0,0
106067,-129.032258064516,4,1,0,50,0,0
106148,-124.069478908189,4,1,0,50,0,0
106229,-119.402985074627,4,1,0,50,0,0
106309,-115.074798619103,4,1,0,50,0,0
106390,-111.111111111111,4,1,0,75,0,0
111551,-111.111111111111,4,1,0,65,0,0
121874,-111.111111111111,4,1,0,60,0,0
126551,-106.382978723404,4,1,0,60,0,0
126632,-105.263157894737,4,1,0,60,0,0
126713,-104.166666666667,4,1,0,60,0,0
126793,-103.092783505155,4,1,0,60,0,0
126874,-102.040816326531,4,1,0,60,0,0
126954,-101.010101010101,4,1,0,60,0,0
127035,-100,4,1,0,60,0,0
131551,-100,4,1,0,60,0,0
132196,-100,4,1,0,60,0,0
132519,-125,4,1,0,50,0,0
135745,-117.64705882353,4,1,0,50,0,0
135906,-114.285714285715,4,1,0,50,0,0
136067,-111.111111111111,4,1,0,50,0,0
137358,-111.111111111111,4,1,0,50,0,0
138326,-111.111111111111,4,1,0,50,0,0
138648,-111.111111111111,4,1,0,55,0,0
139616,-98.0392156862746,4,1,0,55,0,0
139696,-96.1538461538461,4,1,0,55,0,0
139777,-94.3396226415094,4,1,0,55,0,0
139858,-92.5925925925926,4,1,0,55,0,0
139938,-90.9090909090909,4,1,0,80,0,0
141148,-90.9090909090909,4,1,0,80,0,0
141229,-90.9090909090909,4,1,0,65,0,0
141713,-90.9090909090909,4,1,0,65,0,0
142196,-90.9090909090909,4,1,0,65,0,0
142519,-90.9090909090909,4,1,0,90,0,1
146390,-92.5925925925926,4,1,0,90,0,1
146470,-94.3396226415094,4,1,0,90,0,1
146551,-96.1538461538461,4,1,0,90,0,1
146632,-98.0392156862746,4,1,0,90,0,1
146712,-100,4,1,0,90,0,1
146874,-104.166666666667,4,1,0,90,0,1
147519,-94.3396226415094,4,1,0,90,0,1
147599,-92.5925925925926,4,1,0,90,0,1
147680,-90.9090909090909,4,1,0,90,0,1
157358,-90.9090909090909,4,1,0,90,0,1
157519,-88.8888888888889,4,1,0,90,0,1
157599,-87.9120879120879,4,1,0,90,0,1
157680,-86.9565217391304,4,1,0,90,0,1
157841,-85.1063829787234,4,1,0,90,0,1
157922,-84.2105263157895,4,1,0,90,0,1
158003,-83.3333333333333,4,1,0,90,0,1
160583,-83.3333333333333,4,1,0,75,0,1
160906,-100,4,1,0,75,0,1
162680,-100,4,1,0,75,0,1
164293,-100,4,1,0,75,0,0
164938,-100,4,1,0,75,0,0
165019,-99.009900990099,4,1,0,75,0,0
165100,-98.0392156862746,4,1,0,75,0,0
165180,-97.0873786407766,4,1,0,75,0,0
165261,-96.1538461538461,4,1,0,75,0,0
165342,-95.2380952380952,4,1,0,75,0,0
165422,-94.3396226415094,4,1,0,75,0,0
165503,-93.4579439252337,4,1,0,75,0,0
165583,-92.5925925925926,4,1,0,75,0,0
165664,-91.743119266055,4,1,0,75,0,0
165745,-90.9090909090909,4,1,0,90,0,1
170906,-90.9090909090909,4,1,0,85,0,1
176067,-90.9090909090909,4,1,0,70,0,0
176390,-111.111111111111,4,1,0,70,0,0
180745,-111.111111111111,4,1,0,50,0,0
181229,-153.846153846153,4,1,0,50,0,0
184938,-153.846153846153,4,1,0,50,0,0
185422,-153.846153846153,4,1,0,50,0,0
190261,-111.111111111111,4,1,0,55,0,0
191551,-111.111111111111,4,1,0,70,0,0
195100,-111.111111111111,4,1,0,70,0,0
196390,-111.111111111111,4,1,0,70,0,0
196713,-111.111111111111,4,1,0,60,0,0
201874,-111.111111111111,4,1,0,60,0,0
207035,-153.846153846153,4,1,0,50,0,0
211551,-125,4,1,0,55,0,0
212196,-125,4,1,0,75,0,0
212358,-111.111111111111,4,1,0,75,0,0
214616,-111.111111111111,4,1,0,75,0,0
214696,-111.111111111111,4,1,0,75,0,0
214777,-111.111111111111,4,1,0,65,0,0
219534,-109.090909091702,4,1,0,65,0,0
219615,-107.14285714324,4,1,0,65,0,0
219695,-105.263157894737,4,1,0,65,0,0
219776,-103.44827586214,4,1,0,65,0,0
219857,-101.694915254237,4,1,0,65,0,0
219937,-100,4,1,0,80,0,0
222519,-100,4,1,0,75,0,0
223487,-111.111111111111,4,1,0,75,0,0
223648,-111.111111111111,4,1,0,75,0,0
223809,-111.111111111111,4,1,0,55,0,0
224293,-153.846153846153,4,1,0,55,0,0
224777,-153.846153846153,4,1,0,55,0,0
225100,-83.3333333333333,4,1,0,70,0,0
225422,-111.111111111111,4,1,0,70,0,0
227680,-83.3333333333333,4,1,0,70,0,0
227842,-111.111111111111,4,1,0,70,0,0
230261,-90.9090909090909,4,1,0,85,0,0
234777,-94.3396226415094,4,1,0,85,0,0
234858,-96.1538461538461,4,1,0,85,0,0
234938,-98.0392156862745,4,1,0,85,0,0
235019,-100,4,1,0,85,0,0
235100,-102.040816326531,4,1,0,85,0,0
235180,-104.166666666667,4,1,0,85,0,0
235261,-106.382978723404,4,1,0,85,0,0
235342,-108.695652173913,4,1,0,85,0,0
235422,-111.111111111111,4,1,0,75,0,0
235745,-66.6666666666667,4,1,0,90,0,1
235906,-90.9090909090909,4,1,0,90,0,1
236067,-90.9090909090909,4,1,0,90,0,1
239938,-90.9090909090909,4,1,0,90,0,1
240099,-88.8888888888889,4,1,0,90,0,1
240179,-87.9120879120879,4,1,0,90,0,1
240260,-86.9565217391304,4,1,0,90,0,1
240421,-85.1063829787234,4,1,0,90,0,1
240502,-84.2105263157895,4,1,0,90,0,1
240583,-83.3333333333333,4,1,0,90,0,1
243164,-83.3333333333333,4,1,0,75,0,1
243487,-100,4,1,0,75,0,1
245261,-100,4,1,0,75,0,1
246874,-100,4,1,0,75,0,0
248325,-90.9090909090909,4,1,0,90,0,1
251229,-90.9090909090909,4,1,0,90,0,1
252035,-90.9090909090909,4,1,0,90,0,0
252196,-90.9090909090909,4,1,0,90,0,0
253487,-100,4,1,0,75,0,0
262518,-100,4,1,0,75,0,0
262679,-98.7654320987654,4,1,0,75,0,0
262760,-98.159509202454,4,1,0,75,0,0
262841,-97.5609756097561,4,1,0,75,0,0
263002,-96.3855421686747,4,1,0,75,0,0
263083,-95.8083832335329,4,1,0,75,0,0
263163,-95.2380952380952,4,1,0,75,0,0
263325,-94.1176470588236,4,1,0,75,0,0
263405,-93.5672514619883,4,1,0,75,0,0
263486,-93.0232558139535,4,1,0,75,0,0
263647,-91.9540229885058,4,1,0,75,0,0
263728,-91.4285714285714,4,1,0,75,0,0
263809,-90.9090909090909,4,1,0,80,0,0
266390,-90.9090909090909,4,1,0,75,0,0
266550,-100,4,1,0,75,0,0
268647,-98.0392156862746,4,1,0,75,0,0
268728,-96.1538461538461,4,1,0,75,0,0
268809,-94.3396226415094,4,1,0,75,0,0
268889,-92.5925925925926,4,1,0,75,0,0
268971,-90.9090909090909,4,1,0,85,0,0
271551,-90.9090909090909,4,1,0,75,0,0
272680,-90.9090909090909,4,1,0,65,0,0
272761,-90.9090909090909,4,1,0,55,0,0
274131,-90.9090909090909,4,1,0,49,0,0
275421,-90.9090909090909,4,1,0,43,0,0
276712,-90.9090909090909,4,1,0,37,0,0
278002,-90.9090909090909,4,1,0,31,0,0
279292,-90.9090909090909,4,1,0,5,0,0

[Colours]
Combo1 : 143,85,253
Combo2 : 248,248,248
Combo3 : 238,102,133
Combo4 : 100,174,230
SliderBorder : 255,255,255

[HitObjects]
255,191,584,5,8,0:0:0:0:
255,191,745,1,0,0:0:0:0:
255,191,906,1,0,0:0:0:0:
255,191,1067,1,0,0:0:0:0:
255,191,1229,1,8,0:0:0:0:
255,191,1390,1,8,0:0:0:0:
255,191,1551,1,0,0:0:0:0:
255,191,1713,1,0,0:0:0:0:
255,191,1874,1,8,0:0:0:0:
255,191,2035,1,0,0:0:0:0:
255,191,2196,1,0,0:0:0:0:
255,191,2358,1,0,0:0:0:0:
255,191,2519,1,8,0:0:0:0:
255,191,2680,1,8,0:0:0:0:
255,191,2842,1,0,0:0:0:0:
255,191,3003,1,0,0:0:0:0:
255,191,3164,1,8,0:0:0:0:
255,191,3325,1,0,0:0:0:0:
255,191,3487,1,0,0:0:0:0:
255,191,3648,1,0,0:0:0:0:
255,191,3809,1,8,0:0:0:0:
255,191,3971,1,8,0:0:0:0:
255,191,4132,1,0,0:0:0:0:
255,191,4293,1,0,0:0:0:0:
255,191,4454,1,8,0:0:0:0:
255,191,4616,1,0,0:0:0:0:
255,191,4777,1,0,0:0:0:0:
255,191,4938,1,8,0:0:0:0:
255,191,5422,1,0,0:0:0:0:
255,191,5503,1,0,0:0:0:0:
255,191,5583,1,0,0:0:0:0:
255,191,5664,1,0,0:0:0:0:
255,191,5745,1,12,0:0:0:0:
255,191,6309,1,0,0:0:0:0:
255,191,6390,1,8,0:0:0:0:
256,191,6551,1,8,0:0:0:0:
256,191,6713,1,0,0:0:0:0:
256,192,6874,1,12,0:0:0:0:
255,191,7196,1,0,0:0:0:0:
255,192,7358,1,0,0:0:0:0:
255,192,7519,1,8,0:0:0:0:
256,191,7680,1,8,0:0:0:0:
256,191,7842,1,0,0:0:0:0:
255,191,8003,1,8,0:0:0:0:
255,191,8164,1,0,0:0:0:0:
255,191,8245,1,0,0:0:0:0:
255,192,8325,1,12,0:0:0:0:
255,191,8648,1,0,0:0:0:0:
255,191,8809,1,0,0:0:0:0:
255,191,8971,1,8,0:0:0:0:
255,191,9132,1,8,0:0:0:0:
256,191,9293,1,0,0:0:0:0:
256,191,9454,1,12,0:0:0:0:
255,191,9938,1,0,0:0:0:0:
255,191,10261,1,8,0:0:0:0:
255,192,10342,1,8,0:0:0:0:
255,192,10422,1,0,0:0:0:0:
255,192,10503,1,0,0:0:0:0:
255,192,10583,1,8,0:0:0:0:
256,191,10906,1,8,0:0:0:0:
255,191,11067,1,0,0:0:0:0:
255,191,11229,1,8,0:0:0:0:
255,192,11390,1,0,0:0:0:0:
255,191,11551,1,0,0:0:0:0:
255,192,11713,1,0,0:0:0:0:
256,192,11793,1,0,0:0:0:0:
256,192,11874,1,8,0:0:0:0:
255,192,11954,1,0,0:0:0:0:
255,192,12035,1,8,0:0:0:0:
255,192,12196,1,0,0:0:0:0:
255,192,12358,1,0,0:0:0:0:
255,192,12519,1,8,0:0:0:0:
255,191,12680,1,0,0:0:0:0:
255,191,12761,1,8,0:0:0:0:
255,191,12842,1,0,0:0:0:0:
255,192,13003,1,0,0:0:0:0:
255,192,13164,1,8,0:0:0:0:
255,191,13245,1,8,0:0:0:0:
255,192,13325,1,0,0:0:0:0:
255,191,13406,1,0,0:0:0:0:
255,192,13487,1,12,0:0:0:0:
255,191,13648,1,0,0:0:0:0:
255,192,13809,1,0,0:0:0:0:
256,191,13971,1,12,0:0:0:0:
256,191,14293,1,8,0:0:0:0:
255,192,14374,1,0,0:0:0:0:
256,191,14454,1,0,0:0:0:0:
255,192,14535,1,0,0:0:0:0:
255,192,14616,1,12,0:0:0:0:
255,191,14777,1,0,0:0:0:0:
256,192,14938,1,0,0:0:0:0:
256,192,15019,1,0,0:0:0:0:
256,192,15100,1,8,0:0:0:0:
255,192,15180,1,0,0:0:0:0:
256,192,15261,1,12,0:0:0:0:
256,192,15583,1,12,0:0:0:0:
255,192,15906,1,12,0:0:0:0:
255,192,16067,1,4,0:0:0:0:
256,191,16229,1,0,0:0:0:0:
255,192,16390,1,8,0:0:0:0:
255,192,16551,1,0,0:0:0:0:
255,192,16632,1,0,0:0:0:0:
255,192,16713,1,8,0:0:0:0:
255,192,16874,1,0,0:0:0:0:
255,192,16954,1,0,0:0:0:0:
255,192,17035,1,8,0:0:0:0:
255,192,17116,1,8,0:0:0:0:
255,192,17196,1,0,0:0:0:0:
255,192,17277,1,0,0:0:0:0:
255,192,17358,1,8,0:0:0:0:
255,192,17519,1,0,0:0:0:0:
255,192,17680,1,8,0:0:0:0:
255,192,17842,1,0,0:0:0:0:
255,192,18003,1,8,0:0:0:0:
255,192,18083,1,8,0:0:0:0:
255,192,18164,1,8,0:0:0:0:
255,192,18245,1,0,0:0:0:0:
255,192,18325,1,8,0:0:0:0:
255,192,18406,1,8,0:0:0:0:
255,192,18487,1,0,0:0:0:0:
255,192,18567,1,0,0:0:0:0:
255,192,18648,1,12,0:0:0:0:
256,192,18809,1,0,0:0:0:0:
256,192,18971,1,0,0:0:0:0:
256,192,19132,1,12,0:0:0:0:
256,192,19293,1,0,0:0:0:0:
256,192,19454,1,8,0:0:0:0:
256,192,19535,1,8,0:0:0:0:
256,192,19616,1,0,0:0:0:0:
256,192,19777,1,12,0:0:0:0:
256,192,19938,8,0,21229,0:0:0:0:
255,191,21390,5,8,0:0:0:0:
255,191,21551,1,8,0:0:0:0:
255,191,21713,1,0,0:0:0:0:
256,191,21874,1,8,0:0:0:0:
256,191,22035,1,8,0:0:0:0:
256,191,22196,1,0,0:0:0:0:
256,191,22358,1,8,0:0:0:0:
256,191,22519,1,8,0:0:0:0:
255,192,22680,1,0,0:0:0:0:
255,192,22842,1,0,0:0:0:0:
255,192,23003,1,8,0:0:0:0:
255,191,23809,1,8,0:0:0:0:
255,192,24132,1,0,0:0:0:0:
255,192,24293,1,0,0:0:0:0:
256,191,24777,1,0,0:0:0:0:
256,191,24938,1,0,0:0:0:0:
256,192,25100,1,8,0:0:0:0:
255,191,25583,1,0,0:0:0:0:
255,192,25745,1,0,0:0:0:0:
255,192,26067,1,8,0:0:0:0:
255,192,26229,1,0,0:0:0:0:
255,192,26390,1,8,0:0:0:0:
255,192,26713,1,0,0:0:0:0:
255,192,26874,1,0,0:0:0:0:
256,192,27035,1,8,0:0:0:0:
256,192,27358,1,0,0:0:0:0:
256,192,27519,1,0,0:0:0:0:
256,192,27680,1,8,0:0:0:0:
255,191,28325,1,8,0:0:0:0:
255,192,28487,1,8,0:0:0:0:
255,192,28648,1,0,0:0:0:0:
255,192,28809,1,0,0:0:0:0:
255,192,28971,1,8,0:0:0:0:
255,192,29293,1,0,0:0:0:0:
255,192,29454,1,0,0:0:0:0:
255,192,29938,1,0,0:0:0:0:
255,192,30261,1,0,0:0:0:0:
255,192,30583,1,8,0:0:0:0:
255,192,30745,1,8,0:0:0:0:
255,192,31067,1,0,0:0:0:0:
255,192,31551,1,8,0:0:0:0:
255,192,31713,1,0,0:0:0:0:
255,192,31874,1,8,0:0:0:0:
255,192,32035,1,8,0:0:0:0:
255,192,32519,1,0,0:0:0:0:
255,192,32680,1,0,0:0:0:0:
255,192,32842,1,8,0:0:0:0:
255,192,33487,1,8,0:0:0:0:
255,192,33809,1,0,0:0:0:0:
255,192,33971,1,0,0:0:0:0:
255,192,34132,1,8,0:0:0:0:
255,191,34616,1,0,0:0:0:0:
256,192,35100,1,0,0:0:0:0:
255,192,35261,1,0,0:0:0:0:
255,192,35422,1,8,0:0:0:0:
255,191,35583,1,8,0:0:0:0:
255,192,35906,1,0,0:0:0:0:
255,192,36229,1,0,0:0:0:0:
255,192,36390,1,8,0:0:0:0:
255,192,36551,1,0,0:0:0:0:
255,192,36713,1,8,0:0:0:0:
255,192,37035,1,0,0:0:0:0:
255,192,37196,1,8,0:0:0:0:
255,192,37680,1,0,0:0:0:0:
255,192,38003,1,8,0:0:0:0:
255,192,38487,1,8,0:0:0:0:
255,192,38971,1,8,0:0:0:0:
255,192,39293,1,0,0:0:0:0:
255,192,39616,1,8,0:0:0:0:
255,191,39777,1,8,0:0:0:0:
255,192,39938,1,0,0:0:0:0:
255,192,40100,1,8,0:0:0:0:
255,192,40261,1,0,0:0:0:0:
255,192,40422,1,0,0:0:0:0:
255,192,40583,1,8,0:0:0:0:
255,191,40745,1,8,0:0:0:0:
255,191,40906,1,0,0:0:0:0:
255,191,41067,1,8,0:0:0:0:
255,191,41390,1,0,0:0:0:0:
255,191,41551,1,8,0:0:0:0:
255,191,41713,1,0,0:0:0:0:
255,191,41874,1,8,0:0:0:0:
255,191,42035,1,0,0:0:0:0:
255,191,42196,1,0,0:0:0:0:
255,191,42358,1,8,0:0:0:0:
255,191,42519,1,0,0:0:0:0:
255,191,42680,1,0,0:0:0:0:
255,191,42842,1,8,0:0:0:0:
255,191,43003,1,0,0:0:0:0:
255,191,43164,1,12,0:0:0:0:
255,191,43325,1,0,0:0:0:0:
255,191,43648,1,8,0:0:0:0:
255,192,43809,1,8,0:0:0:0:
255,192,43971,1,0,0:0:0:0:
255,192,44132,1,8,0:0:0:0:
255,192,44293,1,8,0:0:0:0:
255,191,44454,1,4,0:0:0:0:
256,192,44777,1,8,0:0:0:0:
255,192,45100,1,0,0:0:0:0:
256,192,45261,1,0,0:0:0:0:
256,192,45342,1,0,0:0:0:0:
256,192,45422,1,8,0:0:0:0:
255,191,45583,1,8,0:0:0:0:
255,191,45745,1,0,0:0:0:0:
256,191,45906,1,0,0:0:0:0:
256,192,45987,1,0,0:0:0:0:
256,192,46067,1,8,0:0:0:0:
256,192,46229,1,0,0:0:0:0:
256,192,46551,1,0,0:0:0:0:
256,192,46632,1,0,0:0:0:0:
256,192,46713,1,8,0:0:0:0:
255,192,46874,1,8,0:0:0:0:
255,191,47035,1,0,0:0:0:0:
255,192,47358,1,8,0:0:0:0:
255,192,47680,1,0,0:0:0:0:
255,192,47761,1,0,0:0:0:0:
255,192,47842,1,0,0:0:0:0:
255,192,47922,1,0,0:0:0:0:
255,192,48003,1,8,0:0:0:0:
255,192,48083,1,8,0:0:0:0:
255,192,48164,1,0,0:0:0:0:
255,192,48325,1,0,0:0:0:0:
255,192,48648,1,8,0:0:0:0:
255,192,48729,1,8,0:0:0:0:
256,192,48809,1,8,0:0:0:0:
256,192,48890,1,8,0:0:0:0:
256,192,48971,1,0,0:0:0:0:
256,192,49051,1,0,0:0:0:0:
256,192,49132,1,8,0:0:0:0:
255,191,49293,1,8,0:0:0:0:
255,191,49454,1,8,0:0:0:0:
255,192,49616,1,0,0:0:0:0:
255,192,49938,1,8,0:0:0:0:
255,192,50261,1,0,0:0:0:0:
255,191,50342,1,0,0:0:0:0:
255,192,50422,1,0,0:0:0:0:
255,192,50503,1,0,0:0:0:0:
255,192,50583,1,8,0:0:0:0:
256,192,50906,1,0,0:0:0:0:
255,191,51067,1,8,0:0:0:0:
255,192,51148,1,8,0:0:0:0:
255,191,51229,1,8,0:0:0:0:
255,191,51309,1,8,0:0:0:0:
255,192,51390,1,0,0:0:0:0:
255,192,51713,1,8,0:0:0:0:
255,192,51874,1,8,0:0:0:0:
256,192,52196,1,0,0:0:0:0:
255,192,52358,1,0,0:0:0:0:
255,192,52438,1,0,0:0:0:0:
255,192,52519,1,8,0:0:0:0:
255,192,52680,1,0,0:0:0:0:
256,192,52842,1,0,0:0:0:0:
255,192,53003,1,8,0:0:0:0:
256,192,53083,1,0,0:0:0:0:
255,192,53164,1,8,0:0:0:0:
255,191,53487,1,0,0:0:0:0:
255,192,53648,1,8,0:0:0:0:
255,192,53809,1,0,0:0:0:0:
255,192,53971,1,0,0:0:0:0:
255,192,54132,1,8,0:0:0:0:
255,191,54293,1,0,0:0:0:0:
255,192,54454,1,8,0:0:0:0:
255,192,54616,1,0,0:0:0:0:
255,192,54696,1,0,0:0:0:0:
255,192,54777,1,8,0:0:0:0:
256,191,55100,1,8,0:0:0:0:
255,191,55261,1,0,0:0:0:0:
255,191,55342,1,0,0:0:0:0:
255,191,55422,1,0,0:0:0:0:
255,192,55583,1,0,0:0:0:0:
255,192,55745,1,8,0:0:0:0:
255,192,55906,1,0,0:0:0:0:
255,191,55987,1,0,0:0:0:0:
255,191,56067,1,8,0:0:0:0:
255,192,56229,1,0,0:0:0:0:
255,192,56390,1,8,0:0:0:0:
255,192,56551,1,0,0:0:0:0:
255,191,56632,1,0,0:0:0:0:
255,191,56713,1,0,0:0:0:0:
255,192,56874,1,0,0:0:0:0:
255,192,57035,1,8,0:0:0:0:
255,192,57196,1,0,0:0:0:0:
255,192,57277,1,0,0:0:0:0:
255,192,57358,1,8,0:0:0:0:
256,192,57519,1,0,0:0:0:0:
255,192,57680,1,8,0:0:0:0:
255,192,57842,1,8,0:0:0:0:
255,192,57922,1,8,0:0:0:0:
255,192,58003,1,0,0:0:0:0:
255,192,58164,1,0,0:0:0:0:
255,192,58325,1,8,0:0:0:0:
255,192,58406,1,8,0:0:0:0:
255,192,58487,1,8,0:0:0:0:
255,192,58567,1,0,0:0:0:0:
255,192,58648,1,8,0:0:0:0:
255,192,58809,1,0,0:0:0:0:
255,192,58971,1,0,0:0:0:0:
255,192,59132,1,8,0:0:0:0:
255,191,59293,1,0,0:0:0:0:
255,191,59454,1,0,0:0:0:0:
255,191,59616,1,8,0:0:0:0:
255,192,59777,1,8,0:0:0:0:
255,192,59858,1,0,0:0:0:0:
255,192,59938,1,8,0:0:0:0:
255,192,60100,1,0,0:0:0:0:
255,192,60261,1,0,0:0:0:0:
255,192,60342,1,0,0:0:0:0:
255,192,60422,1,8,0:0:0:0:
255,192,60745,1,0,0:0:0:0:
255,191,60825,1,0,0:0:0:0:
255,192,60906,1,8,0:0:0:0:
255,192,61067,1,8,0:0:0:0:
255,192,61148,1,0,0:0:0:0:
255,192,61229,1,8,0:0:0:0:
255,192,61390,1,0,0:0:0:0:
255,192,61551,1,0,0:0:0:0:
255,192,61632,1,0,0:0:0:0:
255,192,61713,1,8,0:0:0:0:
255,192,62035,1,0,0:0:0:0:
255,192,62196,1,8,0:0:0:0:
255,192,62358,1,0,0:0:0:0:
255,191,62438,1,0,0:0:0:0:
255,191,62519,1,8,0:0:0:0:
255,191,62842,1,8,0:0:0:0:
255,191,63003,1,0,0:0:0:0:
255,191,63325,1,0,0:0:0:0:
255,191,63487,1,8,0:0:0:0:
256,192,63648,1,0,0:0:0:0:
256,192,63729,1,0,0:0:0:0:
255,191,63809,1,8,0:0:0:0:
255,191,63971,1,0,0:0:0:0:
255,191,64132,1,0,0:0:0:0:
255,191,64293,1,0,0:0:0:0:
255,191,64454,1,8,0:0:0:0:
255,191,64535,1,8,0:0:0:0:
255,191,64616,1,8,0:0:0:0:
255,191,64696,1,0,0:0:0:0:
255,191,64777,1,8,0:0:0:0:
255,192,64858,1,0,0:0:0:0:
255,192,64938,1,0,0:0:0:0:
255,192,65019,1,0,0:0:0:0:
255,192,65100,1,12,0:0:0:0:
255,192,65422,1,0,0:0:0:0:
255,192,65745,1,0,0:0:0:0:
255,192,66067,1,0,0:0:0:0:
255,192,66390,1,0,0:0:0:0:
255,192,66713,1,0,0:0:0:0:
255,192,67035,1,0,0:0:0:0:
255,192,67358,1,0,0:0:0:0:
255,192,67680,1,0,0:0:0:0:
255,192,68003,1,0,0:0:0:0:
255,192,68325,1,0,0:0:0:0:
255,192,68648,1,0,0:0:0:0:
255,192,68809,1,0,0:0:0:0:
255,192,68971,1,8,0:0:0:0:
255,192,69132,1,8,0:0:0:0:
255,192,69213,1,0,0:0:0:0:
255,192,69293,1,0,0:0:0:0:
255,192,69454,1,8,0:0:0:0:
255,192,69535,1,8,0:0:0:0:
255,192,69616,1,0,0:0:0:0:
255,192,69777,1,0,0:0:0:0:
255,192,69938,1,8,0:0:0:0:
255,192,70019,1,8,0:0:0:0:
255,192,70100,1,8,0:0:0:0:
255,192,70180,1,8,0:0:0:0:
255,192,70261,1,4,0:0:0:0:
255,192,71551,1,0,0:0:0:0:
256,191,72519,1,0,0:0:0:0:
256,191,72600,1,8,0:0:0:0:
256,191,72680,1,8,0:0:0:0:
256,191,72761,1,0,0:0:0:0:
255,192,72842,1,12,0:0:0:0:
255,192,73003,1,0,0:0:0:0:
255,192,73164,1,0,0:0:0:0:
255,192,73325,1,12,0:0:0:0:
255,192,73487,1,0,0:0:0:0:
255,192,73648,1,0,0:0:0:0:
255,192,73729,1,0,0:0:0:0:
255,192,73809,1,8,0:0:0:0:
255,192,73971,1,4,0:0:0:0:
256,192,74132,8,0,75422,0:0:0:0:
255,192,76390,5,0,0:0:0:0:
255,192,76713,1,8,0:0:0:0:
255,192,77196,1,0,0:0:0:0:
255,192,77680,1,0,0:0:0:0:
255,192,77761,1,0,0:0:0:0:
255,192,77842,1,0,0:0:0:0:
255,192,77922,1,0,0:0:0:0:
256,191,78003,1,12,0:0:0:0:
255,192,78164,1,0,0:0:0:0:
255,192,78245,1,0,0:0:0:0:
256,191,78325,1,0,0:0:0:0:
256,192,78487,1,0,0:0:0:0:
256,192,78648,1,8,0:0:0:0:
256,192,78809,1,0,0:0:0:0:
255,192,78890,1,0,0:0:0:0:
256,192,78971,1,8,0:0:0:0:
255,192,79051,1,0,0:0:0:0:
256,192,79132,1,8,0:0:0:0:
256,191,79213,1,8,0:0:0:0:
256,192,79293,1,8,0:0:0:0:
256,192,79454,1,0,0:0:0:0:
255,192,79535,1,0,0:0:0:0:
256,192,79616,1,8,0:0:0:0:
256,192,79777,1,0,0:0:0:0:
256,192,79938,1,8,0:0:0:0:
256,192,80019,1,0,0:0:0:0:
256,192,80100,1,0,0:0:0:0:
256,192,80180,1,0,0:0:0:0:
256,192,80261,1,8,0:0:0:0:
256,192,80422,1,0,0:0:0:0:
256,192,80583,1,8,0:0:0:0:
256,192,80664,1,8,0:0:0:0:
256,192,80745,1,8,0:0:0:0:
256,192,80825,1,0,0:0:0:0:
256,192,80906,1,8,0:0:0:0:
256,192,81067,1,0,0:0:0:0:
255,192,81229,1,0,0:0:0:0:
255,192,81390,1,0,0:0:0:0:
255,192,81471,1,0,0:0:0:0:
255,192,81551,1,8,0:0:0:0:
255,192,81713,1,8,0:0:0:0:
255,192,81874,1,8,0:0:0:0:
255,192,81954,1,0,0:0:0:0:
255,192,82035,1,8,0:0:0:0:
256,192,82116,1,8,0:0:0:0:
256,192,82196,1,0,0:0:0:0:
255,192,82358,1,12,0:0:0:0:
255,192,82680,1,12,0:0:0:0:
255,192,83003,1,0,0:0:0:0:
255,192,83083,1,0,0:0:0:0:
255,192,83164,1,12,0:0:0:0:
255,191,83325,1,0,0:0:0:0:
255,191,83487,1,8,0:0:0:0:
255,191,83648,1,0,0:0:0:0:
255,192,83809,1,8,0:0:0:0:
255,192,83890,1,8,0:0:0:0:
256,191,83971,1,8,0:0:0:0:
255,191,84051,1,0,0:0:0:0:
256,192,84132,1,8,0:0:0:0:
255,191,84293,1,0,0:0:0:0:
255,191,84454,1,8,0:0:0:0:
255,191,84535,1,8,0:0:0:0:
255,191,84616,1,0,0:0:0:0:
255,192,84696,1,0,0:0:0:0:
255,192,84777,1,8,0:0:0:0:
255,192,84938,1,0,0:0:0:0:
255,192,85100,1,8,0:0:0:0:
256,191,85180,1,8,0:0:0:0:
255,192,85261,1,0,0:0:0:0:
255,192,85342,1,0,0:0:0:0:
255,192,85422,1,8,0:0:0:0:
255,192,85583,1,0,0:0:0:0:
255,191,85745,1,8,0:0:0:0:
255,192,85825,1,0,0:0:0:0:
255,191,85906,1,0,0:0:0:0:
255,191,86067,1,8,0:0:0:0:
255,192,86229,1,8,0:0:0:0:
255,192,86309,1,0,0:0:0:0:
255,192,86390,1,8,0:0:0:0:
255,192,86551,1,8,0:0:0:0:
255,192,86632,1,8,0:0:0:0:
255,192,86713,1,0,0:0:0:0:
255,192,86874,1,8,0:0:0:0:
255,192,86954,1,0,0:0:0:0:
255,192,87035,1,0,0:0:0:0:
255,191,87196,1,8,0:0:0:0:
255,191,87358,1,0,0:0:0:0:
255,191,87519,1,8,0:0:0:0:
255,191,87680,1,0,0:0:0:0:
255,192,87761,1,0,0:0:0:0:
255,192,87842,1,8,0:0:0:0:
255,192,87922,1,8,0:0:0:0:
255,192,88003,1,8,0:0:0:0:
255,192,88083,1,0,0:0:0:0:
255,192,88164,1,8,0:0:0:0:
255,192,88245,1,8,0:0:0:0:
255,192,88325,1,0,0:0:0:0:
256,191,88648,1,12,0:0:0:0:
255,192,88809,1,0,0:0:0:0:
255,192,88890,1,0,0:0:0:0:
256,191,88971,1,0,0:0:0:0:
256,192,89132,1,0,0:0:0:0:
256,192,89293,1,8,0:0:0:0:
256,192,89454,1,0,0:0:0:0:
256,191,89535,1,0,0:0:0:0:
256,192,89616,1,8,0:0:0:0:
256,192,89777,1,0,0:0:0:0:
255,192,89858,1,0,0:0:0:0:
256,192,89938,1,8,0:0:0:0:
256,192,90100,1,0,0:0:0:0:
256,192,90261,1,8,0:0:0:0:
256,192,90342,1,0,0:0:0:0:
256,192,90422,1,0,0:0:0:0:
256,192,90503,1,0,0:0:0:0:
256,192,90583,1,8,0:0:0:0:
256,192,90664,1,8,0:0:0:0:
256,192,90745,1,0,0:0:0:0:
256,192,90906,1,8,0:0:0:0:
256,192,90987,1,8,0:0:0:0:
256,192,91067,1,8,0:0:0:0:
256,192,91148,1,0,0:0:0:0:
256,192,91229,1,8,0:0:0:0:
256,192,91390,1,0,0:0:0:0:
255,192,91551,1,0,0:0:0:0:
255,192,91713,1,0,0:0:0:0:
255,192,91874,1,8,0:0:0:0:
255,192,92035,1,0,0:0:0:0:
256,192,92196,1,8,0:0:0:0:
256,192,92277,1,8,0:0:0:0:
256,192,92358,1,0,0:0:0:0:
255,192,92438,1,0,0:0:0:0:
256,192,92519,1,8,0:0:0:0:
256,192,92600,1,0,0:0:0:0:
256,192,92680,1,12,0:0:0:0:
256,192,92842,1,0,0:0:0:0:
255,192,93003,1,12,0:0:0:0:
255,192,93164,1,0,0:0:0:0:
255,192,93325,1,12,0:0:0:0:
255,192,93487,1,0,0:0:0:0:
256,192,93648,1,0,0:0:0:0:
256,192,93809,1,8,0:0:0:0:
255,192,93971,1,0,0:0:0:0:
255,192,94051,1,0,0:0:0:0:
255,192,94132,1,8,0:0:0:0:
255,192,94293,1,0,0:0:0:0:
255,192,94454,1,8,0:0:0:0:
255,192,94535,1,0,0:0:0:0:
255,192,94616,1,0,0:0:0:0:
255,192,94777,1,8,0:0:0:0:
255,191,94858,1,0,0:0:0:0:
255,192,94938,1,0,0:0:0:0:
255,192,95019,1,0,0:0:0:0:
255,192,95100,1,8,0:0:0:0:
255,192,95261,1,0,0:0:0:0:
255,192,95422,1,8,0:0:0:0:
255,192,95503,1,0,0:0:0:0:
255,192,95583,1,0,0:0:0:0:
255,192,95664,1,0,0:0:0:0:
255,192,95745,1,8,0:0:0:0:
255,192,95825,1,0,0:0:0:0:
255,192,95906,1,8,0:0:0:0:
255,192,95987,1,8,0:0:0:0:
255,192,96067,1,0,0:0:0:0:
256,191,96390,1,0,0:0:0:0:
256,192,96551,1,0,0:0:0:0:
256,192,96632,1,0,0:0:0:0:
256,192,96713,1,8,0:0:0:0:
255,192,96874,1,0,0:0:0:0:
255,191,97035,1,8,0:0:0:0:
255,191,97196,1,12,0:0:0:0:
255,192,97519,1,8,0:0:0:0:
255,192,97600,1,8,0:0:0:0:
255,192,97680,1,0,0:0:0:0:
255,192,97761,1,8,0:0:0:0:
255,192,97842,1,8,0:0:0:0:
255,192,98164,1,8,0:0:0:0:
255,192,98325,1,8,0:0:0:0:
255,192,98487,1,0,0:0:0:0:
255,192,98567,1,0,0:0:0:0:
255,192,98648,1,12,0:0:0:0:
255,192,98971,1,0,0:0:0:0:
255,192,99132,1,0,0:0:0:0:
255,192,99213,1,0,0:0:0:0:
255,192,99293,1,0,0:0:0:0:
255,192,99454,1,12,0:0:0:0:
255,192,99777,1,12,0:0:0:0:
256,192,99938,8,0,101067,0:0:0:0:
256,192,101229,5,0,0:0:0:0:
256,192,101551,1,0,0:0:0:0:
256,192,101874,1,8,0:0:0:0:
256,192,102196,1,8,0:0:0:0:
256,192,102358,1,8,0:0:0:0:
256,192,102519,1,0,0:0:0:0:
255,191,102842,1,0,0:0:0:0:
255,191,103164,1,0,0:0:0:0:
255,191,103487,1,8,0:0:0:0:
255,191,103648,1,0,0:0:0:0:
255,191,103809,1,8,0:0:0:0:
255,191,104132,1,0,0:0:0:0:
255,191,104454,1,8,0:0:0:0:
255,191,105100,1,8,0:0:0:0:
255,191,105261,1,0,0:0:0:0:
255,191,105583,1,0,0:0:0:0:
255,191,105745,1,8,0:0:0:0:
255,191,106067,1,0,0:0:0:0:
255,191,106148,1,0,0:0:0:0:
255,191,106229,1,8,0:0:0:0:
255,191,106309,1,0,0:0:0:0:
255,191,106390,1,12,0:0:0:0:
255,191,106874,1,8,0:0:0:0:
255,191,107358,1,8,0:0:0:0:
255,191,107519,1,4,0:0:0:0:
255,191,107842,1,8,0:0:0:0:
255,191,108003,1,8,0:0:0:0:
255,191,108164,1,0,0:0:0:0:
255,191,108325,1,8,0:0:0:0:
255,191,108487,1,8,0:0:0:0:
255,191,108567,1,8,0:0:0:0:
255,191,108648,1,0,0:0:0:0:
255,191,108729,1,8,0:0:0:0:
255,191,108809,1,0,0:0:0:0:
255,191,108890,1,0,0:0:0:0:
255,191,108971,1,12,0:0:0:0:
256,191,109454,1,0,0:0:0:0:
256,191,109535,1,0,0:0:0:0:
256,191,109616,1,8,0:0:0:0:
256,191,109696,1,8,0:0:0:0:
256,191,109777,1,0,0:0:0:0:
256,191,109858,1,8,0:0:0:0:
256,191,109938,1,0,0:0:0:0:
256,191,110100,1,12,0:0:0:0:
256,192,110261,8,0,111229,0:0:0:0:
255,192,111551,5,4,0:0:0:0:
255,192,111874,1,8,0:0:0:0:
255,192,112196,1,0,0:0:0:0:
255,192,112519,1,0,0:0:0:0:
255,192,112680,1,0,0:0:0:0:
255,192,112842,1,8,0:0:0:0:
255,192,113164,1,0,0:0:0:0:
255,192,113487,1,0,0:0:0:0:
255,192,113809,1,8,0:0:0:0:
255,192,113971,1,0,0:0:0:0:
255,192,114132,1,12,0:0:0:0:
255,192,114454,1,0,0:0:0:0:
255,192,114777,1,8,0:0:0:0:
255,192,115100,1,0,0:0:0:0:
255,192,115422,1,0,0:0:0:0:
255,192,115583,1,8,0:0:0:0:
255,192,115745,1,0,0:0:0:0:
255,192,115906,1,0,0:0:0:0:
255,192,116067,1,8,0:0:0:0:
255,192,116229,1,8,0:0:0:0:
255,192,116390,1,0,0:0:0:0:
255,192,116551,1,0,0:0:0:0:
255,192,116713,1,12,0:0:0:0:
255,192,117035,1,0,0:0:0:0:
255,192,117358,1,0,0:0:0:0:
255,192,117680,1,8,0:0:0:0:
255,192,118003,1,0,0:0:0:0:
255,192,118325,1,8,0:0:0:0:
255,192,118487,1,8,0:0:0:0:
255,192,118648,1,0,0:0:0:0:
255,192,118809,1,8,0:0:0:0:
255,192,118971,1,0,0:0:0:0:
255,192,119293,1,12,0:0:0:0:
255,192,119616,1,0,0:0:0:0:
255,192,119777,1,8,0:0:0:0:
255,192,119938,1,0,0:0:0:0:
255,192,120100,1,8,0:0:0:0:
255,192,120261,1,8,0:0:0:0:
255,192,120583,1,0,0:0:0:0:
255,192,120906,1,0,0:0:0:0:
255,192,121067,1,8,0:0:0:0:
255,192,121229,1,0,0:0:0:0:
255,192,121390,1,8,0:0:0:0:
255,192,121551,1,8,0:0:0:0:
255,192,121713,1,8,0:0:0:0:
255,192,121793,1,8,0:0:0:0:
255,192,121874,1,0,0:0:0:0:
255,192,122196,1,0,0:0:0:0:
255,192,122358,1,8,0:0:0:0:
255,192,122519,1,0,0:0:0:0:
255,192,122680,1,8,0:0:0:0:
255,192,122842,1,0,0:0:0:0:
255,192,123003,1,0,0:0:0:0:
255,191,123083,1,0,0:0:0:0:
255,192,123164,1,8,0:0:0:0:
255,192,123487,1,8,0:0:0:0:
255,192,123648,1,8,0:0:0:0:
255,192,123809,1,0,0:0:0:0:
255,192,123971,1,8,0:0:0:0:
255,192,124132,1,8,0:0:0:0:
255,192,124293,1,0,0:0:0:0:
255,192,124374,1,0,0:0:0:0:
255,192,124454,1,8,0:0:0:0:
255,192,124777,1,8,0:0:0:0:
255,192,124938,1,0,0:0:0:0:
255,192,125261,1,0,0:0:0:0:
255,192,125422,1,8,0:0:0:0:
255,192,125583,1,0,0:0:0:0:
255,192,125664,1,0,0:0:0:0:
255,192,125745,1,8,0:0:0:0:
255,192,125906,1,0,0:0:0:0:
255,192,126067,1,8,0:0:0:0:
255,192,126229,1,8,0:0:0:0:
255,192,126551,1,0,0:0:0:0:
255,192,126713,1,8,0:0:0:0:
255,192,126874,1,0,0:0:0:0:
255,192,126954,1,0,0:0:0:0:
255,192,127035,1,8,0:0:0:0:
255,192,127196,1,0,0:0:0:0:
255,192,127358,1,0,0:0:0:0:
255,192,127438,1,0,0:0:0:0:
255,192,127519,1,8,0:0:0:0:
255,192,127842,1,0,0:0:0:0:
255,191,127922,1,0,0:0:0:0:
255,192,128003,1,8,0:0:0:0:
255,192,128164,1,8,0:0:0:0:
255,192,128245,1,0,0:0:0:0:
255,192,128325,1,8,0:0:0:0:
255,192,128487,1,0,0:0:0:0:
255,192,128648,1,0,0:0:0:0:
255,192,128729,1,0,0:0:0:0:
255,192,128809,1,8,0:0:0:0:
255,192,129132,1,0,0:0:0:0:
255,192,129293,1,8,0:0:0:0:
255,192,129374,1,0,0:0:0:0:
255,192,129454,1,0,0:0:0:0:
255,191,129535,1,0,0:0:0:0:
255,191,129616,1,8,0:0:0:0:
255,191,129938,1,8,0:0:0:0:
255,191,130100,1,0,0:0:0:0:
255,191,130422,1,0,0:0:0:0:
255,191,130583,1,8,0:0:0:0:
256,192,130745,1,0,0:0:0:0:
256,192,130825,1,0,0:0:0:0:
255,191,130906,1,8,0:0:0:0:
255,191,131067,1,0,0:0:0:0:
255,191,131229,1,0,0:0:0:0:
255,191,131390,1,0,0:0:0:0:
255,191,131551,1,8,0:0:0:0:
255,191,131632,1,8,0:0:0:0:
255,191,131713,1,8,0:0:0:0:
255,191,131793,1,0,0:0:0:0:
255,191,131874,1,8,0:0:0:0:
255,192,131954,1,0,0:0:0:0:
255,192,132035,1,0,0:0:0:0:
255,192,132116,1,0,0:0:0:0:
255,192,132196,1,12,0:0:0:0:
255,192,132519,1,0,0:0:0:0:
255,192,132842,1,0,0:0:0:0:
255,192,133164,1,0,0:0:0:0:
255,192,133487,1,0,0:0:0:0:
255,192,133809,1,0,0:0:0:0:
255,192,134132,1,0,0:0:0:0:
255,192,134454,1,0,0:0:0:0:
255,192,134777,1,0,0:0:0:0:
255,192,135100,1,0,0:0:0:0:
255,192,135422,1,0,0:0:0:0:
255,192,135745,1,0,0:0:0:0:
255,192,135906,1,0,0:0:0:0:
255,192,136067,1,8,0:0:0:0:
255,192,136229,1,8,0:0:0:0:
255,192,136309,1,0,0:0:0:0:
255,192,136390,1,0,0:0:0:0:
255,192,136551,1,8,0:0:0:0:
255,192,136632,1,8,0:0:0:0:
255,192,136713,1,0,0:0:0:0:
255,192,136874,1,8,0:0:0:0:
255,192,137035,1,0,0:0:0:0:
255,192,137116,1,8,0:0:0:0:
255,192,137196,1,8,0:0:0:0:
255,192,137277,1,0,0:0:0:0:
255,192,137358,1,12,0:0:0:0:
255,192,137680,1,0,0:0:0:0:
255,192,137842,1,0,0:0:0:0:
255,191,138164,1,8,0:0:0:0:
255,192,138487,1,0,0:0:0:0:
255,192,138648,1,4,0:0:0:0:
256,191,139616,1,8,0:0:0:0:
256,191,139696,1,8,0:0:0:0:
256,191,139777,1,8,0:0:0:0:
256,191,139858,1,0,0:0:0:0:
255,192,139938,1,12,0:0:0:0:
255,192,140100,1,0,0:0:0:0:
255,192,140261,1,0,0:0:0:0:
255,192,140422,1,12,0:0:0:0:
255,192,140583,1,0,0:0:0:0:
255,192,140745,1,0,0:0:0:0:
255,192,140825,1,0,0:0:0:0:
255,192,140906,1,8,0:0:0:0:
255,192,141067,1,8,0:0:0:0:
255,192,141229,1,0,0:0:0:0:
255,192,141713,1,0,0:0:0:0:
255,192,142196,1,0,0:0:0:0:
255,192,142277,1,0,0:0:0:0:
255,192,142358,1,0,0:0:0:0:
255,192,142438,1,0,0:0:0:0:
256,191,142519,1,12,0:0:0:0:
255,192,142680,1,0,0:0:0:0:
255,192,142761,1,0,0:0:0:0:
256,191,142842,1,0,0:0:0:0:
256,192,143003,1,0,0:0:0:0:
256,192,143164,1,8,0:0:0:0:
256,192,143325,1,0,0:0:0:0:
255,192,143406,1,0,0:0:0:0:
256,192,143487,1,8,0:0:0:0:
255,192,143567,1,8,0:0:0:0:
256,192,143648,1,8,0:0:0:0:
256,191,143729,1,0,0:0:0:0:
256,192,143809,1,8,0:0:0:0:
256,192,143971,1,0,0:0:0:0:
255,192,144051,1,0,0:0:0:0:
256,192,144132,1,8,0:0:0:0:
256,192,144293,1,0,0:0:0:0:
256,192,144454,1,8,0:0:0:0:
256,192,144535,1,8,0:0:0:0:
256,192,144616,1,0,0:0:0:0:
256,192,144696,1,0,0:0:0:0:
256,192,144777,1,8,0:0:0:0:
256,192,144938,1,0,0:0:0:0:
256,192,145100,1,8,0:0:0:0:
256,192,145180,1,8,0:0:0:0:
256,192,145261,1,0,0:0:0:0:
256,192,145342,1,0,0:0:0:0:
256,192,145422,1,8,0:0:0:0:
256,192,145583,1,0,0:0:0:0:
255,192,145745,1,0,0:0:0:0:
255,192,145906,1,0,0:0:0:0:
255,192,145987,1,0,0:0:0:0:
255,192,146067,1,8,0:0:0:0:
255,192,146229,1,0,0:0:0:0:
255,192,146390,1,8,0:0:0:0:
255,192,146471,1,8,0:0:0:0:
255,192,146551,1,8,0:0:0:0:
256,192,146632,1,0,0:0:0:0:
256,192,146713,1,8,0:0:0:0:
255,192,146874,1,4,0:0:0:0:
255,192,147196,1,4,0:0:0:0:
255,192,147519,1,0,0:0:0:0:
255,192,147600,1,0,0:0:0:0:
255,192,147680,1,12,0:0:0:0:
255,191,147842,1,0,0:0:0:0:
255,191,148003,1,8,0:0:0:0:
255,191,148164,1,0,0:0:0:0:
255,192,148325,1,8,0:0:0:0:
255,192,148406,1,0,0:0:0:0:
256,191,148487,1,0,0:0:0:0:
255,191,148567,1,8,0:0:0:0:
256,192,148648,1,8,0:0:0:0:
255,191,148809,1,0,0:0:0:0:
255,191,148971,1,8,0:0:0:0:
255,191,149051,1,8,0:0:0:0:
255,191,149132,1,0,0:0:0:0:
255,192,149213,1,0,0:0:0:0:
255,192,149293,1,8,0:0:0:0:
255,192,149454,1,0,0:0:0:0:
255,192,149616,1,8,0:0:0:0:
256,191,149696,1,8,0:0:0:0:
255,192,149777,1,0,0:0:0:0:
255,192,149858,1,0,0:0:0:0:
255,192,149938,1,8,0:0:0:0:
255,192,150100,1,0,0:0:0:0:
255,191,150261,1,8,0:0:0:0:
255,192,150342,1,0,0:0:0:0:
255,191,150422,1,0,0:0:0:0:
255,191,150583,1,8,0:0:0:0:
255,192,150745,1,8,0:0:0:0:
255,192,150825,1,0,0:0:0:0:
255,192,150906,1,8,0:0:0:0:
255,192,151067,1,8,0:0:0:0:
255,192,151148,1,8,0:0:0:0:
255,192,151229,1,0,0:0:0:0:
255,192,151390,1,8,0:0:0:0:
255,192,151470,1,0,0:0:0:0:
255,192,151551,1,0,0:0:0:0:
255,191,151713,1,8,0:0:0:0:
255,191,151874,1,0,0:0:0:0:
255,191,152035,1,8,0:0:0:0:
255,191,152196,1,0,0:0:0:0:
255,192,152277,1,0,0:0:0:0:
255,192,152358,1,8,0:0:0:0:
255,192,152438,1,8,0:0:0:0:
255,192,152519,1,8,0:0:0:0:
255,192,152600,1,0,0:0:0:0:
255,192,152680,1,8,0:0:0:0:
255,192,152761,1,8,0:0:0:0:
255,192,152842,1,4,0:0:0:0:
256,191,153164,1,8,0:0:0:0:
255,192,153325,1,0,0:0:0:0:
255,192,153406,1,0,0:0:0:0:
256,191,153487,1,0,0:0:0:0:
256,192,153648,1,0,0:0:0:0:
256,192,153809,1,8,0:0:0:0:
256,192,153971,1,0,0:0:0:0:
256,191,154051,1,0,0:0:0:0:
256,192,154132,1,8,0:0:0:0:
256,192,154293,1,0,0:0:0:0:
255,192,154374,1,0,0:0:0:0:
256,192,154454,1,8,0:0:0:0:
256,192,154616,1,0,0:0:0:0:
256,192,154777,1,8,0:0:0:0:
256,192,154858,1,8,0:0:0:0:
256,192,154938,1,8,0:0:0:0:
256,192,155019,1,0,0:0:0:0:
256,192,155100,1,8,0:0:0:0:
256,192,155180,1,8,0:0:0:0:
256,192,155261,1,0,0:0:0:0:
256,192,155422,1,8,0:0:0:0:
256,192,155503,1,8,0:0:0:0:
256,192,155583,1,8,0:0:0:0:
256,192,155664,1,0,0:0:0:0:
256,192,155745,1,8,0:0:0:0:
256,192,155906,1,0,0:0:0:0:
255,192,156067,1,0,0:0:0:0:
255,192,156229,1,0,0:0:0:0:
255,192,156390,1,8,0:0:0:0:
255,192,156551,1,0,0:0:0:0:
256,192,156713,1,8,0:0:0:0:
256,192,156793,1,8,0:0:0:0:
256,192,156874,1,8,0:0:0:0:
255,192,156954,1,8,0:0:0:0:
256,192,157035,1,0,0:0:0:0:
256,192,157116,1,0,0:0:0:0:
256,192,157196,1,12,0:0:0:0:
256,192,157358,1,0,0:0:0:0:
255,192,157519,1,12,0:0:0:0:
255,192,157680,1,0,0:0:0:0:
255,192,157842,1,12,0:0:0:0:
255,192,158003,1,0,0:0:0:0:
256,192,158164,1,0,0:0:0:0:
256,192,158325,1,8,0:0:0:0:
255,192,158487,1,0,0:0:0:0:
255,192,158567,1,0,0:0:0:0:
255,192,158648,1,8,0:0:0:0:
255,192,158809,1,0,0:0:0:0:
255,192,158971,1,8,0:0:0:0:
255,192,159051,1,0,0:0:0:0:
255,192,159132,1,0,0:0:0:0:
255,192,159293,1,8,0:0:0:0:
255,192,159374,1,8,0:0:0:0:
255,192,159454,1,8,0:0:0:0:
255,192,159535,1,0,0:0:0:0:
255,192,159616,1,8,0:0:0:0:
255,192,159777,1,0,0:0:0:0:
255,192,159938,1,8,0:0:0:0:
255,192,160019,1,8,0:0:0:0:
255,192,160100,1,8,0:0:0:0:
255,192,160180,1,0,0:0:0:0:
255,192,160261,1,8,0:0:0:0:
255,192,160342,1,8,0:0:0:0:
255,192,160422,1,0,0:0:0:0:
255,192,160503,1,0,0:0:0:0:
255,192,160583,1,0,0:0:0:0:
256,191,160906,1,0,0:0:0:0:
256,192,161067,1,0,0:0:0:0:
256,192,161148,1,0,0:0:0:0:
256,192,161229,1,8,0:0:0:0:
255,192,161390,1,0,0:0:0:0:
255,191,161551,1,8,0:0:0:0:
255,191,161713,1,12,0:0:0:0:
255,192,162035,1,8,0:0:0:0:
255,192,162116,1,8,0:0:0:0:
255,192,162196,1,0,0:0:0:0:
255,192,162277,1,0,0:0:0:0:
255,192,162358,1,8,0:0:0:0:
255,192,162680,1,8,0:0:0:0:
255,192,162842,1,8,0:0:0:0:
255,192,163003,1,8,0:0:0:0:
255,192,163083,1,0,0:0:0:0:
255,192,163164,1,12,0:0:0:0:
255,192,163487,1,0,0:0:0:0:
255,192,163648,1,0,0:0:0:0:
255,192,163729,1,0,0:0:0:0:
255,192,163809,1,0,0:0:0:0:
255,192,163971,1,12,0:0:0:0:
255,192,164293,1,12,0:0:0:0:
255,192,164777,1,8,0:0:0:0:
255,192,164938,1,8,0:0:0:0:
255,192,165019,1,8,0:0:0:0:
255,192,165100,1,0,0:0:0:0:
255,192,165261,1,8,0:0:0:0:
255,192,165342,1,8,0:0:0:0:
255,192,165422,1,0,0:0:0:0:
255,192,165503,1,8,0:0:0:0:
255,192,165583,1,8,0:0:0:0:
255,192,165745,1,8,0:0:0:0:
255,192,165825,1,8,0:0:0:0:
256,192,165906,1,0,0:0:0:0:
255,192,165987,1,0,0:0:0:0:
256,192,166067,1,8,0:0:0:0:
256,192,166148,1,8,0:0:0:0:
256,192,166229,1,0,0:0:0:0:
256,192,166309,1,0,0:0:0:0:
256,192,166390,1,8,0:0:0:0:
256,192,166471,1,8,0:0:0:0:
256,192,166551,1,8,0:0:0:0:
256,192,166632,1,0,0:0:0:0:
256,192,166713,1,8,0:0:0:0:
256,192,166793,1,0,0:0:0:0:
256,192,166874,1,0,0:0:0:0:
256,192,166954,1,0,0:0:0:0:
256,192,167035,1,8,0:0:0:0:
256,192,167196,1,0,0:0:0:0:
256,192,167277,1,0,0:0:0:0:
256,192,167358,1,8,0:0:0:0:
256,192,167438,1,0,0:0:0:0:
256,192,167519,1,0,0:0:0:0:
256,192,167600,1,0,0:0:0:0:
256,192,167680,1,8,0:0:0:0:
256,192,167761,1,8,0:0:0:0:
256,192,167842,1,0,0:0:0:0:
256,192,167922,1,0,0:0:0:0:
256,192,168003,1,8,0:0:0:0:
256,192,168083,1,8,0:0:0:0:
256,192,168164,1,8,0:0:0:0:
256,192,168245,1,0,0:0:0:0:
256,192,168325,1,8,0:0:0:0:
256,192,168487,1,0,0:0:0:0:
255,192,168648,1,8,0:0:0:0:
255,192,168729,1,8,0:0:0:0:
255,192,168809,1,0,0:0:0:0:
255,192,168971,1,0,0:0:0:0:
255,191,169132,1,0,0:0:0:0:
255,191,169293,1,8,0:0:0:0:
255,191,169374,1,8,0:0:0:0:
255,191,169454,1,0,0:0:0:0:
255,191,169616,1,12,0:0:0:0:
255,191,169938,1,0,0:0:0:0:
255,191,170100,1,12,0:0:0:0:
255,191,170261,1,0,0:0:0:0:
255,191,170422,1,12,0:0:0:0:
255,191,170583,1,0,0:0:0:0:
255,191,170745,1,12,0:0:0:0:
255,191,170906,1,4,0:0:0:0:
255,191,171229,1,8,0:0:0:0:
255,191,171390,1,4,0:0:0:0:
255,191,171713,1,8,0:0:0:0:
255,191,171874,1,4,0:0:0:0:
255,191,172196,1,0,0:0:0:0:
255,191,172358,1,12,0:0:0:0:
255,191,172519,1,0,0:0:0:0:
255,191,172680,1,0,0:0:0:0:
255,191,172761,1,0,0:0:0:0:
255,191,172842,1,0,0:0:0:0:
255,191,173003,1,0,0:0:0:0:
255,191,173164,1,8,0:0:0:0:
255,191,173245,1,8,0:0:0:0:
255,191,173325,1,0,0:0:0:0:
255,191,173406,1,0,0:0:0:0:
255,191,173487,1,12,0:0:0:0:
255,191,173809,1,0,0:0:0:0:
255,191,173971,1,12,0:0:0:0:
255,191,174293,1,0,0:0:0:0:
255,191,174454,1,12,0:0:0:0:
255,191,174616,1,0,0:0:0:0:
255,191,174938,1,8,0:0:0:0:
255,191,175100,1,8,0:0:0:0:
255,191,175261,1,0,0:0:0:0:
255,191,175342,1,0,0:0:0:0:
255,191,175422,1,0,0:0:0:0:
255,191,175583,1,0,0:0:0:0:
255,191,175745,1,8,0:0:0:0:
255,191,175825,1,8,0:0:0:0:
255,191,175906,1,8,0:0:0:0:
255,191,175987,1,0,0:0:0:0:
255,191,176067,1,12,0:0:0:0:
255,191,176390,1,0,0:0:0:0:
255,191,176551,1,0,0:0:0:0:
255,191,177035,1,0,0:0:0:0:
255,191,177358,1,0,0:0:0:0:
255,191,177519,1,0,0:0:0:0:
255,191,177680,1,8,0:0:0:0:
255,191,177842,1,0,0:0:0:0:
255,191,178003,1,8,0:0:0:0:
255,191,178164,1,8,0:0:0:0:
255,191,178325,1,0,0:0:0:0:
255,192,178487,1,0,0:0:0:0:
255,192,178540,1,0,0:0:0:0:
255,192,178594,1,0,0:0:0:0:
255,192,178648,1,12,0:0:0:0:
256,192,178971,8,0,181229,0:0:0:0:
255,192,188971,5,0,0:0:0:0:
255,192,189293,1,8,0:0:0:0:
255,192,189454,1,8,0:0:0:0:
255,192,189616,1,8,0:0:0:0:
255,192,190261,1,0,0:0:0:0:
255,192,190422,1,12,0:0:0:0:
255,192,190583,1,0,0:0:0:0:
255,192,190745,1,0,0:0:0:0:
255,192,190906,1,8,0:0:0:0:
255,192,191067,1,0,0:0:0:0:
255,192,191229,1,0,0:0:0:0:
255,192,191390,1,0,0:0:0:0:
255,192,191551,1,12,0:0:0:0:
255,192,191874,1,0,0:0:0:0:
255,192,192035,1,0,0:0:0:0:
255,192,192196,1,8,0:0:0:0:
255,192,192358,1,0,0:0:0:0:
255,192,192680,1,0,0:0:0:0:
255,192,192842,1,8,0:0:0:0:
255,192,193003,1,8,0:0:0:0:
255,192,193164,1,0,0:0:0:0:
255,192,193325,1,0,0:0:0:0:
255,192,193487,1,0,0:0:0:0:
255,192,193648,1,8,0:0:0:0:
255,192,193809,1,8,0:0:0:0:
255,192,193971,1,0,0:0:0:0:
255,192,194132,1,12,0:0:0:0:
255,191,194454,1,0,0:0:0:0:
255,191,194777,1,0,0:0:0:0:
255,191,195100,1,0,0:0:0:0:
255,191,195422,1,12,0:0:0:0:
255,192,195745,1,0,0:0:0:0:
255,192,195906,1,0,0:0:0:0:
255,192,196067,1,8,0:0:0:0:
255,192,196229,1,0,0:0:0:0:
255,192,196390,1,0,0:0:0:0:
255,192,196551,1,8,0:0:0:0:
255,192,196713,1,0,0:0:0:0:
255,192,196874,1,8,0:0:0:0:
255,192,197035,1,0,0:0:0:0:
255,192,197196,1,8,0:0:0:0:
255,192,197277,1,8,0:0:0:0:
255,192,197358,1,0,0:0:0:0:
255,192,197680,1,8,0:0:0:0:
255,192,197842,1,8,0:0:0:0:
255,192,198003,1,0,0:0:0:0:
255,192,198164,1,8,0:0:0:0:
255,192,198245,1,8,0:0:0:0:
255,192,198325,1,0,0:0:0:0:
255,192,198487,1,8,0:0:0:0:
255,192,198648,1,0,0:0:0:0:
255,192,198809,1,0,0:0:0:0:
255,192,198971,1,8,0:0:0:0:
255,192,199293,1,8,0:0:0:0:
255,192,199616,1,0,0:0:0:0:
255,192,199777,1,8,0:0:0:0:
255,192,199938,1,8,0:0:0:0:
255,192,200100,1,0,0:0:0:0:
255,192,200180,1,0,0:0:0:0:
255,192,200261,1,8,0:0:0:0:
255,192,200422,1,0,0:0:0:0:
255,192,200583,1,8,0:0:0:0:
255,192,200745,1,0,0:0:0:0:
255,192,200906,1,0,0:0:0:0:
255,192,200987,1,0,0:0:0:0:
255,192,201067,1,8,0:0:0:0:
255,192,201390,1,8,0:0:0:0:
255,192,201551,1,0,0:0:0:0:
255,192,201713,1,0,0:0:0:0:
255,192,201874,1,12,0:0:0:0:
255,192,202196,1,0,0:0:0:0:
255,192,202358,1,0,0:0:0:0:
255,192,202438,1,0,0:0:0:0:
255,192,202519,1,0,0:0:0:0:
255,192,202842,1,0,0:0:0:0:
255,192,203003,1,0,0:0:0:0:
255,192,203164,1,8,0:0:0:0:
255,192,203325,1,0,0:0:0:0:
255,192,203487,1,0,0:0:0:0:
255,192,203648,1,0,0:0:0:0:
255,192,203729,1,0,0:0:0:0:
255,192,203809,1,8,0:0:0:0:
255,192,203971,1,8,0:0:0:0:
255,192,204132,1,8,0:0:0:0:
255,192,204293,1,0,0:0:0:0:
255,192,204374,1,0,0:0:0:0:
255,192,204454,1,12,0:0:0:0:
256,192,204616,8,0,206713,0:0:0:0:
255,192,207035,5,8,0:0:0:0:
255,192,207358,1,8,0:0:0:0:
255,192,207519,1,0,0:0:0:0:
255,192,207842,1,8,0:0:0:0:
255,192,208003,1,0,0:0:0:0:
255,192,208325,1,0,0:0:0:0:
255,192,208487,1,8,0:0:0:0:
255,192,208648,1,8,0:0:0:0:
255,192,208809,1,0,0:0:0:0:
255,192,208971,1,8,0:0:0:0:
255,192,209132,1,8,0:0:0:0:
255,192,209293,1,0,0:0:0:0:
255,192,209454,1,0,0:0:0:0:
255,192,209616,1,8,0:0:0:0:
255,192,209777,1,0,0:0:0:0:
255,192,209938,1,0,0:0:0:0:
255,192,210100,1,8,0:0:0:0:
255,192,210583,1,0,0:0:0:0:
255,191,211067,1,8,0:0:0:0:
255,191,211229,1,8,0:0:0:0:
255,191,211551,1,8,0:0:0:0:
255,191,211713,1,0,0:0:0:0:
255,191,211793,1,0,0:0:0:0:
255,191,211874,1,0,0:0:0:0:
255,191,212035,1,0,0:0:0:0:
255,191,212116,1,0,0:0:0:0:
255,191,212196,1,12,0:0:0:0:
255,192,212519,1,0,0:0:0:0:
255,192,212600,1,0,0:0:0:0:
255,192,212680,1,12,0:0:0:0:
255,192,212842,1,0,0:0:0:0:
255,192,213003,1,0,0:0:0:0:
255,192,213083,1,0,0:0:0:0:
255,192,213164,1,12,0:0:0:0:
255,192,213325,1,0,0:0:0:0:
255,192,213487,1,0,0:0:0:0:
255,192,213648,1,8,0:0:0:0:
255,192,213809,1,0,0:0:0:0:
255,192,213971,1,8,0:0:0:0:
255,192,214132,1,0,0:0:0:0:
255,192,214293,1,0,0:0:0:0:
255,192,214454,1,0,0:0:0:0:
255,192,214616,1,0,0:0:0:0:
255,192,214696,1,0,0:0:0:0:
255,192,214777,1,8,0:0:0:0:
255,192,215100,1,0,0:0:0:0:
255,192,215261,1,0,0:0:0:0:
255,192,215422,1,0,0:0:0:0:
255,192,215583,1,8,0:0:0:0:
255,192,215745,1,0,0:0:0:0:
255,192,215906,1,0,0:0:0:0:
255,192,215987,1,0,0:0:0:0:
255,192,216067,1,8,0:0:0:0:
255,192,216390,1,0,0:0:0:0:
255,192,216551,1,0,0:0:0:0:
255,192,216712,1,0,0:0:0:0:
255,192,216873,1,8,0:0:0:0:
255,192,217035,1,8,0:0:0:0:
255,192,217116,1,8,0:0:0:0:
255,192,217196,1,8,0:0:0:0:
255,192,217277,1,0,0:0:0:0:
255,192,217358,1,8,0:0:0:0:
255,192,217519,1,0,0:0:0:0:
255,192,217681,1,0,0:0:0:0:
255,192,217842,1,8,0:0:0:0:
255,192,218003,1,0,0:0:0:0:
255,192,218164,1,0,0:0:0:0:
255,192,218325,1,8,0:0:0:0:
255,192,218406,1,0,0:0:0:0:
255,192,218487,1,0,0:0:0:0:
255,192,218567,1,0,0:0:0:0:
255,192,218648,1,8,0:0:0:0:
255,192,218809,1,0,0:0:0:0:
255,192,218971,1,8,0:0:0:0:
255,192,219132,1,0,0:0:0:0:
255,192,219293,1,8,0:0:0:0:
255,192,219454,1,0,0:0:0:0:
255,192,219535,1,0,0:0:0:0:
255,192,219616,1,8,0:0:0:0:
255,192,219696,1,8,0:0:0:0:
255,192,219777,1,8,0:0:0:0:
255,192,219858,1,0,0:0:0:0:
255,192,219938,1,12,0:0:0:0:
255,192,220099,1,0,0:0:0:0:
255,192,220261,1,0,0:0:0:0:
255,192,220342,1,0,0:0:0:0:
255,192,220422,1,12,0:0:0:0:
255,192,220745,1,0,0:0:0:0:
255,192,220826,1,0,0:0:0:0:
255,192,220906,1,12,0:0:0:0:
255,192,221067,1,0,0:0:0:0:
255,192,221229,1,0,0:0:0:0:
255,192,221390,1,8,0:0:0:0:
255,192,221471,1,8,0:0:0:0:
255,192,221551,1,8,0:0:0:0:
255,192,221713,1,0,0:0:0:0:
255,192,221874,1,8,0:0:0:0:
255,192,222035,1,0,0:0:0:0:
255,191,222116,1,0,0:0:0:0:
255,192,222197,1,8,0:0:0:0:
255,192,222277,1,8,0:0:0:0:
255,192,222358,1,8,0:0:0:0:
255,192,222438,1,0,0:0:0:0:
255,192,222519,1,12,0:0:0:0:
255,192,222681,1,12,0:0:0:0:
255,192,223003,1,12,0:0:0:0:
255,192,223165,1,12,0:0:0:0:
255,192,223487,1,0,0:0:0:0:
255,192,223648,1,0,0:0:0:0:
255,192,223809,1,8,0:0:0:0:
255,192,224293,1,0,0:0:0:0:
255,192,224777,1,0,0:0:0:0:
255,192,225100,1,12,0:0:0:0:
255,192,226067,1,0,0:0:0:0:
255,192,226229,1,0,0:0:0:0:
255,192,226390,1,8,0:0:0:0:
255,192,226713,1,8,0:0:0:0:
255,192,227035,1,0,0:0:0:0:
255,192,227519,1,0,0:0:0:0:
255,192,227680,1,12,0:0:0:0:
255,192,228648,1,0,0:0:0:0:
255,192,228809,1,0,0:0:0:0:
255,192,228971,1,12,0:0:0:0:
255,192,229132,1,8,0:0:0:0:
255,192,229213,1,0,0:0:0:0:
255,192,229293,1,0,0:0:0:0:
255,192,229454,1,8,0:0:0:0:
255,192,229777,1,8,0:0:0:0:
255,192,230261,1,4,0:0:0:0:
255,192,230422,1,8,0:0:0:0:
255,192,230503,1,0,0:0:0:0:
255,192,230583,1,8,0:0:0:0:
255,192,230745,1,0,0:0:0:0:
255,192,230825,1,0,0:0:0:0:
255,192,230906,1,8,0:0:0:0:
255,192,231067,1,0,0:0:0:0:
255,192,231148,1,0,0:0:0:0:
255,192,231229,1,8,0:0:0:0:
255,192,231390,1,8,0:0:0:0:
255,192,231471,1,8,0:0:0:0:
255,192,231551,1,0,0:0:0:0:
255,192,231713,1,8,0:0:0:0:
255,192,231793,1,8,0:0:0:0:
255,192,231874,1,0,0:0:0:0:
255,192,232035,1,8,0:0:0:0:
255,192,232116,1,0,0:0:0:0:
255,192,232196,1,8,0:0:0:0:
255,192,232277,1,8,0:0:0:0:
255,192,232358,1,8,0:0:0:0:
255,192,232438,1,0,0:0:0:0:
255,192,232519,1,8,0:0:0:0:
255,192,232600,1,8,0:0:0:0:
255,192,232680,1,0,0:0:0:0:
255,192,232761,1,0,0:0:0:0:
256,191,232842,1,8,0:0:0:0:
256,191,233003,1,0,0:0:0:0:
256,191,233083,1,0,0:0:0:0:
256,191,233164,1,8,0:0:0:0:
256,191,233325,1,0,0:0:0:0:
255,191,233406,1,0,0:0:0:0:
256,191,233487,1,8,0:0:0:0:
256,191,233567,1,8,0:0:0:0:
256,191,233648,1,0,0:0:0:0:
256,191,233809,1,8,0:0:0:0:
256,192,233890,1,0,0:0:0:0:
256,191,233971,1,8,0:0:0:0:
256,192,234051,1,8,0:0:0:0:
256,191,234132,1,0,0:0:0:0:
255,191,234454,1,8,0:0:0:0:
255,191,234535,1,8,0:0:0:0:
255,191,234616,1,0,0:0:0:0:
255,191,234777,1,0,0:0:0:0:
255,192,234858,1,0,0:0:0:0:
255,192,234938,1,8,0:0:0:0:
255,192,235019,1,8,0:0:0:0:
255,192,235100,1,8,0:0:0:0:
255,192,235180,1,0,0:0:0:0:
255,192,235261,1,8,0:0:0:0:
255,192,235342,1,8,0:0:0:0:
255,192,235422,1,0,0:0:0:0:
256,191,235745,1,12,0:0:0:0:
255,192,235906,1,0,0:0:0:0:
255,192,235987,1,0,0:0:0:0:
256,191,236067,1,0,0:0:0:0:
256,192,236229,1,0,0:0:0:0:
256,192,236390,1,8,0:0:0:0:
256,192,236551,1,0,0:0:0:0:
256,191,236632,1,0,0:0:0:0:
256,192,236713,1,8,0:0:0:0:
256,192,236874,1,0,0:0:0:0:
255,192,236954,1,0,0:0:0:0:
256,192,237035,1,8,0:0:0:0:
256,192,237196,1,0,0:0:0:0:
256,192,237358,1,8,0:0:0:0:
256,192,237438,1,0,0:0:0:0:
256,192,237519,1,0,0:0:0:0:
256,192,237600,1,0,0:0:0:0:
256,192,237680,1,8,0:0:0:0:
256,192,237761,1,8,0:0:0:0:
256,192,237842,1,0,0:0:0:0:
256,192,238003,1,8,0:0:0:0:
256,192,238083,1,8,0:0:0:0:
256,192,238164,1,8,0:0:0:0:
256,192,238245,1,0,0:0:0:0:
256,192,238325,1,8,0:0:0:0:
256,192,238487,1,0,0:0:0:0:
255,192,238648,1,0,0:0:0:0:
255,192,238809,1,0,0:0:0:0:
255,192,238971,1,8,0:0:0:0:
255,192,239132,1,0,0:0:0:0:
256,192,239293,1,8,0:0:0:0:
256,192,239374,1,8,0:0:0:0:
256,192,239454,1,0,0:0:0:0:
255,192,239535,1,0,0:0:0:0:
256,192,239616,1,8,0:0:0:0:
256,192,239696,1,0,0:0:0:0:
256,192,239777,1,12,0:0:0:0:
256,192,239938,1,0,0:0:0:0:
255,192,240100,1,12,0:0:0:0:
255,192,240261,1,0,0:0:0:0:
255,192,240422,1,12,0:0:0:0:
255,192,240583,1,0,0:0:0:0:
256,192,240745,1,0,0:0:0:0:
256,192,240906,1,8,0:0:0:0:
255,192,241067,1,0,0:0:0:0:
255,192,241148,1,0,0:0:0:0:
255,192,241229,1,8,0:0:0:0:
255,192,241390,1,0,0:0:0:0:
255,192,241551,1,8,0:0:0:0:
255,192,241632,1,0,0:0:0:0:
255,192,241713,1,0,0:0:0:0:
255,192,241874,1,8,0:0:0:0:
255,191,241954,1,0,0:0:0:0:
255,192,242035,1,0,0:0:0:0:
255,192,242116,1,0,0:0:0:0:
255,192,242196,1,8,0:0:0:0:
255,192,242358,1,0,0:0:0:0:
255,192,242519,1,8,0:0:0:0:
255,192,242600,1,0,0:0:0:0:
255,192,242680,1,0,0:0:0:0:
255,192,242761,1,0,0:0:0:0:
255,192,242842,1,8,0:0:0:0:
255,192,242922,1,0,0:0:0:0:
255,192,243003,1,8,0:0:0:0:
255,192,243083,1,8,0:0:0:0:
255,192,243164,1,0,0:0:0:0:
256,191,243487,1,0,0:0:0:0:
256,192,243648,1,0,0:0:0:0:
256,192,243729,1,0,0:0:0:0:
256,192,243809,1,8,0:0:0:0:
255,192,243971,1,0,0:0:0:0:
255,191,244132,1,0,0:0:0:0:
255,191,244293,1,12,0:0:0:0:
255,192,244616,1,8,0:0:0:0:
255,192,244696,1,8,0:0:0:0:
255,192,244777,1,0,0:0:0:0:
255,192,244858,1,8,0:0:0:0:
255,192,244938,1,8,0:0:0:0:
255,192,245261,1,8,0:0:0:0:
255,192,245422,1,8,0:0:0:0:
255,192,245583,1,8,0:0:0:0:
255,192,245664,1,0,0:0:0:0:
255,192,245745,1,12,0:0:0:0:
255,192,246067,1,0,0:0:0:0:
255,192,246229,1,0,0:0:0:0:
255,192,246309,1,0,0:0:0:0:
255,192,246390,1,0,0:0:0:0:
255,192,246551,1,12,0:0:0:0:
255,192,246874,1,12,0:0:0:0:
256,192,247035,8,0,248164,0:0:0:0:
256,192,248325,5,12,0:0:0:0:
255,192,248487,1,0,0:0:0:0:
255,192,248648,1,0,0:0:0:0:
256,192,248809,1,12,0:0:0:0:
255,192,248971,1,0,0:0:0:0:
255,192,249132,1,0,0:0:0:0:
256,192,249293,1,12,0:0:0:0:
255,192,249616,1,0,0:0:0:0:
255,192,249777,1,8,0:0:0:0:
255,192,249938,1,0,0:0:0:0:
255,192,250100,1,0,0:0:0:0:
255,192,250180,1,0,0:0:0:0:
255,191,250261,1,8,0:0:0:0:
255,192,250422,1,8,0:0:0:0:
255,192,250583,1,8,0:0:0:0:
255,192,250745,1,0,0:0:0:0:
255,192,250906,1,12,0:0:0:0:
255,192,251229,1,0,0:0:0:0:
255,192,251390,1,0,0:0:0:0:
255,192,251713,1,12,0:0:0:0:
255,192,252035,1,12,0:0:0:0:
255,192,253487,1,12,0:0:0:0:
255,192,253648,1,0,0:0:0:0:
255,192,253809,1,8,0:0:0:0:
256,192,253971,1,0,0:0:0:0:
256,192,254132,1,0,0:0:0:0:
255,192,254293,1,0,0:0:0:0:
255,192,254454,1,8,0:0:0:0:
255,192,254616,1,0,0:0:0:0:
256,192,254696,1,0,0:0:0:0:
255,192,254777,1,8,0:0:0:0:
255,192,254938,1,0,0:0:0:0:
255,192,255100,1,8,0:0:0:0:
255,192,255261,1,0,0:0:0:0:
255,191,255342,1,8,0:0:0:0:
255,192,255422,1,8,0:0:0:0:
255,192,255583,1,0,0:0:0:0:
255,192,255745,1,8,0:0:0:0:
255,192,255906,1,8,0:0:0:0:
255,192,256067,1,0,0:0:0:0:
255,192,256229,1,0,0:0:0:0:
255,192,256390,1,8,0:0:0:0:
255,192,256551,1,0,0:0:0:0:
255,191,256632,1,0,0:0:0:0:
255,192,256713,1,8,0:0:0:0:
255,192,256874,1,0,0:0:0:0:
255,192,257035,1,8,0:0:0:0:
255,192,257196,1,0,0:0:0:0:
255,191,257277,1,0,0:0:0:0:
256,192,257358,1,8,0:0:0:0:
256,192,257519,1,0,0:0:0:0:
255,192,257680,1,8,0:0:0:0:
255,192,257842,1,0,0:0:0:0:
255,192,257922,1,8,0:0:0:0:
255,192,258003,1,8,0:0:0:0:
255,192,258164,1,0,0:0:0:0:
255,192,258325,1,8,0:0:0:0:
255,192,258487,1,0,0:0:0:0:
255,192,258567,1,0,0:0:0:0:
255,192,258648,1,8,0:0:0:0:
255,192,258809,1,0,0:0:0:0:
255,192,258971,1,8,0:0:0:0:
255,192,259132,1,0,0:0:0:0:
255,192,259293,1,8,0:0:0:0:
255,192,259374,1,8,0:0:0:0:
255,192,259454,1,8,0:0:0:0:
255,192,259535,1,0,0:0:0:0:
255,192,259616,1,8,0:0:0:0:
255,192,259777,1,0,0:0:0:0:
255,192,259938,1,8,0:0:0:0:
255,192,260019,1,8,0:0:0:0:
255,192,260100,1,0,0:0:0:0:
255,192,260180,1,0,0:0:0:0:
255,191,260261,1,8,0:0:0:0:
255,191,260422,1,0,0:0:0:0:
255,191,260583,1,8,0:0:0:0:
255,192,260664,1,8,0:0:0:0:
255,191,260745,1,0,0:0:0:0:
255,192,260825,1,0,0:0:0:0:
255,191,260906,1,8,0:0:0:0:
256,192,261067,1,0,0:0:0:0:
256,192,261148,1,0,0:0:0:0:
256,192,261229,1,8,0:0:0:0:
255,192,261390,1,8,0:0:0:0:
255,191,261551,1,8,0:0:0:0:
255,191,261713,1,0,0:0:0:0:
255,192,261874,1,8,0:0:0:0:
255,192,262035,1,0,0:0:0:0:
256,192,262116,1,0,0:0:0:0:
256,192,262196,1,8,0:0:0:0:
255,191,262358,1,0,0:0:0:0:
255,192,262519,1,0,0:0:0:0:
255,192,262680,1,8,0:0:0:0:
255,192,262761,1,0,0:0:0:0:
256,192,262842,1,0,0:0:0:0:
256,192,263003,1,8,0:0:0:0:
256,192,263083,1,0,0:0:0:0:
256,192,263164,1,0,0:0:0:0:
256,192,263325,1,8,0:0:0:0:
256,192,263406,1,8,0:0:0:0:
256,192,263487,1,0,0:0:0:0:
256,192,263648,1,8,0:0:0:0:
256,192,263729,1,0,0:0:0:0:
255,192,263809,1,8,0:0:0:0:
255,192,263890,1,8,0:0:0:0:
255,192,263971,1,0,0:0:0:0:
255,192,264051,1,0,0:0:0:0:
255,192,264132,1,8,0:0:0:0:
255,192,264213,1,0,0:0:0:0:
255,192,264293,1,0,0:0:0:0:
255,192,264374,1,0,0:0:0:0:
255,192,264454,1,8,0:0:0:0:
255,192,264535,1,8,0:0:0:0:
255,192,264616,1,8,0:0:0:0:
255,192,264696,1,0,0:0:0:0:
255,192,264777,1,8,0:0:0:0:
255,192,264858,1,0,0:0:0:0:
255,192,264938,1,0,0:0:0:0:
255,192,265100,1,8,0:0:0:0:
255,192,265180,1,8,0:0:0:0:
255,192,265261,1,8,0:0:0:0:
255,192,265342,1,0,0:0:0:0:
255,192,265422,1,8,0:0:0:0:
255,192,265503,1,0,0:0:0:0:
255,192,265583,1,0,0:0:0:0:
255,192,265664,1,0,0:0:0:0:
255,192,265745,1,8,0:0:0:0:
255,192,265825,1,0,0:0:0:0:
255,192,265906,1,8,0:0:0:0:
255,192,265987,1,8,0:0:0:0:
255,192,266067,1,0,0:0:0:0:
255,192,266148,1,0,0:0:0:0:
255,192,266229,1,8,0:0:0:0:
255,192,266309,1,0,0:0:0:0:
255,192,266390,1,8,0:0:0:0:
256,192,266713,1,8,0:0:0:0:
256,192,266874,1,0,0:0:0:0:
255,191,266954,1,0,0:0:0:0:
256,192,267035,1,0,0:0:0:0:
256,192,267196,1,0,0:0:0:0:
256,192,267358,1,8,0:0:0:0:
255,191,267519,1,0,0:0:0:0:
255,192,267600,1,0,0:0:0:0:
255,191,267680,1,0,0:0:0:0:
255,192,267842,1,0,0:0:0:0:
255,192,268003,1,8,0:0:0:0:
255,192,268164,1,0,0:0:0:0:
255,192,268245,1,8,0:0:0:0:
255,192,268325,1,0,0:0:0:0:
255,192,268487,1,0,0:0:0:0:
255,192,268648,1,8,0:0:0:0:
255,191,268809,1,0,0:0:0:0:
255,192,268890,1,8,0:0:0:0:
255,192,268971,1,4,0:0:0:0:
255,192,269132,1,0,0:0:0:0:
255,192,269293,1,8,0:0:0:0:
255,192,269374,1,8,0:0:0:0:
255,192,269454,1,8,0:0:0:0:
255,192,269535,1,0,0:0:0:0:
255,192,269616,1,8,0:0:0:0:
255,192,269777,1,0,0:0:0:0:
255,192,269858,1,0,0:0:0:0:
255,192,269938,1,8,0:0:0:0:
255,192,270100,1,8,0:0:0:0:
255,192,270180,1,8,0:0:0:0:
255,192,270261,1,4,0:0:0:0:
255,192,270422,1,8,0:0:0:0:
255,192,270503,1,0,0:0:0:0:
255,192,270583,1,8,0:0:0:0:
256,192,270664,1,8,0:0:0:0:
255,192,270745,1,8,0:0:0:0:
256,192,270825,1,8,0:0:0:0:
255,192,270906,1,0,0:0:0:0:
255,192,271067,1,8,0:0:0:0:
255,192,271148,1,8,0:0:0:0:
255,192,271229,1,8,0:0:0:0:
255,192,271309,1,8,0:0:0:0:
255,192,271390,1,0,0:0:0:0:
255,192,271551,1,12,0:0:0:0:
255,192,271713,1,0,0:0:0:0:
255,192,271874,1,0,0:0:0:0:
255,192,272035,1,8,0:0:0:0:
255,192,272116,1,8,0:0:0:0:
255,192,272196,1,0,0:0:0:0:
255,192,272358,1,0,0:0:0:0:
255,192,272519,1,0,0:0:0:0:
255,192,272680,1,12,0:0:0:0:
256,192,272842,8,0,279293,0:0:0:0:
