osu file format v14

[General]
AudioFilename: audio.mp3
AudioLeadIn: 0
PreviewTime: 76885
Countdown: 0
SampleSet: Normal
StackLeniency: 0.7
Mode: 1
LetterboxInBreaks: 0
WidescreenStoryboard: 0

[Editor]
DistanceSpacing: 0.8
BeatDivisor: 4
GridSize: 16
TimelineZoom: 2.6

[Metadata]
Title:Euphorium
TitleUnicode:ユーフォリアム
Artist:Suzuyu
ArtistUnicode:鈴湯
Creator:Nao Tomori
Version:Snowni
Source:アストラエアの白き永遠 Finale -白き星の夢-
Tags:astral air no shiroki towa hoshi no yume dream of star snow white eternity visual novel eroge galgame galge video game japanese pop anime
BeatmapID:2882170
BeatmapSetID:1396488

[Difficulty]
HPDrainRate:5
CircleSize:5
OverallDifficulty:5.2
ApproachRate:5
SliderMultiplier:1.4
SliderTickRate:1

[Events]
//Background and Video events
0,0,"astral ar bg.jpg",0,75
//Break Periods
//Storyboard Layer 0 (Background)
//Storyboard Layer 1 (Fail)
//Storyboard Layer 2 (Pass)
//Storyboard Layer 3 (Foreground)
//Storyboard Layer 4 (Overlay)
//Storyboard Sound Samples

[TimingPoints]
1480,322.58064516129,4,1,0,42,1,0
1480,-125,4,1,0,42,0,0
6359,-117.647058823529,4,1,0,52,0,0
6439,-111.111111111111,4,1,0,52,0,0
6520,-105.263157894737,4,1,0,52,0,0
6600,-100,4,1,0,72,0,0
20754,-114.285714285714,4,1,0,52,0,0
22205,-121.951219512195,4,1,0,52,0,0
24383,-133.333333333333,4,1,0,52,0,0
34665,-131.578947368421,4,1,0,52,0,0
34746,-129.87012987013,4,1,0,52,0,0
34826,-128.205128205128,4,1,0,52,0,0
34907,-126.582278481013,4,1,0,52,0,0
34988,-125,4,1,0,62,0,0
35028,-125,4,1,0,62,0,0
44826,-121.212121212121,4,1,0,62,0,0
44988,-117.647058823529,4,1,0,62,0,0
45149,-114.285714285714,4,1,0,62,0,0
45310,-111.111111111111,4,1,0,67,0,0
72044,-133.333333333333,4,1,0,47,0,0
72340,-133.333333333333,4,1,0,57,0,0
73684,-100,4,1,0,77,0,0
75189,-133.333333333333,4,1,0,47,0,0
78818,-95.2380952380952,4,1,0,77,0,0
78899,-95.2380952380952,4,1,0,77,0,1
100673,-95.2380952380952,4,1,0,77,0,0
102125,-95.2380952380952,4,1,0,77,0,0
107286,-100,4,1,0,72,0,0
126721,-111.111111111111,4,1,0,62,0,0
126883,-115.340253748558,4,1,0,57,0,0
127044,-120.048019207683,4,1,0,57,0,0
127205,-125,4,1,0,57,0,0
127367,-130.548302872063,4,1,0,57,0,0
127528,-136.364256201165,4,1,0,57,0,0
127689,-133.333333333333,4,1,0,52,0,0
128092,-200,4,1,0,32,0,0

[HitObjects]
253,190,1480,5,0,0:0:0:0:
139,203,1802,1,8,0:0:0:0:
139,203,1963,1,0,0:0:0:0:
256,191,2125,1,8,0:0:0:0:
139,198,2447,1,0,0:0:0:0:
256,190,2770,1,0,0:0:0:0:
139,198,3092,1,8,0:0:0:0:
139,198,3254,1,0,0:0:0:0:
256,190,3415,1,8,0:0:0:0:
139,198,3576,1,8,0:0:0:0:
139,198,3738,1,0,0:0:0:0:
257,189,4060,1,8,0:0:0:0:
139,197,4383,1,0,0:0:0:0:
139,197,4544,1,0,0:0:0:0:
257,189,4705,1,8,0:0:0:0:
139,197,5028,1,0,0:0:0:0:
257,188,5350,1,8,0:0:0:0:
139,196,5512,1,8,0:0:0:0:
194,90,5673,1,0,0:0:0:0:
257,188,5834,1,8,0:0:0:0:
257,187,6318,1,0,0:0:0:0:
256,100,6399,1,0,0:0:0:0:
339,134,6479,1,0,0:0:0:0:
339,134,6560,1,0,0:0:0:0:
366,159,6641,1,12,0:0:0:0:
132,121,6963,1,8,0:0:0:0:
132,121,7125,1,0,0:0:0:0:
139,131,7447,1,0,0:0:0:0:
163,74,7770,1,4,0:0:0:0:
329,119,8092,1,0,0:0:0:0:
228,146,8173,1,0,0:0:0:0:
228,146,8254,1,8,0:0:0:0:
228,146,8415,1,8,0:0:0:0:
236,78,8576,1,8,0:0:0:0:
190,92,8738,1,0,0:0:0:0:
185,96,8899,1,0,0:0:0:0:
228,146,9060,1,0,0:0:0:0:
228,146,9221,1,12,0:0:0:0:
292,156,9544,1,0,0:0:0:0:
291,161,9625,1,0,0:0:0:0:
291,167,9705,1,8,0:0:0:0:
258,166,9867,1,0,0:0:0:0:
275,177,10028,1,0,0:0:0:0:
275,177,10109,1,8,0:0:0:0:
275,177,10189,1,8,0:0:0:0:
275,177,10350,1,4,0:0:0:0:
209,186,10673,1,0,0:0:0:0:
209,186,10754,1,0,0:0:0:0:
209,186,10834,1,8,0:0:0:0:
189,117,10915,1,0,0:0:0:0:
209,186,10996,1,0,0:0:0:0:
209,186,11157,1,8,0:0:0:0:
209,186,11238,1,8,0:0:0:0:
209,186,11318,1,0,0:0:0:0:
209,186,11399,1,0,0:0:0:0:
209,186,11479,1,8,0:0:0:0:
209,186,11802,1,4,0:0:0:0:
311,174,12125,1,8,0:0:0:0:
304,171,12286,1,8,0:0:0:0:
307,161,12447,1,0,0:0:0:0:
265,139,12609,1,0,0:0:0:0:
265,139,12770,1,8,0:0:0:0:
265,139,12850,1,0,0:0:0:0:
265,139,12931,1,8,0:0:0:0:
211,91,13012,1,8,0:0:0:0:
249,121,13092,1,0,0:0:0:0:
249,121,13415,1,8,0:0:0:0:
249,121,13576,1,0,0:0:0:0:
249,121,13657,1,0,0:0:0:0:
249,121,13738,1,0,0:0:0:0:
249,121,13899,1,0,0:0:0:0:
249,121,14060,1,8,0:0:0:0:
249,121,14221,1,0,0:0:0:0:
249,121,14383,1,8,0:0:0:0:
287,138,14705,1,0,0:0:0:0:
287,138,14867,1,8,0:0:0:0:
287,138,14947,1,8,0:0:0:0:
287,138,15028,1,0,0:0:0:0:
287,138,15189,1,8,0:0:0:0:
287,138,15350,1,0,0:0:0:0:
287,138,15512,1,12,0:0:0:0:
242,128,15834,1,0,0:0:0:0:
242,128,15915,1,0,0:0:0:0:
242,128,15996,1,0,0:0:0:0:
242,128,16076,1,0,0:0:0:0:
242,128,16157,1,12,0:0:0:0:
227,145,16479,1,4,0:0:0:0:
233,143,16802,1,4,0:0:0:0:
233,143,16963,1,8,0:0:0:0:
233,143,17125,1,0,0:0:0:0:
233,143,17286,1,8,0:0:0:0:
233,143,17447,1,0,0:0:0:0:
233,143,17528,1,0,0:0:0:0:
233,143,17609,1,0,0:0:0:0:
267,128,17770,1,0,0:0:0:0:
267,128,17850,1,0,0:0:0:0:
267,128,17931,1,8,0:0:0:0:
267,128,18092,1,0,0:0:0:0:
267,128,18173,1,8,0:0:0:0:
267,128,18254,1,8,0:0:0:0:
238,167,18415,1,0,0:0:0:0:
267,128,18576,1,8,0:0:0:0:
255,126,18899,1,8,0:0:0:0:
255,126,18979,1,8,0:0:0:0:
255,126,19060,1,0,0:0:0:0:
255,126,19141,1,0,0:0:0:0:
255,126,19221,1,8,0:0:0:0:
273,84,19302,1,8,0:0:0:0:
258,76,19383,1,8,0:0:0:0:
258,76,19463,1,8,0:0:0:0:
177,83,19544,1,4,0:0:0:0:
202,136,19867,1,8,0:0:0:0:
251,127,20028,1,4,0:0:0:0:
223,116,20350,1,8,0:0:0:0:
223,116,20431,1,8,0:0:0:0:
223,116,20512,1,0,0:0:0:0:
223,116,20673,1,4,0:0:0:0:
219,153,21318,1,8,0:0:0:0:
219,153,22286,1,0,0:0:0:0:
219,153,22447,1,8,0:0:0:0:
92,175,22770,1,0,0:0:0:0:
220,153,22931,1,8,0:0:0:0:
92,174,23254,1,0,0:0:0:0:
220,153,23415,1,8,0:0:0:0:
292,133,23576,1,0,0:0:0:0:
220,153,23738,1,0,0:0:0:0:
220,153,23899,1,8,0:0:0:0:
220,153,24705,1,0,0:0:0:0:
220,153,25673,1,0,0:0:0:0:
220,153,25834,1,0,0:0:0:0:
220,153,25996,1,8,0:0:0:0:
220,153,26963,1,0,0:0:0:0:
220,153,27125,1,8,0:0:0:0:
220,153,27286,1,0,0:0:0:0:
219,152,27931,1,0,0:0:0:0:
219,152,28576,1,8,0:0:0:0:
219,152,29221,1,0,0:0:0:0:
219,152,29544,1,8,0:0:0:0:
219,152,29867,1,0,0:0:0:0:
218,152,30834,1,0,0:0:0:0:
317,147,31157,5,8,0:0:0:0:
317,147,31479,1,8,0:0:0:0:
317,147,31641,1,0,0:0:0:0:
317,147,31963,1,0,0:0:0:0:
304,153,32447,1,8,0:0:0:0:
202,97,32609,1,0,0:0:0:0:
304,153,32770,1,0,0:0:0:0:
304,153,32931,1,8,0:0:0:0:
238,107,33738,1,8,0:0:0:0:
238,107,34383,1,8,0:0:0:0:
238,107,34544,1,0,0:0:0:0:
238,107,34705,1,8,0:0:0:0:
238,107,34867,1,8,0:0:0:0:
238,107,35028,1,0,0:0:0:0:
238,107,35512,1,0,0:0:0:0:
235,107,35996,1,0,0:0:0:0:
235,107,36157,1,0,0:0:0:0:
157,90,36238,1,0,0:0:0:0:
235,107,36318,1,8,0:0:0:0:
235,107,36479,1,0,0:0:0:0:
234,106,36802,1,0,0:0:0:0:
176,118,37125,1,0,0:0:0:0:
176,118,37286,1,8,0:0:0:0:
176,118,37447,1,8,0:0:0:0:
176,118,37609,1,0,0:0:0:0:
175,117,37931,1,8,0:0:0:0:
175,117,38092,1,0,0:0:0:0:
175,117,38576,1,0,0:0:0:0:
175,117,38899,1,8,0:0:0:0:
175,117,39383,1,0,0:0:0:0:
175,117,39867,1,0,0:0:0:0:
175,117,40189,1,0,0:0:0:0:
176,117,40512,1,0,0:0:0:0:
176,117,40673,1,8,0:0:0:0:
176,117,40834,1,0,0:0:0:0:
285,121,41157,1,0,0:0:0:0:
285,121,41318,1,0,0:0:0:0:
279,118,41479,1,8,0:0:0:0:
279,118,41641,1,8,0:0:0:0:
270,115,41963,1,8,0:0:0:0:
270,115,42286,1,0,0:0:0:0:
270,115,42609,1,0,0:0:0:0:
270,115,42770,1,8,0:0:0:0:
229,134,42931,1,0,0:0:0:0:
221,129,43092,1,0,0:0:0:0:
209,68,43254,1,8,0:0:0:0:
209,68,43415,1,0,0:0:0:0:
209,68,43576,1,0,0:0:0:0:
209,68,43657,1,0,0:0:0:0:
209,68,43738,1,8,0:0:0:0:
209,68,43899,1,0,0:0:0:0:
218,102,44060,1,12,0:0:0:0:
216,121,44221,1,0,0:0:0:0:
204,120,44544,1,0,0:0:0:0:
204,120,44625,1,0,0:0:0:0:
204,120,44705,1,8,0:0:0:0:
204,120,44867,1,0,0:0:0:0:
204,120,45028,1,8,0:0:0:0:
204,120,45189,1,8,0:0:0:0:
204,120,45350,1,4,0:0:0:0:
227,106,45673,1,8,0:0:0:0:
243,172,45834,1,8,0:0:0:0:
238,174,45996,1,0,0:0:0:0:
238,174,46157,1,0,0:0:0:0:
238,174,46238,1,8,0:0:0:0:
238,174,46318,1,8,0:0:0:0:
238,174,46479,1,8,0:0:0:0:
238,174,46641,1,0,0:0:0:0:
237,176,46963,1,8,0:0:0:0:
237,176,47125,1,0,0:0:0:0:
234,179,47447,1,0,0:0:0:0:
234,179,47528,1,0,0:0:0:0:
234,179,47609,1,8,0:0:0:0:
234,179,47770,1,8,0:0:0:0:
169,112,47931,1,0,0:0:0:0:
256,139,48092,1,0,0:0:0:0:
256,139,48254,1,8,0:0:0:0:
242,137,48576,1,0,0:0:0:0:
242,137,48738,1,0,0:0:0:0:
328,159,48818,1,0,0:0:0:0:
242,137,48899,1,8,0:0:0:0:
242,137,49060,1,8,0:0:0:0:
183,72,49141,1,8,0:0:0:0:
242,137,49221,1,0,0:0:0:0:
192,116,49383,1,0,0:0:0:0:
242,136,49544,1,8,0:0:0:0:
290,106,49625,1,0,0:0:0:0:
242,136,49705,1,0,0:0:0:0:
242,147,49867,1,0,0:0:0:0:
198,143,50028,1,0,0:0:0:0:
178,139,50189,1,8,0:0:0:0:
178,139,50350,1,8,0:0:0:0:
178,139,50512,1,0,0:0:0:0:
267,159,50834,1,8,0:0:0:0:
264,154,50996,1,0,0:0:0:0:
254,156,51318,1,0,0:0:0:0:
254,156,51399,1,0,0:0:0:0:
254,156,51479,1,8,0:0:0:0:
254,156,51641,1,8,0:0:0:0:
254,156,51802,1,0,0:0:0:0:
253,156,52125,1,8,0:0:0:0:
253,156,52286,1,0,0:0:0:0:
250,155,52609,1,0,0:0:0:0:
250,155,52770,1,8,0:0:0:0:
257,170,53092,1,0,0:0:0:0:
257,170,53254,1,0,0:0:0:0:
257,170,53415,1,8,0:0:0:0:
251,164,53576,1,0,0:0:0:0:
251,164,53738,1,0,0:0:0:0:
251,164,53899,1,8,0:0:0:0:
251,164,53979,1,0,0:0:0:0:
251,164,54060,1,8,0:0:0:0:
212,143,54383,1,0,0:0:0:0:
212,143,54544,1,8,0:0:0:0:
140,60,54705,1,0,0:0:0:0:
212,143,54867,1,0,0:0:0:0:
212,143,55028,1,8,0:0:0:0:
276,142,55189,1,0,0:0:0:0:
276,142,55270,1,0,0:0:0:0:
276,142,55350,1,8,0:0:0:0:
269,140,55512,1,8,0:0:0:0:
269,140,55592,1,8,0:0:0:0:
236,149,55673,1,0,0:0:0:0:
236,147,55996,1,8,0:0:0:0:
199,157,56318,1,0,0:0:0:0:
199,157,56479,1,0,0:0:0:0:
199,157,56560,1,0,0:0:0:0:
199,157,56641,1,8,0:0:0:0:
199,157,56802,1,0,0:0:0:0:
199,157,56963,1,0,0:0:0:0:
198,156,57286,1,8,0:0:0:0:
198,156,57447,1,0,0:0:0:0:
198,156,57770,1,0,0:0:0:0:
198,156,57931,1,8,0:0:0:0:
198,156,58012,1,8,0:0:0:0:
198,156,58092,1,8,0:0:0:0:
198,156,58173,1,8,0:0:0:0:
198,156,58254,1,0,0:0:0:0:
198,157,58576,1,8,0:0:0:0:
198,157,58738,1,8,0:0:0:0:
206,110,58818,1,0,0:0:0:0:
275,144,58899,1,0,0:0:0:0:
198,157,59060,1,0,0:0:0:0:
198,157,59221,1,8,0:0:0:0:
214,152,59383,1,8,0:0:0:0:
214,152,59544,1,0,0:0:0:0:
214,152,59867,1,8,0:0:0:0:
277,134,60028,1,0,0:0:0:0:
277,134,60350,1,0,0:0:0:0:
277,134,60512,1,8,0:0:0:0:
277,134,60673,1,8,0:0:0:0:
277,134,60834,1,0,0:0:0:0:
277,134,60915,1,0,0:0:0:0:
277,134,60996,1,0,0:0:0:0:
277,134,61076,1,0,0:0:0:0:
269,134,61157,1,8,0:0:0:0:
179,133,61318,1,0,0:0:0:0:
179,133,61641,1,0,0:0:0:0:
179,133,61802,1,8,0:0:0:0:
179,133,61963,1,0,0:0:0:0:
179,133,62125,1,0,0:0:0:0:
179,133,62205,1,0,0:0:0:0:
179,133,62286,1,0,0:0:0:0:
179,133,62367,1,0,0:0:0:0:
179,133,62447,1,8,0:0:0:0:
179,133,62609,1,0,0:0:0:0:
178,132,62931,1,0,0:0:0:0:
178,132,63092,1,8,0:0:0:0:
178,132,63254,1,8,0:0:0:0:
178,132,63415,1,0,0:0:0:0:
178,132,63738,1,8,0:0:0:0:
178,132,63899,1,0,0:0:0:0:
178,132,64221,1,0,0:0:0:0:
178,132,64302,1,0,0:0:0:0:
178,132,64383,1,8,0:0:0:0:
178,132,64544,1,0,0:0:0:0:
178,132,64705,1,8,0:0:0:0:
178,132,64947,1,0,0:0:0:0:
178,132,65189,1,0,0:0:0:0:
178,132,65350,1,8,0:0:0:0:
178,132,65512,1,8,0:0:0:0:
178,132,65673,1,0,0:0:0:0:
186,109,65754,1,0,0:0:0:0:
178,132,65834,1,0,0:0:0:0:
178,132,65915,1,0,0:0:0:0:
178,132,65996,1,12,0:0:0:0:
295,169,66318,1,0,0:0:0:0:
295,170,66641,1,8,0:0:0:0:
291,174,66963,1,0,0:0:0:0:
285,178,67286,1,8,0:0:0:0:
237,181,67447,1,8,0:0:0:0:
237,181,67528,1,8,0:0:0:0:
237,181,67609,1,0,0:0:0:0:
280,121,67931,1,8,0:0:0:0:
227,153,68254,1,0,0:0:0:0:
222,152,68576,1,8,0:0:0:0:
222,150,68899,1,0,0:0:0:0:
222,150,69221,1,0,0:0:0:0:
220,150,69544,1,8,0:0:0:0:
305,148,69867,1,0,0:0:0:0:
305,148,70028,1,8,0:0:0:0:
180,131,70189,1,0,0:0:0:0:
180,131,70350,1,8,0:0:0:0:
180,132,70431,1,8,0:0:0:0:
180,131,70512,1,0,0:0:0:0:
180,131,70673,1,8,0:0:0:0:
180,131,70834,1,8,0:0:0:0:
180,131,70915,1,8,0:0:0:0:
180,131,70996,1,8,0:0:0:0:
180,131,71076,1,8,0:0:0:0:
180,131,71157,1,4,0:0:0:0:
222,197,72125,1,0,0:0:0:0:
222,197,72286,1,0,0:0:0:0:
222,197,72447,1,8,0:0:0:0:
222,197,72770,1,0,0:0:0:0:
222,197,72931,1,8,0:0:0:0:
222,198,73254,1,8,0:0:0:0:
222,198,73738,1,12,0:0:0:0:
222,198,73899,1,0,0:0:0:0:
222,198,74060,1,0,0:0:0:0:
222,198,74221,1,12,0:0:0:0:
203,204,74544,1,0,0:0:0:0:
203,204,74705,1,8,0:0:0:0:
203,204,74867,1,4,0:0:0:0:
256,192,75028,12,0,76318,0:0:0:0:
237,181,78899,5,4,0:0:0:0:
237,181,79221,1,8,0:0:0:0:
237,181,79383,1,8,0:0:0:0:
237,181,79463,1,8,0:0:0:0:
237,181,79544,1,0,0:0:0:0:
237,181,79705,1,0,0:0:0:0:
237,181,79867,1,8,0:0:0:0:
237,181,79947,1,8,0:0:0:0:
237,181,80028,1,0,0:0:0:0:
237,181,80109,1,0,0:0:0:0:
237,181,80189,1,8,0:0:0:0:
231,180,80512,1,8,0:0:0:0:
174,96,80592,1,0,0:0:0:0:
230,177,80754,1,0,0:0:0:0:
230,177,80834,1,8,0:0:0:0:
230,177,80996,1,0,0:0:0:0:
230,177,81157,1,8,0:0:0:0:
230,177,81318,1,8,0:0:0:0:
240,95,81399,1,8,0:0:0:0:
230,177,81479,1,0,0:0:0:0:
333,136,81802,1,8,0:0:0:0:
212,127,81963,1,8,0:0:0:0:
274,95,82125,1,0,0:0:0:0:
161,88,82286,1,8,0:0:0:0:
220,184,82447,1,0,0:0:0:0:
216,70,82528,1,0,0:0:0:0:
242,174,82609,1,0,0:0:0:0:
242,174,82689,1,0,0:0:0:0:
242,174,82770,1,12,0:0:0:0:
242,174,82931,1,8,0:0:0:0:
242,174,83012,1,0,0:0:0:0:
234,180,83092,1,8,0:0:0:0:
234,180,83254,1,4,0:0:0:0:
232,178,83576,1,12,0:0:0:0:
333,81,83738,1,0,0:0:0:0:
296,132,83818,1,0,0:0:0:0:
272,113,83899,1,8,0:0:0:0:
230,52,83979,1,8,0:0:0:0:
222,163,84060,1,4,0:0:0:0:
222,163,84383,1,8,0:0:0:0:
256,137,84544,1,8,0:0:0:0:
256,137,84705,1,0,0:0:0:0:
256,137,84867,1,0,0:0:0:0:
256,137,84947,1,0,0:0:0:0:
256,137,85028,1,8,0:0:0:0:
226,113,85189,1,8,0:0:0:0:
216,128,85350,1,0,0:0:0:0:
216,128,85512,1,0,0:0:0:0:
216,128,85673,1,8,0:0:0:0:
311,136,85996,1,0,0:0:0:0:
311,136,86157,1,0,0:0:0:0:
311,136,86238,1,0,0:0:0:0:
311,136,86318,1,8,0:0:0:0:
311,136,86399,1,0,0:0:0:0:
302,133,86479,1,0,0:0:0:0:
290,120,86641,1,8,0:0:0:0:
266,131,86963,1,8,0:0:0:0:
266,131,87125,1,0,0:0:0:0:
266,131,87205,1,8,0:0:0:0:
266,131,87286,1,0,0:0:0:0:
258,128,87447,1,0,0:0:0:0:
258,128,87528,1,0,0:0:0:0:
258,128,87609,1,0,0:0:0:0:
258,128,87689,1,0,0:0:0:0:
258,128,87770,1,12,0:0:0:0:
272,192,87931,1,0,0:0:0:0:
250,117,88092,1,12,0:0:0:0:
249,117,88415,1,12,0:0:0:0:
248,117,88738,1,12,0:0:0:0:
248,117,88899,1,0,0:0:0:0:
248,117,88979,1,0,0:0:0:0:
248,117,89060,1,8,0:0:0:0:
248,117,89141,1,8,0:0:0:0:
256,176,89544,1,12,0:0:0:0:
284,181,89867,1,0,0:0:0:0:
284,181,90028,1,0,0:0:0:0:
284,181,90109,1,0,0:0:0:0:
284,181,90189,1,8,0:0:0:0:
284,181,90270,1,8,0:0:0:0:
284,181,90350,1,0,0:0:0:0:
307,163,90512,1,8,0:0:0:0:
307,163,90834,1,8,0:0:0:0:
207,90,90996,1,0,0:0:0:0:
266,76,91076,1,8,0:0:0:0:
303,159,91157,1,0,0:0:0:0:
243,113,91318,1,0,0:0:0:0:
232,115,91479,1,8,0:0:0:0:
232,115,91641,1,8,0:0:0:0:
232,115,91802,1,0,0:0:0:0:
229,112,92125,1,8,0:0:0:0:
136,68,92286,1,8,0:0:0:0:
229,112,92447,1,0,0:0:0:0:
253,112,92609,1,0,0:0:0:0:
253,112,92689,1,0,0:0:0:0:
253,112,92770,1,8,0:0:0:0:
253,112,92931,1,0,0:0:0:0:
253,112,93092,1,12,0:0:0:0:
305,90,93254,1,8,0:0:0:0:
305,90,93334,1,8,0:0:0:0:
298,90,93415,1,8,0:0:0:0:
295,92,93496,1,8,0:0:0:0:
298,90,93576,1,4,0:0:0:0:
289,95,93899,1,4,0:0:0:0:
283,100,94221,1,4,0:0:0:0:
260,117,94383,1,8,0:0:0:0:
260,117,94544,1,0,0:0:0:0:
260,117,94705,1,8,0:0:0:0:
219,117,94867,1,0,0:0:0:0:
219,117,94947,1,0,0:0:0:0:
219,117,95028,1,8,0:0:0:0:
219,117,95109,1,8,0:0:0:0:
219,117,95189,1,0,0:0:0:0:
219,117,95350,1,8,0:0:0:0:
201,59,95673,1,8,0:0:0:0:
108,120,95834,1,0,0:0:0:0:
380,131,95915,1,0,0:0:0:0:
284,112,95996,1,8,0:0:0:0:
284,112,96157,1,0,0:0:0:0:
284,112,96318,1,8,0:0:0:0:
284,112,96479,1,0,0:0:0:0:
284,112,96641,1,8,0:0:0:0:
284,112,96721,1,8,0:0:0:0:
225,115,96802,1,8,0:0:0:0:
225,115,96883,1,8,0:0:0:0:
225,115,96963,1,0,0:0:0:0:
224,119,97447,1,0,0:0:0:0:
224,119,97609,1,8,0:0:0:0:
224,119,97770,1,0,0:0:0:0:
224,119,97931,1,0,0:0:0:0:
219,118,98092,1,12,0:0:0:0:
218,117,98415,1,0,0:0:0:0:
218,117,98496,1,0,0:0:0:0:
218,117,98576,1,8,0:0:0:0:
218,117,98738,1,8,0:0:0:0:
218,117,99060,1,8,0:0:0:0:
218,117,99221,1,8,0:0:0:0:
218,117,99383,1,8,0:0:0:0:
218,117,99544,1,4,0:0:0:0:
269,108,99867,1,0,0:0:0:0:
244,120,100189,1,0,0:0:0:0:
244,120,100350,1,12,0:0:0:0:
243,118,100673,1,12,0:0:0:0:
243,118,102125,1,4,0:0:0:0:
243,119,102447,1,8,0:0:0:0:
243,119,102609,1,4,0:0:0:0:
341,138,102770,1,0,0:0:0:0:
243,118,102931,1,8,0:0:0:0:
243,118,103092,1,4,0:0:0:0:
326,149,103415,1,8,0:0:0:0:
326,149,103576,1,0,0:0:0:0:
326,149,103738,1,0,0:0:0:0:
326,149,103818,1,0,0:0:0:0:
326,149,103899,1,8,0:0:0:0:
326,149,103979,1,0,0:0:0:0:
326,149,104060,1,8,0:0:0:0:
281,133,104221,1,0,0:0:0:0:
281,133,104383,1,0,0:0:0:0:
246,109,104705,1,12,0:0:0:0:
246,108,105028,1,8,0:0:0:0:
246,108,105189,1,0,0:0:0:0:
246,109,105512,1,12,0:0:0:0:
246,109,105834,1,12,0:0:0:0:
232,148,107286,1,4,0:0:0:0:
317,115,107609,1,8,0:0:0:0:
317,115,107770,1,8,0:0:0:0:
317,115,107850,1,8,0:0:0:0:
317,115,107931,1,0,0:0:0:0:
248,162,108092,1,0,0:0:0:0:
243,154,108254,1,8,0:0:0:0:
242,154,108576,1,0,0:0:0:0:
242,154,108738,1,0,0:0:0:0:
242,154,108899,1,8,0:0:0:0:
242,154,108979,1,8,0:0:0:0:
242,154,109060,1,8,0:0:0:0:
242,154,109141,1,8,0:0:0:0:
242,154,109221,1,0,0:0:0:0:
242,154,109544,1,8,0:0:0:0:
242,154,109705,1,0,0:0:0:0:
242,154,109867,1,0,0:0:0:0:
242,104,110028,1,8,0:0:0:0:
242,104,110109,1,0,0:0:0:0:
241,153,110189,1,8,0:0:0:0:
285,122,110350,1,8,0:0:0:0:
285,122,110512,1,0,0:0:0:0:
285,122,110673,1,0,0:0:0:0:
285,122,110834,1,8,0:0:0:0:
309,144,111157,1,0,0:0:0:0:
313,148,111318,1,0,0:0:0:0:
303,139,111479,1,8,0:0:0:0:
195,82,111560,1,0,0:0:0:0:
311,152,111721,1,0,0:0:0:0:
303,148,111802,1,8,0:0:0:0:
303,148,111963,1,0,0:0:0:0:
303,148,112125,1,8,0:0:0:0:
296,144,112286,1,0,0:0:0:0:
297,145,112367,1,8,0:0:0:0:
296,144,112447,1,0,0:0:0:0:
361,128,112770,1,8,0:0:0:0:
323,140,112931,1,8,0:0:0:0:
286,142,113092,1,0,0:0:0:0:
340,145,113254,1,0,0:0:0:0:
278,134,113415,1,8,0:0:0:0:
340,148,113738,1,0,0:0:0:0:
340,148,113899,1,8,0:0:0:0:
340,148,114060,1,8,0:0:0:0:
296,138,114221,1,0,0:0:0:0:
296,138,114302,1,8,0:0:0:0:
296,138,114383,1,0,0:0:0:0:
296,138,114544,1,0,0:0:0:0:
296,138,114625,1,0,0:0:0:0:
296,138,114705,1,8,0:0:0:0:
270,138,115028,1,0,0:0:0:0:
270,138,115189,1,0,0:0:0:0:
270,138,115350,1,8,0:0:0:0:
208,113,115512,1,0,0:0:0:0:
208,113,115673,1,8,0:0:0:0:
200,113,115834,1,8,0:0:0:0:
200,113,115915,1,8,0:0:0:0:
200,113,115996,1,0,0:0:0:0:
200,113,116157,1,12,0:0:0:0:
199,113,116479,1,12,0:0:0:0:
291,123,116641,1,0,0:0:0:0:
199,113,116802,1,12,0:0:0:0:
324,145,117125,1,8,0:0:0:0:
324,145,117205,1,8,0:0:0:0:
324,145,117286,1,0,0:0:0:0:
155,73,117367,1,0,0:0:0:0:
318,143,117447,1,0,0:0:0:0:
318,143,117528,1,0,0:0:0:0:
318,143,117609,1,12,0:0:0:0:
295,140,117931,1,8,0:0:0:0:
295,140,118092,1,0,0:0:0:0:
262,112,118254,1,8,0:0:0:0:
321,83,118334,1,8,0:0:0:0:
241,90,118415,1,0,0:0:0:0:
241,90,118496,1,8,0:0:0:0:
241,90,118576,1,0,0:0:0:0:
311,97,118738,5,0,0:0:0:0:
275,143,118899,1,8,0:0:0:0:
275,143,119060,1,8,0:0:0:0:
275,143,119141,1,0,0:0:0:0:
255,125,119221,1,0,0:0:0:0:
164,58,119302,1,8,0:0:0:0:
255,125,119463,1,8,0:0:0:0:
255,125,119544,1,0,0:0:0:0:
285,126,119705,1,0,0:0:0:0:
269,129,119867,1,8,0:0:0:0:
269,129,119947,1,8,0:0:0:0:
270,129,120028,1,8,0:0:0:0:
269,129,120109,1,8,0:0:0:0:
270,129,120189,1,0,0:0:0:0:
268,128,120512,1,8,0:0:0:0:
268,128,120673,1,0,0:0:0:0:
268,128,120754,1,0,0:0:0:0:
268,128,120834,1,8,0:0:0:0:
268,128,120996,1,0,0:0:0:0:
268,128,121157,1,8,0:0:0:0:
189,94,121318,1,8,0:0:0:0:
179,113,121479,1,0,0:0:0:0:
179,113,121641,1,0,0:0:0:0:
179,113,121802,1,8,0:0:0:0:
171,86,121883,1,0,0:0:0:0:
256,107,122044,1,0,0:0:0:0:
256,107,122125,1,8,0:0:0:0:
241,109,122447,1,8,0:0:0:0:
241,109,122528,1,8,0:0:0:0:
243,109,122609,1,8,0:0:0:0:
273,97,122689,1,8,0:0:0:0:
267,96,122770,1,4,0:0:0:0:
236,105,123092,1,8,0:0:0:0:
236,105,123254,1,0,0:0:0:0:
236,105,123334,1,8,0:0:0:0:
236,105,123415,1,8,0:0:0:0:
236,105,123576,1,8,0:0:0:0:
236,105,123738,1,0,0:0:0:0:
236,105,123899,1,8,0:0:0:0:
236,105,124060,1,12,0:0:0:0:
236,105,124221,1,0,0:0:0:0:
236,105,124302,1,0,0:0:0:0:
236,105,124383,1,8,0:0:0:0:
236,105,124544,1,8,0:0:0:0:
236,105,124625,1,8,0:0:0:0:
236,105,124705,1,0,0:0:0:0:
236,105,124867,1,0,0:0:0:0:
236,105,124947,1,0,0:0:0:0:
236,105,125028,1,8,0:0:0:0:
236,105,125109,1,8,0:0:0:0:
236,105,125189,1,0,0:0:0:0:
287,128,125350,1,4,0:0:0:0:
279,123,125673,1,8,0:0:0:0:
338,114,125834,1,0,0:0:0:0:
338,114,125996,1,0,0:0:0:0:
332,112,126157,1,0,0:0:0:0:
227,85,126238,1,0,0:0:0:0:
329,97,126318,1,0,0:0:0:0:
241,87,126399,1,0,0:0:0:0:
329,97,126479,1,12,0:0:0:0:
256,192,126641,12,0,129221,0:0:0:0:
