osu file format v14

[General]
AudioFilename: audio.mp3
AudioLeadIn: 0
PreviewTime: 76885
Countdown: 0
SampleSet: Normal
StackLeniency: 0.7
Mode: 1
LetterboxInBreaks: 0
WidescreenStoryboard: 1

[Editor]
DistanceSpacing: 0.8
BeatDivisor: 4
GridSize: 16
TimelineZoom: 2.6

[Metadata]
Title:Euphorium
TitleUnicode:ユーフォリアム
Artist:Suzuyu
ArtistUnicode:鈴湯
Creator:Nao Tomori
Version:Futsuu
Source:アストラエアの白き永遠 Finale -白き星の夢-
Tags:astral air no shiroki towa hoshi no yume dream of star snow white eternity visual novel eroge galgame galge video game japanese pop anime
BeatmapID:2888432
BeatmapSetID:1396488

[Difficulty]
HPDrainRate:7
CircleSize:5
OverallDifficulty:3.8
ApproachRate:5
SliderMultiplier:1.4
SliderTickRate:1

[Events]
//Background and Video events
0,0,"astral ar bg.jpg",0,75
//Break Periods
//Storyboard Layer 0 (Background)
//Storyboard Layer 1 (Fail)
//Storyboard Layer 2 (Pass)
//Storyboard Layer 3 (Foreground)
//Storyboard Layer 4 (Overlay)
//Storyboard Sound Samples

[TimingPoints]
1480,322.58064516129,4,1,0,42,1,0
1480,-100,4,1,0,42,0,0
6359,-100,4,1,0,52,0,0
6439,-100,4,1,0,52,0,0
6520,-100,4,1,0,52,0,0
6600,-100,4,1,0,72,0,0
20754,-100,4,1,0,52,0,0
22205,-100,4,1,0,52,0,0
24383,-100,4,1,0,52,0,0
34665,-100,4,1,0,52,0,0
34746,-100,4,1,0,52,0,0
34826,-100,4,1,0,52,0,0
34907,-100,4,1,0,52,0,0
34988,-100,4,1,0,62,0,0
35028,-100,4,1,0,62,0,0
44826,-100,4,1,0,62,0,0
44988,-100,4,1,0,62,0,0
45149,-100,4,1,0,62,0,0
45310,-100,4,1,0,67,0,0
72044,-100,4,1,0,47,0,0
72340,-100,4,1,0,57,0,0
73684,-100,4,1,0,77,0,0
75189,-100,4,1,0,47,0,0
78818,-100,4,1,0,77,0,0
78899,-100,4,1,0,77,0,1
100673,-100,4,1,0,77,0,0
102125,-100,4,1,0,77,0,0
107286,-100,4,1,0,72,0,0
126721,-100,4,1,0,62,0,0
126883,-100,4,1,0,57,0,0
127044,-100,4,1,0,57,0,0
127205,-100,4,1,0,57,0,0
127367,-100,4,1,0,57,0,0
127528,-100,4,1,0,57,0,0
127689,-100,4,1,0,52,0,0
127850,-133.333333333333,4,1,0,52,0,0
128012,-200,4,1,0,32,0,0

[HitObjects]
240,144,1480,5,0,0:0:0:0:
240,144,2125,1,8,0:0:0:0:
240,144,2770,1,0,0:0:0:0:
240,144,3092,1,0,0:0:0:0:
240,144,3415,1,8,0:0:0:0:
240,144,3738,1,8,0:0:0:0:
240,144,4060,1,0,0:0:0:0:
240,144,4705,1,8,0:0:0:0:
240,144,5350,1,8,0:0:0:0:
240,96,5512,1,0,0:0:0:0:
208,80,5673,1,0,0:0:0:0:
240,144,5834,1,8,0:0:0:0:
256,160,6641,1,12,0:0:0:0:
240,160,7125,1,0,0:0:0:0:
240,160,7447,1,0,0:0:0:0:
240,160,7770,1,12,0:0:0:0:
224,160,8254,1,8,0:0:0:0:
224,160,8415,1,8,0:0:0:0:
224,160,8738,1,0,0:0:0:0:
224,160,9221,1,4,0:0:0:0:
272,160,9705,1,0,0:0:0:0:
272,160,10028,1,8,0:0:0:0:
272,160,10350,1,12,0:0:0:0:
272,144,11157,1,8,0:0:0:0:
272,144,11318,1,0,0:0:0:0:
272,144,11479,1,8,0:0:0:0:
287,144,11802,1,4,0:0:0:0:
289,144,12447,1,0,0:0:0:0:
289,144,12609,1,0,0:0:0:0:
289,144,12770,1,8,0:0:0:0:
289,144,13092,1,0,0:0:0:0:
289,144,13415,1,8,0:0:0:0:
289,144,13576,1,0,0:0:0:0:
288,144,13899,1,0,0:0:0:0:
288,144,14060,1,8,0:0:0:0:
288,144,14383,1,8,0:0:0:0:
288,143,14867,1,8,0:0:0:0:
288,143,15189,1,8,0:0:0:0:
288,143,15512,1,4,0:0:0:0:
288,143,16157,1,4,0:0:0:0:
288,144,16479,1,4,0:0:0:0:
288,144,16802,1,4,0:0:0:0:
288,144,16963,1,8,0:0:0:0:
288,144,17447,1,8,0:0:0:0:
347,158,17770,1,8,0:0:0:0:
336,155,18092,1,8,0:0:0:0:
166,56,18899,1,0,0:0:0:0:
190,133,19060,1,0,0:0:0:0:
246,113,19221,1,8,0:0:0:0:
296,127,19383,1,8,0:0:0:0:
296,127,19544,1,4,0:0:0:0:
254,114,20028,1,4,0:0:0:0:
269,64,20350,1,0,0:0:0:0:
251,112,20512,1,8,0:0:0:0:
251,112,20673,1,4,0:0:0:0:
237,112,21318,1,8,0:0:0:0:
238,108,22286,1,0,0:0:0:0:
238,108,22770,1,0,0:0:0:0:
238,111,23254,1,0,0:0:0:0:
238,111,23738,1,0,0:0:0:0:
238,111,23899,1,8,0:0:0:0:
292,133,24705,1,0,0:0:0:0:
299,142,25673,1,0,0:0:0:0:
294,139,25834,1,0,0:0:0:0:
294,139,25996,1,8,0:0:0:0:
294,139,26963,1,0,0:0:0:0:
294,139,27125,1,8,0:0:0:0:
294,139,27286,1,0,0:0:0:0:
293,139,27931,1,0,0:0:0:0:
293,139,28576,1,8,0:0:0:0:
293,139,29221,1,0,0:0:0:0:
293,139,29544,1,8,0:0:0:0:
293,139,29867,1,0,0:0:0:0:
294,140,30834,1,0,0:0:0:0:
294,140,31157,1,8,0:0:0:0:
294,140,31641,1,8,0:0:0:0:
294,140,31963,1,0,0:0:0:0:
294,140,32447,1,0,0:0:0:0:
294,140,32931,1,8,0:0:0:0:
326,190,33738,1,8,0:0:0:0:
294,140,34383,1,8,0:0:0:0:
294,140,35028,1,0,0:0:0:0:
294,140,35512,1,0,0:0:0:0:
294,140,35996,1,0,0:0:0:0:
294,140,36318,1,8,0:0:0:0:
294,140,36479,1,0,0:0:0:0:
294,140,36802,1,0,0:0:0:0:
288,192,37125,1,0,0:0:0:0:
288,192,37447,1,0,0:0:0:0:
288,192,37609,1,8,0:0:0:0:
286,191,37931,1,0,0:0:0:0:
286,191,38092,1,0,0:0:0:0:
286,191,38576,1,0,0:0:0:0:
286,191,38899,1,8,0:0:0:0:
286,191,39383,1,0,0:0:0:0:
286,191,39867,1,0,0:0:0:0:
285,191,40189,1,8,0:0:0:0:
258,188,40512,1,0,0:0:0:0:
256,189,40834,1,0,0:0:0:0:
255,189,41157,1,0,0:0:0:0:
255,189,41479,1,8,0:0:0:0:
255,189,41641,1,8,0:0:0:0:
255,189,41963,1,8,0:0:0:0:
193,170,42286,1,0,0:0:0:0:
189,170,42609,1,0,0:0:0:0:
189,170,42770,1,8,0:0:0:0:
184,170,43254,1,8,0:0:0:0:
182,172,43738,1,0,0:0:0:0:
174,178,44060,1,12,0:0:0:0:
174,178,44705,1,8,0:0:0:0:
174,178,44867,1,8,0:0:0:0:
174,178,45028,1,0,0:0:0:0:
174,178,45189,1,0,0:0:0:0:
174,178,45350,1,12,0:0:0:0:
200,189,46318,1,0,0:0:0:0:
200,189,46479,1,0,0:0:0:0:
200,189,46641,1,8,0:0:0:0:
268,173,46963,1,8,0:0:0:0:
269,174,47609,1,8,0:0:0:0:
240,120,47770,1,8,0:0:0:0:
267,175,47931,1,0,0:0:0:0:
267,175,48576,1,0,0:0:0:0:
267,175,48899,1,8,0:0:0:0:
267,175,49221,1,0,0:0:0:0:
267,175,49867,1,0,0:0:0:0:
222,62,50189,1,0,0:0:0:0:
267,175,50350,1,8,0:0:0:0:
267,175,50512,1,0,0:0:0:0:
265,174,50834,1,8,0:0:0:0:
253,180,51479,1,8,0:0:0:0:
253,179,51802,1,0,0:0:0:0:
253,180,52125,1,8,0:0:0:0:
253,180,52286,1,0,0:0:0:0:
253,180,52609,1,0,0:0:0:0:
253,179,53092,1,0,0:0:0:0:
253,179,53415,1,8,0:0:0:0:
253,179,53576,1,8,0:0:0:0:
253,179,53899,1,8,0:0:0:0:
253,179,54060,1,8,0:0:0:0:
253,179,54383,1,0,0:0:0:0:
253,179,54544,1,0,0:0:0:0:
253,179,54705,1,8,0:0:0:0:
254,128,55028,1,0,0:0:0:0:
301,160,55673,1,8,0:0:0:0:
299,159,55996,1,8,0:0:0:0:
262,157,56641,1,0,0:0:0:0:
262,157,56802,1,0,0:0:0:0:
254,156,56963,1,8,0:0:0:0:
252,157,57286,1,8,0:0:0:0:
252,157,57931,1,0,0:0:0:0:
252,157,58092,1,8,0:0:0:0:
252,157,58254,1,0,0:0:0:0:
242,159,58576,1,8,0:0:0:0:
242,159,58738,1,0,0:0:0:0:
242,159,59221,1,8,0:0:0:0:
242,159,59383,1,8,0:0:0:0:
242,160,59544,1,0,0:0:0:0:
185,124,60028,1,8,0:0:0:0:
184,124,60512,1,8,0:0:0:0:
184,124,60834,1,0,0:0:0:0:
183,123,61157,1,8,0:0:0:0:
247,145,61802,1,8,0:0:0:0:
247,145,62125,1,0,0:0:0:0:
242,143,62447,1,0,0:0:0:0:
231,145,62609,1,8,0:0:0:0:
219,148,63092,1,8,0:0:0:0:
219,148,63254,1,0,0:0:0:0:
219,148,63415,1,0,0:0:0:0:
219,147,63738,1,8,0:0:0:0:
219,147,63899,1,8,0:0:0:0:
219,147,64383,1,8,0:0:0:0:
219,147,64705,1,0,0:0:0:0:
276,99,64947,1,0,0:0:0:0:
194,100,65189,1,0,0:0:0:0:
219,147,65350,1,8,0:0:0:0:
219,147,65673,1,0,0:0:0:0:
219,147,65834,1,8,0:0:0:0:
219,147,65996,1,4,0:0:0:0:
230,157,66641,1,8,0:0:0:0:
230,156,66963,1,0,0:0:0:0:
227,156,67286,1,8,0:0:0:0:
226,155,67609,1,0,0:0:0:0:
225,154,67931,1,8,0:0:0:0:
225,154,68254,1,8,0:0:0:0:
225,154,68576,1,0,0:0:0:0:
225,154,69544,1,8,0:0:0:0:
262,143,69705,1,0,0:0:0:0:
225,154,69867,1,0,0:0:0:0:
166,139,70028,1,8,0:0:0:0:
311,183,70512,1,8,0:0:0:0:
307,184,70834,1,8,0:0:0:0:
291,181,71157,1,4,0:0:0:0:
257,179,72447,1,0,0:0:0:0:
257,179,73738,1,12,0:0:0:0:
257,179,74221,1,12,0:0:0:0:
257,179,74705,1,8,0:0:0:0:
257,179,74867,1,4,0:0:0:0:
256,192,75028,12,0,76318,0:0:0:0:
164,149,78899,5,4,0:0:0:0:
292,151,79221,1,8,0:0:0:0:
292,151,79544,1,0,0:0:0:0:
292,151,79867,1,0,0:0:0:0:
292,151,80028,1,0,0:0:0:0:
292,151,80189,1,8,0:0:0:0:
292,151,80512,1,0,0:0:0:0:
292,151,80834,1,8,0:0:0:0:
292,150,81318,1,8,0:0:0:0:
292,150,81479,1,0,0:0:0:0:
258,154,81802,1,8,0:0:0:0:
256,153,82447,1,8,0:0:0:0:
256,153,82609,1,8,0:0:0:0:
256,153,82770,1,0,0:0:0:0:
256,153,82931,1,8,0:0:0:0:
185,102,83092,1,8,0:0:0:0:
263,137,83254,1,0,0:0:0:0:
263,137,83576,1,8,0:0:0:0:
179,131,84060,1,4,0:0:0:0:
256,122,84705,1,0,0:0:0:0:
256,121,85028,1,8,0:0:0:0:
256,121,85350,1,8,0:0:0:0:
254,122,85673,1,0,0:0:0:0:
254,122,85996,1,0,0:0:0:0:
252,122,86318,1,8,0:0:0:0:
249,122,86641,1,0,0:0:0:0:
247,122,86963,1,0,0:0:0:0:
247,122,87125,1,8,0:0:0:0:
247,122,87447,1,8,0:0:0:0:
246,122,87770,1,12,0:0:0:0:
246,122,88254,1,0,0:0:0:0:
246,122,88576,1,8,0:0:0:0:
246,122,88899,1,0,0:0:0:0:
246,122,89544,1,12,0:0:0:0:
270,180,89867,1,0,0:0:0:0:
270,180,90189,1,8,0:0:0:0:
270,180,90350,1,8,0:0:0:0:
270,180,90512,1,0,0:0:0:0:
270,180,90834,1,0,0:0:0:0:
270,180,91157,1,8,0:0:0:0:
270,180,91641,1,8,0:0:0:0:
270,180,91802,1,0,0:0:0:0:
262,180,92125,1,8,0:0:0:0:
270,180,92770,1,0,0:0:0:0:
270,180,92931,1,0,0:0:0:0:
330,162,93092,1,12,0:0:0:0:
330,163,93576,1,12,0:0:0:0:
330,163,93899,1,12,0:0:0:0:
330,163,94221,1,12,0:0:0:0:
330,163,94383,1,0,0:0:0:0:
330,163,94705,1,8,0:0:0:0:
330,164,95028,1,8,0:0:0:0:
327,164,95350,1,8,0:0:0:0:
327,164,95512,1,8,0:0:0:0:
327,164,95673,1,0,0:0:0:0:
327,164,95996,1,8,0:0:0:0:
327,164,96318,1,8,0:0:0:0:
327,164,96641,1,8,0:0:0:0:
324,165,96963,1,0,0:0:0:0:
307,159,97447,1,0,0:0:0:0:
185,127,97609,1,8,0:0:0:0:
188,185,97770,1,0,0:0:0:0:
288,182,98092,1,4,0:0:0:0:
209,156,99060,1,0,0:0:0:0:
209,156,99221,1,8,0:0:0:0:
209,156,99383,1,8,0:0:0:0:
209,156,99544,1,4,0:0:0:0:
207,153,100189,1,0,0:0:0:0:
207,153,100350,1,12,0:0:0:0:
207,153,100673,1,12,0:0:0:0:
224,193,102125,1,4,0:0:0:0:
303,137,102447,1,8,0:0:0:0:
303,137,102609,1,4,0:0:0:0:
300,138,102931,1,8,0:0:0:0:
300,138,103092,1,4,0:0:0:0:
299,138,103415,1,8,0:0:0:0:
299,138,103576,1,0,0:0:0:0:
299,139,103899,1,0,0:0:0:0:
299,139,104060,1,8,0:0:0:0:
299,139,104383,1,8,0:0:0:0:
299,139,104544,1,8,0:0:0:0:
299,139,104705,1,4,0:0:0:0:
267,93,105189,1,0,0:0:0:0:
326,175,105512,1,12,0:0:0:0:
326,175,105834,1,12,0:0:0:0:
232,185,107286,1,4,0:0:0:0:
274,177,107609,1,8,0:0:0:0:
274,177,107931,1,0,0:0:0:0:
274,177,108092,1,0,0:0:0:0:
274,177,108254,1,8,0:0:0:0:
273,177,108576,1,0,0:0:0:0:
273,177,108738,1,8,0:0:0:0:
273,177,108899,1,0,0:0:0:0:
273,177,109060,1,0,0:0:0:0:
273,177,109221,1,8,0:0:0:0:
305,174,109867,1,0,0:0:0:0:
300,176,110189,1,8,0:0:0:0:
294,178,110350,1,8,0:0:0:0:
294,179,110512,1,0,0:0:0:0:
294,179,110834,1,8,0:0:0:0:
294,179,111157,1,0,0:0:0:0:
294,179,111318,1,0,0:0:0:0:
294,179,111479,1,8,0:0:0:0:
294,179,111641,1,0,0:0:0:0:
294,179,111802,1,0,0:0:0:0:
294,179,112125,1,8,0:0:0:0:
294,179,112447,1,0,0:0:0:0:
293,179,113092,1,0,0:0:0:0:
286,181,113415,1,8,0:0:0:0:
281,185,113576,1,0,0:0:0:0:
281,185,113738,1,8,0:0:0:0:
281,185,114060,1,8,0:0:0:0:
281,185,114383,1,0,0:0:0:0:
281,185,114544,1,0,0:0:0:0:
281,185,114705,1,8,0:0:0:0:
279,186,115028,1,0,0:0:0:0:
279,186,115189,1,0,0:0:0:0:
278,186,115512,1,0,0:0:0:0:
278,186,115834,1,0,0:0:0:0:
272,190,116157,1,12,0:0:0:0:
268,191,116479,1,12,0:0:0:0:
268,191,116802,1,12,0:0:0:0:
250,168,117609,1,12,0:0:0:0:
305,172,117931,1,0,0:0:0:0:
305,172,118092,1,0,0:0:0:0:
295,173,118254,1,8,0:0:0:0:
291,176,118576,1,8,0:0:0:0:
291,176,118738,1,8,0:0:0:0:
291,176,118899,1,0,0:0:0:0:
267,185,119221,1,8,0:0:0:0:
267,185,119383,1,8,0:0:0:0:
267,185,119544,1,0,0:0:0:0:
260,185,119705,1,0,0:0:0:0:
247,187,119867,1,8,0:0:0:0:
241,181,120189,1,0,0:0:0:0:
241,181,120834,1,8,0:0:0:0:
238,180,121157,1,8,0:0:0:0:
236,181,121479,1,0,0:0:0:0:
236,181,121641,1,0,0:0:0:0:
236,181,121802,1,8,0:0:0:0:
236,181,122125,1,8,0:0:0:0:
233,184,122770,1,4,0:0:0:0:
220,195,123254,1,0,0:0:0:0:
220,195,123576,1,0,0:0:0:0:
220,195,123738,1,8,0:0:0:0:
220,195,123899,1,8,0:0:0:0:
220,195,124060,1,4,0:0:0:0:
280,181,124544,1,8,0:0:0:0:
278,182,125028,1,8,0:0:0:0:
272,184,125189,1,8,0:0:0:0:
272,184,125350,1,4,0:0:0:0:
271,185,125834,1,0,0:0:0:0:
271,185,126318,1,0,0:0:0:0:
271,185,126479,1,12,0:0:0:0:
256,192,126641,12,0,129221,0:0:0:0:
