osu file format v14

[General]
AudioFilename: audio.mp3
AudioLeadIn: 0
PreviewTime: 223325
Countdown: 0
SampleSet: Soft
StackLeniency: 0.7
Mode: 0
LetterboxInBreaks: 0
WidescreenStoryboard: 1

[Editor]
Bookmarks: 10906,23809,34132,44454,54777,65100,78003,101229,111551,121874,132196,142519,165745,181229,191551,207035,212196,225100,235422,253487,263809,272842
DistanceSpacing: 1.2
BeatDivisor: 4
GridSize: 32
TimelineZoom: 2.999999

[Metadata]
Title:Euphorium
TitleUnicode:ユーフォリアム
Artist:Suzuyu
ArtistUnicode:鈴湯
Creator:NakaRoniX
Version:frozz's Insane
Source:アストラエアの白き永遠 Finale -白き星の夢-
Tags:frozz -Keqing favorite astral air no shiroki towa finale hoshi no yume opening theme eroge visual novel video game videogame japanese pop jpop j-pop female vocal full ver version eroge op vocalist
BeatmapID:3486897
BeatmapSetID:1636008

[Difficulty]
HPDrainRate:5
CircleSize:4
OverallDifficulty:8
ApproachRate:9
SliderMultiplier:1.72
SliderTickRate:1

[Events]
//Background and Video events
0,0,"BG.jpg",0,0
//Break Periods
2,21390,23003
2,101429,105467
2,181267,188371
2,208364,209016
//Storyboard Layer 0 (Background)
//Storyboard Layer 1 (Fail)
//Storyboard Layer 2 (Pass)
//Storyboard Layer 3 (Foreground)
//Storyboard Layer 4 (Overlay)
//Storyboard Sound Samples

[TimingPoints]
584,322.58064516129,4,2,69,50,1,0
584,-142.857142857143,4,2,69,50,0,0
1874,-125,4,2,69,50,0,0
3164,-111.111111111111,4,2,69,50,0,0
5745,-125,4,2,69,65,0,0
10906,-100,4,2,69,70,0,0
23809,-166.666666666667,4,2,69,50,0,0
34132,-142.857142857143,4,2,69,60,0,0
41874,-125,4,2,69,60,0,0
44454,-111.111111111111,4,2,69,65,0,0
54777,-99.9999999999999,4,2,69,65,0,0
65100,-142.857142857143,4,2,69,60,0,0
68971,-111.111111111111,4,2,69,60,0,0
70261,-166.666666666666,4,2,69,60,0,0
72680,-125,4,2,69,60,0,0
72842,-111.111111111111,4,2,69,70,0,0
73971,-142.857142857143,4,2,69,70,0,0
76390,-125,4,2,69,60,0,0
78003,-83.3333333333333,4,2,69,85,0,0
82358,-111.111111111111,4,2,69,85,0,0
82680,-86.9565217391304,4,2,69,85,0,0
83164,-83.3333333333333,4,2,69,85,0,0
88325,-166.666666666667,4,2,69,85,0,0
88648,-83.3333333333333,4,2,69,85,0,0
101229,-166.666666666667,4,2,69,60,0,0
108971,-125,4,2,69,60,0,0
111551,-142.857142857143,4,2,69,60,0,0
121874,-125,4,2,69,65,0,0
123164,-111.111111111111,4,2,69,65,0,0
132196,-142.857142857143,4,2,69,60,0,0
136067,-111.111111111111,4,2,69,60,0,0
137358,-166.666666666666,4,2,69,60,0,0
139777,-125,4,2,69,60,0,0
139938,-111.111111111111,4,2,69,70,0,0
141229,-125,4,2,69,60,0,0
142519,-83.3333333333332,4,2,69,85,0,0
146874,-111.111111111111,4,2,69,85,0,0
147196,-86.9565217391304,4,2,69,85,0,0
147680,-83.3333333333332,4,2,69,85,0,0
164616,-100,4,2,69,85,0,0
165745,-90.9090909090909,4,2,69,70,0,0
173971,-83.3333333333333,4,2,69,70,0,0
174454,-76.9230769230769,4,2,69,70,0,0
176067,-90.9090909090909,4,2,69,70,0,0
177600,-90.9090909090909,4,2,69,5,0,0
177680,-90.9090909090909,4,2,69,70,0,0
177761,-90.9090909090909,4,2,69,5,0,0
177842,-90.9090909090909,4,2,69,70,0,0
177922,-90.9090909090909,4,2,69,5,0,0
178003,-90.9090909090909,4,2,69,70,0,0
178083,-90.9090909090909,4,2,69,5,0,0
178164,-90.9090909090909,4,2,69,70,0,0
178245,-90.9090909090909,4,2,69,5,0,0
178325,-90.9090909090909,4,2,69,70,0,0
178406,-90.9090909090909,4,2,69,5,0,0
178487,-90.9090909090909,4,2,69,70,0,0
178567,-90.9090909090909,4,2,69,5,0,0
178648,-90.9090909090909,4,2,69,70,0,0
188971,-90.9090909090909,4,2,69,50,0,0
191551,-125,4,2,69,65,0,0
195422,-100,4,2,69,65,0,0
207035,-250,4,2,69,50,0,0
212196,-100,4,2,69,65,0,0
219938,-90.9090909090909,4,2,69,70,0,0
223809,-500,4,2,69,60,0,0
225100,-111.111111111111,4,2,69,70,0,0
234213,-111.111111111111,4,2,69,5,0,0
234293,-111.111111111111,4,2,69,70,0,0
234374,-111.111111111111,4,2,69,5,0,0
234454,-111.111111111111,4,2,69,70,0,0
234535,-111.111111111111,4,2,69,5,0,0
234616,-111.111111111111,4,2,69,70,0,0
234696,-111.111111111111,4,2,69,5,0,0
234777,-111.111111111111,4,2,69,70,0,0
234858,-111.111111111111,4,2,69,5,0,0
234938,-111.111111111111,4,2,69,70,0,0
235019,-111.111111111111,4,2,69,5,0,0
235100,-111.111111111111,4,2,69,70,0,0
235180,-111.111111111111,4,2,69,5,0,0
235261,-111.111111111111,4,2,69,70,0,0
235342,-111.111111111111,4,2,69,5,0,0
235422,-166.666666666666,4,2,69,70,0,0
235745,-83.3333333333333,4,2,69,85,0,0
253487,-90.4977375565612,4,2,69,70,0,0
268971,-125,4,2,69,70,0,0
270261,-100,4,2,69,70,0,0
272680,-187.617260787992,4,2,69,65,0,0
273164,-187.617260787992,4,2,68,55,0,0
274132,-187.617260787992,4,2,69,45,0,0
275422,-187.617260787992,4,2,68,35,0,0
276713,-187.617260787992,4,2,69,25,0,0
278003,-187.617260787992,4,2,68,15,0,0
279293,-187.617260787992,4,2,69,5,0,0

[Colours]
Combo1 : 231,193,232
Combo2 : 209,216,216
Combo3 : 187,217,238

[HitObjects]
501,68,584,5,2,3:2:0:0:
497,79,745,1,0,3:2:0:0:
508,83,906,1,0,3:2:0:0:
512,71,1067,1,0,3:2:0:0:
409,78,1229,6,0,P|422:126|429:160,1,60.1999981628419,2|0,3:2|3:0,0:0:0:0:
502,173,1551,2,0,P|489:221|482:255,1,60.1999981628419,0|0,3:0|3:0,0:0:0:0:
340,300,1874,5,2,3:2:0:0:
344,281,2035,1,0,3:2:0:0:
363,286,2196,1,0,3:2:0:0:
358,304,2358,1,0,3:2:0:0:
268,356,2519,6,0,P|258:308|241:262,1,68.8,2|0,3:2|3:0,0:0:0:0:
307,204,2842,2,0,P|317:156|334:110,1,68.8,0|0,3:0|3:0,0:0:0:0:
218,3,3164,5,2,3:2:0:0:
209,28,3325,1,0,3:2:0:0:
234,37,3487,1,0,3:2:0:0:
243,12,3648,1,0,3:2:0:0:
116,20,3809,6,0,P|135:72|144:130,1,77.3999976379395,2|0,3:2|3:2,0:0:0:0:
221,150,4132,2,0,P|202:202|193:260,1,77.3999976379395,0|0,3:0|3:0,0:0:0:0:
13,353,4454,5,2,3:2:0:0:
41,257,4616,1,2,3:2:0:0:
137,285,4777,1,2,3:2:0:0:
109,381,4938,1,2,3:2:0:0:
109,381,5422,5,2,0:0:0:0:
118,378,5502,1,2,0:0:0:0:
127,376,5583,1,2,0:0:0:0:
137,373,5663,1,2,0:0:0:0:
146,371,5745,2,0,P|202:338|280:268,1,137.6,6|0,1:2|0:0,0:0:0:0:
374,349,6229,2,0,P|341:341|318:338,2,34.4,2|2|2,1:2|0:0|0:0,0:0:0:0:
445,306,6551,1,8,0:3:0:0:
430,225,6713,1,4,0:3:0:0:
476,110,6874,6,0,P|438:172|355:152,1,137.6,14|0,1:2|0:0,0:0:0:0:
309,42,7358,1,8,0:0:0:0:
309,42,7519,1,8,0:0:0:0:
302,181,7680,2,0,P|353:153|390:148,2,68.8,2|8|4,0:0|0:3|0:3,0:0:0:0:
287,261,8164,1,4,0:3:0:0:
374,349,8325,6,0,P|313:324|213:335,1,137.6,14|0,0:0|1:2,0:0:0:0:
111,318,8809,2,0,P|126:370|135:412,1,68.8,8|0,0:0|0:0,0:0:0:0:
190,250,9132,5,10,0:0:0:0:
78,160,9293,1,2,1:2:0:0:
168,48,9454,2,0,B|149:16|105:5|105:5|215:8|189:111|294:108,1,275.2,14|0,0:0|0:0,0:0:0:0:
388,35,10261,1,8,0:0:0:0:
429,31,10341,1,8,0:0:0:0:
462,57,10422,1,8,0:0:0:0:
469,99,10502,1,8,0:0:0:0:
446,134,10583,1,8,0:0:0:0:
78,160,10906,6,0,P|30:185|49:279,1,129,6|0,1:2|0:0,0:0:0:0:
39,259,11229,2,0,B|117:274|117:274|121:282|121:282|210:297,1,172,8|0,0:0|1:2,0:0:0:0:
273,246,11713,1,2,0:0:0:0:
432,339,11874,1,10,0:0:0:0:
341,378,12035,5,2,0:0:0:0:
341,378,12196,2,0,P|352:315|379:231,1,129,0|0,1:2|0:0,0:0:0:0:
380,244,12519,1,8,0:0:0:0:
443,93,12680,1,0,1:2:0:0:
443,93,12761,1,8,0:0:0:0:
443,93,12842,2,0,P|416:149|329:142,1,129,2|0,1:2|0:0,0:0:0:0:
345,145,13164,2,0,P|320:87|254:70,1,129,10|0,0:0|0:0,0:0:0:0:
196,10,13487,6,0,P|212:70|236:198,1,172,2|0,1:2|1:2,0:0:0:0:
282,318,13971,2,0,P|298:270|330:205,1,86,10|0,0:0|0:0,0:0:0:0:
368,382,14293,1,10,0:0:0:0:
368,382,14454,1,8,0:0:0:0:
179,323,14616,6,0,B|90:298|98:390|13:359,1,172,6|0,1:2|0:0,0:0:0:0:
119,231,15100,1,10,0:0:0:0:
119,231,15180,1,2,0:0:0:0:
119,231,15261,2,0,P|113:184|103:126,1,86,2|0,1:2|0:0,0:0:0:0:
256,13,15583,2,0,P|262:60|272:118,1,86,10|0,0:0|0:0,0:0:0:0:
165,62,15906,1,8,0:0:0:0:
340,146,16067,6,0,P|399:126|406:41,1,129,14|0,0:0|0:0,0:0:0:0:
416,66,16390,1,8,0:0:0:0:
483,181,16551,2,0,P|500:245|515:285,1,86,2|8,1:2|0:0,0:0:0:0:
363,384,16874,2,0,P|346:320|331:280,1,86,2|8,1:2|0:0,0:0:0:0:
340,146,17196,5,2,1:2:0:0:
202,210,17358,2,0,P|159:217|118:230,1,86,8|0,0:0|1:2,0:0:0:0:
63,57,17680,2,0,B|159:54|122:134|223:120,1,172,8|10,0:0|0:0,0:0:0:0:
300,161,18083,1,2,0:0:0:0:
300,161,18164,2,0,P|328:148|372:143,1,43,2|2,1:2|0:0,0:0:0:0:
424,71,18325,1,10,0:2:0:0:
451,79,18406,1,2,0:2:0:0:
479,75,18487,1,2,1:2:0:0:
502,59,18567,1,2,0:2:0:0:
512,31,18648,6,0,B|487:107|487:107|490:113|490:113|458:219,1,172,14|0,1:2|1:2,0:0:0:0:
341,330,19132,2,0,P|327:272|312:225,1,86,10|0,0:0|1:2,0:0:0:0:
445,384,19455,1,10,0:0:0:0:
450,363,19536,1,8,0:0:0:0:
455,342,19616,1,10,0:0:0:0:
465,194,19777,6,0,B|522:206|609:109|386:31|358:151|418:251|282:252,2,344,14|0|0,0:0|3:0|0:0,0:0:0:0:
341,330,23809,6,0,L|331:389,1,51.599998425293,2|0,1:2|3:2,0:0:0:0:
255,365,24132,2,0,L|264:315,1,51.599998425293,0|0,3:2|3:2,0:0:0:0:
142,169,24777,5,2,0:0:0:0:
142,169,24938,1,2,0:0:0:0:
99,241,25100,2,0,L|115:314,2,51.599998425293,2|0|0,3:2|3:0|3:0,0:0:0:0:
27,199,25583,1,0,3:0:0:0:
278,51,26067,5,2,0:0:0:0:
278,51,26229,1,2,0:0:0:0:
321,121,26390,2,0,P|373:129|413:226,1,154.799995275879,2|0,1:2|0:0,0:0:0:0:
482,263,27035,2,0,P|421:278|325:311,1,154.799995275879,2|0,0:0|0:0,0:0:0:0:
250,332,27680,2,0,L|240:396,2,51.599998425293,0|0|0,3:0|3:0|3:0,0:0:0:0:
191,268,28164,1,0,3:0:0:0:
69,310,28325,5,2,0:0:0:0:
69,310,28487,1,2,0:0:0:0:
69,310,28648,1,2,0:0:0:0:
16,232,28809,1,2,0:0:0:0:
90,172,28971,2,0,B|158:147|198:203|168:198|205:252|273:230,1,206.399993701172,2|0,1:2|0:0,0:0:0:0:
465,186,29938,5,2,0:0:0:0:
329,40,30261,2,0,L|342:110,1,51.599998425293,2|0,3:2|3:0,0:0:0:0:
420,106,30583,1,2,3:2:0:0:
420,106,30745,1,2,3:2:0:0:
271,230,31067,2,0,P|209:241|149:256,1,103.199996850586,2|0,0:0|0:0,0:0:0:0:
92,211,31551,6,0,P|53:190|51:122,1,103.199996850586,2|0,3:2|0:0,0:0:0:0:
97,64,32035,2,0,P|151:57|258:38,1,154.799995275879,2|0,0:0|0:0,0:0:0:0:
357,212,32842,6,0,L|347:270,1,51.599998425293,0|0,3:0|3:0,0:0:0:0:
426,274,33164,2,0,L|436:216,1,51.599998425293,0|0,3:0|3:0,0:0:0:0:
503,168,33487,1,2,0:0:0:0:
455,106,33648,1,2,0:0:0:0:
455,106,33809,1,2,0:0:0:0:
198,71,34132,6,0,B|249:39|249:39|196:169,1,180.599994488526,2|0,1:2|1:2,0:0:0:0:
48,347,35100,1,2,0:0:0:0:
48,347,35261,1,2,1:2:0:0:
129,267,35422,1,10,0:0:0:0:
65,212,35583,2,0,P|57:156|42:87,2,120.399996325684,8|4|4,0:3|0:3|0:3,0:0:0:0:
133,271,36390,1,2,0:0:0:0:
133,271,36551,1,2,1:2:0:0:
155,378,36713,6,0,P|195:329|257:336,1,120.399996325684,2|0,1:2|0:0,0:0:0:0:
325,297,37196,2,0,P|365:346|427:339,1,120.399996325684,2|0,1:2|0:0,0:0:0:0:
432,264,37680,1,2,1:2:0:0:
308,113,38003,1,2,3:2:0:0:
308,113,38164,1,0,3:2:0:0:
469,0,38487,2,0,B|452:77|452:77|461:94|461:94|441:197,1,180.599994488526,2|0,1:2|1:2,0:0:0:0:
236,264,39293,6,0,B|172:270|194:306|111:308,2,120.399996325684,2|0|0,1:2|1:2|1:2,0:0:0:0:
68,378,40261,1,2,1:2:0:0:
119,212,40583,1,10,3:2:0:0:
119,212,40745,2,0,L|112:143,1,60.1999981628419,8|0,3:2|0:0,0:0:0:0:
39,89,41067,2,0,P|96:67|96:5,2,120.399996325684,10|0|0,0:0|1:2|1:2,0:0:0:0:
189,95,41874,6,0,P|232:100|278:112,1,68.8,10|8,0:0|0:3,0:0:0:0:
256,105,42196,1,4,0:3:0:0:
243,241,42358,6,0,P|282:223|328:211,1,68.8,10|8,0:0|0:3,0:0:0:0:
306,216,42680,1,4,0:3:0:0:
359,347,42842,5,10,0:0:0:0:
406,267,43003,1,2,1:2:0:0:
255,335,43164,5,6,1:2:0:0:
255,335,43325,2,0,P|182:354|116:379,1,137.6,8|8,0:3|0:3,0:0:0:0:
55,301,43809,2,0,L|70:229,1,68.8,6|4,0:3|0:3,0:0:0:0:
142,286,44132,2,0,L|127:358,1,68.8,6|4,1:3|1:3,0:0:0:0:
0,202,44454,6,0,P|61:182|130:156,1,116.099996456909,6|0,1:2|0:0,0:0:0:0:
116,148,44777,2,0,B|144:97|144:97|258:81,1,154.799995275879,8|0,0:0|0:0,0:0:0:0:
346,24,45261,1,2,1:2:0:0:
346,24,45342,1,2,0:0:0:0:
346,24,45422,2,0,P|325:71|313:119,1,77.3999976379395,10|0,0:0|0:0,0:0:0:0:
309,224,45745,6,0,P|376:208|367:104,1,154.799995275879,2|8,1:2|0:0,0:0:0:0:
512,244,46229,2,0,P|464:193|379:253,1,154.799995275879,0|0,1:2|1:2,0:0:0:0:
428,59,46713,1,10,0:0:0:0:
428,59,46874,1,2,0:0:0:0:
317,95,47035,6,0,P|260:87|195:81,1,116.099996456909,2|0,1:2|0:0,0:0:0:0:
190,98,47358,2,0,B|142:116|142:116|116:217,1,154.799995275879,8|0,0:0|0:0,0:0:0:0:
35,326,47842,1,2,1:2:0:0:
35,326,47922,1,2,0:0:0:0:
35,326,48003,2,0,P|88:301|133:298,1,77.3999976379395,10|0,0:0|0:0,0:0:0:0:
267,329,48325,6,0,P|318:348|364:353,1,77.3999976379395,2|0,1:2|0:0,0:0:0:0:
182,342,48648,1,10,0:0:0:0:
182,342,48729,1,2,0:0:0:0:
182,342,48809,2,0,L|191:389,2,38.6999988189698,2|2|2,1:2|0:0|0:0,0:0:0:0:
220,258,49132,1,2,1:2:0:0:
124,164,49293,2,0,P|112:89|100:34,1,116.099996456909,10|0,0:0|0:0,0:0:0:0:
114,36,49616,6,0,P|167:49|248:64,1,116.099996456909,2|0,1:2|0:0,0:0:0:0:
234,81,49938,2,0,B|251:33|251:33|357:2,1,154.799995275879,8|0,0:0|0:0,0:0:0:0:
456,82,50422,1,2,1:2:0:0:
456,82,50503,1,2,0:0:0:0:
456,82,50583,2,0,P|442:127|434:173,1,77.3999976379395,10|0,0:0|0:0,0:0:0:0:
306,180,50906,6,0,P|245:200|220:259,1,116.099996456909,2|0,1:2|0:0,0:0:0:0:
221,242,51229,1,10,0:0:0:0:
354,339,51390,2,0,P|294:315|237:344,1,116.099996456909,2|0,1:2|0:0,0:0:0:0:
249,331,51713,1,2,1:2:0:0:
127,257,51874,2,0,L|147:123,1,116.099996456909,8|0,0:0|0:0,0:0:0:0:
156,127,52196,6,0,P|154:80|49:71,1,154.799995275879,2|8,1:2|0:0,0:0:0:0:
7,145,52680,2,0,P|21:191|26:241,1,77.3999976379395,2|0,0:0|1:2,0:0:0:0:
4,350,53003,2,0,L|25:317,1,38.6999988189698,2|2,0:0|0:0,0:0:0:0:
25,317,53164,2,0,P|78:334|116:356,1,77.3999976379395,10|0,0:0|0:0,0:0:0:0:
230,261,53487,5,0,1:2:0:0:
321,317,53648,2,0,P|370:301|412:292,1,77.3999976379395,8|0,0:0|0:0,0:0:0:0:
438,205,53971,1,8,0:3:0:0:
314,151,54132,2,0,P|323:188|335:231,2,77.3999976379395,10|4|4,0:3|0:3|0:3,0:0:0:0:
341,45,54616,5,8,0:0:0:0:
341,45,54696,1,8,0:0:0:0:
341,45,54777,2,0,P|393:54|445:71,1,86,2|0,1:2|0:0,0:0:0:0:
230,169,55100,2,0,P|282:160|334:143,1,86,10|0,0:0|0:0,0:0:0:0:
130,42,55422,2,0,P|182:51|234:68,1,86,2|0,0:0|1:2,0:0:0:0:
52,124,55745,1,10,0:0:0:0:
52,124,55906,1,2,0:0:0:0:
109,221,56067,6,0,P|182:257|142:349,1,172,2|8,1:2|0:0,0:0:0:0:
32,290,56551,2,0,P|22:248|10:204,2,86,0|2|0,1:2|0:0|1:2,0:0:0:0:
91,380,57035,1,10,0:0:0:0:
91,380,57196,1,2,0:0:0:0:
243,323,57358,6,0,P|300:331|428:366,1,172,2|8,1:2|0:0,0:0:0:0:
397,205,57842,2,0,P|340:197|212:162,1,172,2|0,1:2|1:2,0:0:0:0:
108,230,58325,2,0,L|128:331,1,86,10|0,0:0|1:2,0:0:0:0:
0,162,58648,6,0,B|21:115|21:115|150:75,1,172,2|8,1:2|0:0,0:0:0:0:
229,168,59132,2,0,B|250:215|250:215|379:255,1,172,2|0,1:2|1:2,0:0:0:0:
499,172,59616,2,0,L|481:8,1,129,10|0,0:0|0:0,0:0:0:0:
470,49,59938,6,0,P|420:63|368:95,1,86,10|8,0:0|0:3,0:0:0:0:
357,154,60261,1,4,0:3:0:0:
451,248,60422,2,0,P|371:245|345:342,1,172,8|0,0:0|1:2,0:0:0:0:
409,384,60906,1,10,0:0:0:0:
409,384,61067,1,2,1:2:0:0:
247,350,61229,6,0,P|263:283|272:236,1,86,8|8,0:0|0:3,0:0:0:0:
249,182,61551,1,4,0:3:0:0:
98,199,61713,2,0,P|172:150|155:56,1,172,8|0,0:0|1:2,0:0:0:0:
91,44,62196,1,10,0:0:0:0:
91,44,62358,1,2,1:2:0:0:
20,149,62519,6,0,P|40:210|69:325,1,172,2|8,1:2|0:0,0:0:0:0:
190,383,63003,2,0,P|213:323|328:321,1,172,2|0,1:2|1:2,0:0:0:0:
409,228,63487,1,10,0:0:0:0:
409,228,63648,1,0,1:2:0:0:
491,319,63809,6,0,B|460:340|460:340|403:341|403:341|347:374,2,129,10|8|8,1:3|1:3|1:3,0:0:0:0:
409,228,64454,1,6,1:3:0:0:
496,165,64616,1,4,1:3:0:0:
496,165,64777,2,0,B|510:101|510:101|428:55,1,129,4|0,1:3|0:0,0:0:0:0:
441,63,65100,6,0,B|375:70|403:112|309:105,3,120.399996325684,6|0|0|0,1:2|1:2|1:2|1:2,0:0:0:0:
120,220,66390,5,0,3:0:0:0:
120,220,66551,1,0,3:0:0:0:
151,148,66713,2,0,B|175:151|175:151|219:249,2,120.399996325684,0|0|0,3:2|1:2|1:2,0:0:0:0:
405,350,67680,5,0,3:0:0:0:
331,319,67842,1,0,3:0:0:0:
331,319,67922,1,0,3:0:0:0:
331,319,68003,2,0,B|265:326|293:368|199:361,2,120.399996325684,0|0|0,3:2|1:2|1:2,0:0:0:0:
497,107,68971,5,2,1:2:0:0:
404,89,69132,2,0,P|415:131|422:179,1,77.3999976379395,8|0,0:0|1:2,0:0:0:0:
339,262,69454,2,0,L|331:327,2,38.6999988189698,8|8|0,0:0|0:0|1:2,0:0:0:0:
231,175,69777,1,8,0:0:0:0:
203,257,69938,1,8,0:0:0:0:
206,279,70018,1,8,0:0:0:0:
210,302,70099,1,8,0:0:0:0:
214,325,70179,1,8,0:0:0:0:
217,348,70260,1,6,1:2:0:0:
114,332,71551,6,0,L|56:364,2,51.599998425293,0|0|0,3:0|3:0|3:0,0:0:0:0:
305,257,72600,5,2,0:0:0:0:
305,257,72680,2,0,P|327:256|339:258,1,34.4,2|2,0:0|0:0,0:0:0:0:
340,259,72842,2,0,P|340:215|334:167,1,77.3999976379395,14|8,0:0|0:3,0:0:0:0:
243,178,73164,1,4,0:3:0:0:
411,137,73325,2,0,P|435:216|419:294,1,154.799995275879,14|4,0:0|0:3,0:0:0:0:
284,324,73809,5,10,0:0:0:0:
144,294,73971,2,0,B|113:312|88:349|88:349|39:300|95:219|95:219|121:208|121:208|176:155|168:36|82:13|16:87|72:157,1,541.799983465577,10|0,1:2|0:0,0:0:0:0:
190,206,76390,6,0,L|219:305,1,103.2,2|0,0:0|0:0,0:0:0:0:
168,365,76713,2,0,P|234:347|302:335,1,137.6,2|0,0:0|0:0,0:0:0:0:
298,323,77196,2,0,P|230:335|164:354,1,137.6,2|0,0:0|0:0,0:0:0:0:
63,339,77680,2,0,P|26:302|60:244,1,103.2,2|0,0:0|0:0,0:0:0:0:
52,250,78003,6,0,P|36:173|28:89,1,154.799995275879,6|0,1:2|0:0,0:0:0:0:
43,87,78325,2,0,P|114:102|165:114,1,103.199996850586,8|0,0:0|0:0,0:0:0:0:
316,28,78648,2,0,P|245:13|194:1,1,103.199996850586,0|0,1:2|0:0,0:0:0:0:
259,175,78971,1,10,0:0:0:0:
378,137,79132,1,2,0:0:0:0:
259,175,79293,6,0,P|208:211|246:313,1,154.799995275879,2|0,1:2|0:0,0:0:0:0:
218,294,79616,1,10,0:0:0:0:
407,384,79858,1,8,0:0:0:0:
407,384,79938,2,0,P|427:282|451:182,1,206.399993701172,2|8,1:2|0:0,0:0:0:0:
490,26,80422,1,2,0:0:0:0:
303,106,80583,6,0,P|235:99|178:222,1,206.399993701172,2|8,1:2|0:0,0:0:0:0:
108,367,81067,2,0,P|102:304|91:256,2,103.199996850586,0|0|0,3:0|1:2|0:0,0:0:0:0:
3,235,81551,1,10,0:0:0:0:
3,235,81713,1,2,0:0:0:0:
193,310,81874,5,6,1:2:0:0:
290,257,82035,1,10,0:0:0:0:
290,257,82116,1,8,0:0:0:0:
290,257,82196,1,10,0:0:0:0:
218,137,82358,2,0,B|145:158|145:158|187:120,1,116.099996456909,10|0,0:3|0:0,0:0:0:0:
226,143,82680,2,0,B|300:153|300:153|324:187|324:187|421:201,1,197.800003772736,10|8,0:0|0:0,0:0:0:0:
411,193,83083,1,8,0:0:0:0:
418,188,83164,6,0,P|431:122|448:65,1,103.199996850586,6|0,1:2|0:0,0:0:0:0:
290,257,83487,2,0,P|277:323|260:380,1,103.199996850586,8|0,0:0|0:0,0:0:0:0:
459,372,83809,2,0,P|442:293|352:299,1,154.799995275879,2|0,1:2|0:0,0:0:0:0:
364,287,84132,2,0,P|301:298|240:310,1,103.199996850586,10|0,0:0|0:0,0:0:0:0:
75,271,84454,6,0,P|119:225|161:179,1,103.199996850586,2|0,1:2|0:0,0:0:0:0:
318,114,84777,2,0,P|308:177|301:239,1,103.199996850586,10|0,0:0|0:0,0:0:0:0:
214,384,85100,2,0,P|184:327|153:273,1,103.199996850586,2|0,1:2|0:0,0:0:0:0:
139,104,85422,2,0,P|196:132|252:158,1,103.199996850586,10|0,0:0|0:0,0:0:0:0:
406,13,85745,6,0,P|379:75|274:45,1,154.799995275879,10|0,1:2|0:0,0:0:0:0:
295,72,86067,1,10,1:2:0:0:
308,211,86229,2,0,P|247:237|204:263,1,103.199996850586,2|8,0:0|1:2,0:0:0:0:
407,308,86551,1,10,0:0:0:0:
394,330,86631,1,8,0:0:0:0:
382,353,86712,1,8,1:2:0:0:
372,134,86874,5,10,0:0:0:0:
372,134,87035,1,0,1:2:0:0:
299,304,87196,5,10,0:0:0:0:
299,304,87358,1,0,1:2:0:0:
261,119,87519,5,10,0:0:0:0:
261,119,87680,1,0,1:2:0:0:
395,245,87842,5,10,0:0:0:0:
399,253,87922,1,10,0:0:0:0:
403,261,88003,1,0,1:2:0:0:
212,223,88164,5,10,0:0:0:0:
194,250,88245,1,10,0:0:0:0:
176,277,88325,2,0,L|87:291,1,77.3999976379395,2|0,0:0|0:0,0:0:0:0:
85,304,88648,6,0,B|167:294|139:365|225:351,1,154.799995275879,14|0,0:0|0:0,0:0:0:0:
237,340,88971,2,0,P|317:351|370:366,1,103.199996850586,0|0,1:2|1:2,0:0:0:0:
512,305,89293,1,10,0:0:0:0:
403,261,89454,1,2,0:0:0:0:
512,305,89616,6,0,P|489:238|477:185,1,103.199996850586,2|0,1:2|1:2,0:0:0:0:
309,166,89938,2,0,P|376:143|429:131,1,103.199996850586,10|0,0:0|1:2,0:0:0:0:
185,2,90261,2,0,P|234:73|343:40,1,206.399993701172,2|8,0:0|0:0,0:0:0:0:
484,134,90745,1,2,0:0:0:0:
279,98,90906,6,0,B|254:189|254:189|260:183|260:183|225:322,1,206.399993701172,2|8,1:2|0:0,0:0:0:0:
83,366,91390,1,2,0:0:0:0:
41,255,91551,2,0,P|98:270|167:277,1,103.199996850586,0|0,1:2|1:2,0:0:0:0:
339,296,91874,1,10,0:0:0:0:
254,381,92035,1,2,1:2:0:0:
168,201,92196,5,14,0:0:0:0:
339,198,92358,1,8,0:0:0:0:
376,203,92438,1,8,0:0:0:0:
409,185,92519,1,8,0:0:0:0:
424,150,92599,1,8,0:0:0:0:
415,113,92680,2,0,B|431:15|431:15|418:55|375:67,1,154.799995275879,10|0,0:0|0:0,0:0:0:0:
320,172,93003,2,0,P|231:186|149:205,1,154.799995275879,10|0,0:0|0:0,0:0:0:0:
167,200,93325,1,10,0:0:0:0:
297,287,93487,6,0,P|270:336|249:395,1,103.199996850586,6|0,1:2|1:2,0:0:0:0:
99,284,93809,2,0,P|74:223|53:181,1,103.199996850586,8|0,0:0|0:0,0:0:0:0:
149,17,94132,2,0,P|174:78|195:120,1,103.199996850586,8|0,0:0|1:2,0:0:0:0:
320,172,94454,5,10,0:0:0:0:
500,109,94616,1,0,1:2:0:0:
310,190,94777,5,10,0:0:0:0:
473,222,94938,1,0,1:2:0:0:
294,201,95100,5,10,0:0:0:0:
383,275,95261,1,0,1:2:0:0:
282,206,95422,5,10,0:0:0:0:
290,284,95583,1,0,1:2:0:0:
267,207,95745,5,10,0:0:0:0:
200,311,95906,1,8,0:0:0:0:
200,311,95987,1,8,0:0:0:0:
200,311,96067,2,0,B|137:326|137:326|121:351|121:351|33:374,1,154.799995275879,2|0,1:2|0:0,0:0:0:0:
59,377,96390,1,2,0:0:0:0:
0,270,96551,2,0,P|25:208|37:163,1,103.199996850586,2|8,1:2|0:0,0:0:0:0:
174,97,96874,2,0,P|149:35|137:-10,1,103.199996850586,2|0,1:2|0:0,0:0:0:0:
119,242,97196,6,0,P|163:179|265:219,1,154.799995275879,14|0,0:0|0:0,0:0:0:0:
240,191,97519,2,0,L|223:251,1,51.599998425293,8|0,1:3|0:0,0:0:0:0:
318,253,97680,2,0,L|335:313,1,51.599998425293,8|0,1:3|0:0,0:0:0:0:
419,312,97842,2,0,L|402:372,1,51.599998425293,8|0,1:3|0:0,0:0:0:0:
404,361,98164,5,2,0:0:0:0:
318,253,98325,1,2,0:0:0:0:
381,126,98487,1,2,0:0:0:0:
272,8,98648,1,14,0:0:0:0:
155,112,98809,6,0,P|173:176|186:247,1,103.199996850586,2|0,0:0|1:2,0:0:0:0:
72,384,99132,2,0,P|54:320|41:249,1,103.199996850586,2|0,0:0|1:2,0:0:0:0:
241,347,99454,5,8,0:0:0:0:
318,253,99616,1,2,0:0:0:0:
155,112,99777,1,10,0:0:0:0:
256,192,99858,12,0,101229,0:0:0:0:
111,266,106067,5,2,0:0:0:0:
109,273,106147,1,2,0:0:0:0:
107,282,106228,1,2,0:0:0:0:
106,290,106308,1,2,0:0:0:0:
105,298,106390,2,0,P|41:303|25:388,2,154.799995275879,6|0|0,1:2|0:0|0:0,0:0:0:0:
276,320,107519,1,4,0:0:0:0:
412,191,107842,1,2,0:0:0:0:
412,191,108003,1,2,0:0:0:0:
307,49,108325,1,2,0:0:0:0:
228,95,108487,1,2,0:0:0:0:
228,95,108567,1,2,0:0:0:0:
228,95,108648,2,0,L|235:139,3,25.7999992126465,2|2|2|2,0:0|0:0|0:0|0:0,0:0:0:0:
173,172,108971,6,0,P|126:159|18:148,1,137.6,14|0,0:0|0:0,0:0:0:0:
99,246,109454,1,2,0:0:0:0:
97,256,109534,1,2,0:0:0:0:
96,266,109615,1,2,0:0:0:0:
94,276,109695,1,2,0:0:0:0:
93,286,109777,2,0,L|100:331,2,34.4,10|2|2,0:0|0:0|0:0,0:0:0:0:
0,376,110100,2,0,P|114:332|488:260,1,481.6,14|0,0:0|0:0,0:0:0:0:
215,360,111551,6,0,L|235:228,2,120.399996325684,6|0|0,1:2|1:2|1:2,0:0:0:0:
37,240,112519,1,2,1:2:0:0:
37,240,112680,1,2,0:0:0:0:
37,240,112842,2,0,P|101:217|173:182,2,120.399996325684,2|0|0,1:2|1:2|1:2,0:0:0:0:
141,47,113809,6,0,L|133:114,1,60.1999981628419,2|0,1:2|0:0,0:0:0:0:
133,106,114132,2,0,P|174:111|249:179,1,120.399996325684,6|0,1:2|1:2,0:0:0:0:
343,304,114777,2,0,P|302:309|227:377,1,120.399996325684,2|0,1:2|1:2,0:0:0:0:
48,378,115422,2,0,L|62:306,2,60.1999981628419,2|8|4,1:2|0:3|0:3,0:0:0:0:
143,333,115906,2,0,L|152:284,1,30.0999990814209,2|0,0:0|0:0,0:0:0:0:
102,249,116067,1,2,1:2:0:0:
102,249,116229,2,0,L|95:177,1,60.1999981628419,10|4,0:3|0:3,0:0:0:0:
14,108,116551,5,2,0:0:0:0:
14,108,116713,2,0,P|65:110|148:89,2,120.399996325684,6|0|0,1:2|1:2|1:2,0:0:0:0:
192,259,117680,1,2,1:2:0:0:
329,167,118003,2,0,P|318:98|317:30,1,120.399996325684,2|0,1:2|1:2,0:0:0:0:
394,0,118487,2,0,P|405:69|406:137,1,120.399996325684,2|0,0:0|0:0,0:0:0:0:
468,185,118971,1,0,1:2:0:0:
307,290,119293,6,0,P|247:269|165:256,1,120.399996325684,6|0,1:2|1:2,0:0:0:0:
217,353,119777,2,0,P|158:362|91:388,1,120.399996325684,10|0,0:0|0:0,0:0:0:0:
35,317,120261,2,0,L|50:248,1,60.1999981628419,2|0,1:2|0:0,0:0:0:0:
61,168,120583,6,0,L|-7:189,2,60.1999981628419,2|0|0,1:2|0:0|1:2,0:0:0:0:
125,96,121067,1,8,0:0:0:0:
225,173,121229,1,2,1:2:0:0:
297,110,121390,1,8,0:0:0:0:
297,110,121551,1,8,0:0:0:0:
424,88,121713,5,8,0:0:0:0:
424,88,121793,1,8,0:0:0:0:
424,88,121874,2,0,P|468:117|446:215,1,137.6,2|0,1:2|1:2,0:0:0:0:
398,299,122358,2,0,L|307:286,1,68.8,2|0,0:0|1:2,0:0:0:0:
306,200,122680,2,0,L|397:213,1,68.8,2|0,0:0|1:2,0:0:0:0:
153,309,123164,6,0,P|84:323|-6:366,1,154.799995275879,2|8,1:2|0:0,0:0:0:0:
72,171,123648,2,0,P|142:203|217:219,1,154.799995275879,0|0,1:2|1:2,0:0:0:0:
269,120,124132,1,10,0:0:0:0:
269,120,124293,1,2,1:2:0:0:
371,55,124454,6,0,B|415:75|415:75|448:201,1,154.799995275879,2|8,1:2|0:0,0:0:0:0:
304,241,124938,2,0,B|260:261|260:261|227:387,1,154.799995275879,2|0,1:2|1:2,0:0:0:0:
403,350,125422,2,0,P|341:342|290:348,1,77.3999976379395,10|0,0:0|1:2,0:0:0:0:
158,279,125745,6,0,P|143:200|118:106,1,154.799995275879,2|8,1:2|0:0,0:0:0:0:
294,32,126229,2,0,P|309:111|334:205,1,154.799995275879,2|0,1:2|1:2,0:0:0:0:
512,81,126713,2,0,P|435:54|414:50,1,77.3999976379395,10|0,0:0|1:2,0:0:0:0:
418,172,127035,6,0,P|403:224|393:277,1,77.3999976379395,10|8,0:0|0:3,0:0:0:0:
438,327,127358,1,4,0:3:0:0:
303,262,127519,2,0,P|218:290|127:306,1,154.799995275879,8|0,0:0|1:2,0:0:0:0:
91,374,128003,1,10,0:0:0:0:
91,374,128164,1,2,1:2:0:0:
85,235,128325,6,0,P|103:175|111:131,1,77.3999976379395,8|8,0:0|0:3,0:0:0:0:
64,82,128648,1,4,0:3:0:0:
201,159,128809,2,0,P|249:115|353:73,1,154.799995275879,8|0,0:0|1:2,0:0:0:0:
429,107,129293,1,10,0:0:0:0:
429,107,129454,1,2,0:0:0:0:
318,192,129616,6,0,P|300:274|287:351,1,154.799995275879,2|8,1:2|0:0,0:0:0:0:
133,371,130100,2,0,P|59:342|73:256,1,154.799995275879,2|0,1:2|1:2,0:0:0:0:
137,157,130583,2,0,P|201:172|234:187,1,77.3999976379395,10|0,0:0|1:2,0:0:0:0:
109,61,130906,6,0,B|86:53|86:53|-12:87,2,116.099996456909,10|8|8,0:3|0:3|0:3,0:0:0:0:
137,157,131551,1,10,0:3:0:0:
57,275,131713,1,4,0:3:0:0:
57,275,131874,2,0,P|41:223|31:188,1,77.3999976379395,4|0,0:3|0:0,0:0:0:0:
0,345,132196,6,0,B|57:350|51:377|131:376,3,120.399996325684,6|0|0|0,1:2|1:2|1:2|1:2,0:0:0:0:
369,320,133487,5,0,3:2:0:0:
369,320,133648,1,0,3:2:0:0:
296,355,133809,2,0,P|283:294|267:224,2,120.399996325684,0|0|0,3:2|1:2|1:2,0:0:0:0:
462,178,134777,6,0,P|488:147|483:117,1,60.1999981628419,2|0,3:0|3:0,0:0:0:0:
487,129,135100,2,0,L|345:106,2,120.399996325684,0|0|0,3:0|1:2|1:2,0:0:0:0:
270,237,136067,5,2,1:2:0:0:
197,287,136229,2,0,P|192:228|185:195,1,77.3999976379395,8|0,0:0|1:2,0:0:0:0:
120,154,136551,1,8,0:3:0:0:
120,154,136713,1,4,0:3:0:0:
196,56,136874,1,8,0:0:0:0:
90,15,137035,1,8,0:0:0:0:
75,12,137115,1,8,0:0:0:0:
61,9,137196,1,8,0:0:0:0:
47,6,137276,1,8,0:0:0:0:
33,3,137357,1,6,1:2:0:0:
56,190,137680,5,8,0:3:0:0:
56,190,137842,1,8,0:3:0:0:
79,377,138163,5,4,0:3:0:0:
79,377,138325,1,6,0:3:0:0:
251,301,138648,6,0,L|311:309,2,51.599998425293,2|0|0,3:0|3:0|3:0,0:0:0:0:
208,372,139132,1,2,3:0:0:0:
406,112,139616,5,2,1:2:0:0:
406,112,139696,1,2,0:0:0:0:
406,112,139777,2,0,P|430:121|453:135,1,34.4,2|2,0:0|0:0,0:0:0:0:
437,125,139938,2,0,P|425:190|422:234,1,77.3999976379395,14|0,0:0|1:2,0:0:0:0:
335,216,140261,1,0,1:2:0:0:
451,293,140422,2,0,P|414:237|323:236,1,154.799995275879,8|0,0:0|1:2,0:0:0:0:
211,314,140906,1,10,0:0:0:0:
211,314,141067,1,8,0:0:0:0:
128,238,141229,6,0,P|110:172|84:92,1,137.6,2|0,0:0|0:0,0:0:0:0:
100,103,141713,2,0,P|120:168|139:234,1,137.6,2|0,0:0|0:0,0:0:0:0:
51,312,142196,2,0,P|59:358|132:365,1,103.2,2|0,0:0|0:0,0:0:0:0:
120,365,142519,6,0,P|181:351|286:337,1,154.799995275879,6|0,1:2|0:0,0:0:0:0:
284,343,142842,2,0,P|293:263|295:203,1,103.199996850586,8|0,0:0|0:0,0:0:0:0:
458,150,143164,2,0,P|449:230|447:290,1,103.199996850586,0|0,1:2|0:0,0:0:0:0:
323,125,143487,1,10,0:0:0:0:
389,32,143648,1,2,0:0:0:0:
323,125,143809,6,0,P|287:195|202:194,1,154.799995275879,2|0,1:2|0:0,0:0:0:0:
217,201,144132,1,10,0:0:0:0:
50,45,144374,1,8,0:0:0:0:
50,45,144454,2,0,P|75:122|114:259,1,206.399993701172,2|8,1:2|0:0,0:0:0:0:
60,370,144938,1,2,0:0:0:0:
232,359,145100,6,0,P|269:296|398:332,1,206.399993701172,2|8,1:2|0:0,0:0:0:0:
322,145,145583,2,0,P|311:103|302:35,2,103.199996850586,0|0|0,3:0|1:2|0:0,0:0:0:0:
450,180,146067,1,10,0:0:0:0:
450,180,146229,1,2,0:0:0:0:
368,341,146390,5,6,1:2:0:0:
368,341,146551,2,0,P|307:327|236:322,1,103.199996850586,2|8,0:0|0:0,0:0:0:0:
116,332,146874,2,0,B|46:368|46:368|75:324,1,116.099996456909,10|0,0:0|0:0,0:0:0:0:
129,323,147196,2,0,B|149:233|149:233|140:210|140:210|159:131,1,197.800003772736,10|8,0:0|0:0,0:0:0:0:
41,10,147680,6,0,P|117:39|168:48,1,103.199996850586,6|0,1:2|0:0,0:0:0:0:
158,235,148003,2,0,P|110:214|60:201,1,103.199996850586,8|0,0:0|0:0,0:0:0:0:
258,141,148325,2,0,P|324:112|313:23,1,154.799995275879,2|0,1:2|0:0,0:0:0:0:
312,35,148648,2,0,P|341:87|382:150,1,103.199996850586,10|0,0:0|0:0,0:0:0:0:
432,338,148971,6,0,P|377:312|307:286,1,103.199996850586,2|0,1:2|0:0,0:0:0:0:
157,163,149293,2,0,P|215:151|288:131,1,103.199996850586,10|0,0:0|0:0,0:0:0:0:
482,143,149616,2,0,P|441:186|394:245,1,103.199996850586,2|0,1:2|0:0,0:0:0:0:
230,350,149938,2,0,P|237:290|240:215,1,103.199996850586,10|0,0:0|0:0,0:0:0:0:
135,85,150261,6,0,P|80:109|82:203,1,154.799995275879,10|0,1:2|0:0,0:0:0:0:
75,195,150583,1,10,1:2:0:0:
19,350,150745,2,0,P|74:323|138:294,1,103.199996850586,2|8,0:0|1:2,0:0:0:0:
216,382,151068,1,10,0:0:0:0:
223,366,151149,1,8,0:0:0:0:
230,350,151229,1,8,1:2:0:0:
392,319,151390,5,10,0:0:0:0:
392,319,151551,1,0,1:2:0:0:
239,247,151713,5,8,0:0:0:0:
239,247,151874,1,2,1:2:0:0:
453,164,152035,5,8,0:0:0:0:
453,164,152196,1,2,1:2:0:0:
250,111,152358,5,8,0:0:0:0:
251,121,152438,1,8,0:0:0:0:
253,131,152519,1,2,1:2:0:0:
404,30,152680,5,8,0:0:0:0:
396,50,152761,1,8,0:0:0:0:
390,73,152842,2,0,B|308:63|336:134|250:120,1,154.799995275879,6|0,1:2|0:0,0:0:0:0:
254,137,153164,2,0,P|182:155|137:191,1,103.199996850586,8|0,0:0|0:0,0:0:0:0:
56,0,153487,2,0,P|55:51|37:99,1,103.199996850586,0|0,1:2|1:2,0:0:0:0:
54,203,153809,1,10,0:0:0:0:
54,203,153971,1,2,0:0:0:0:
196,286,154132,6,0,P|129:294|72:306,1,103.199996850586,2|0,1:2|1:2,0:0:0:0:
290,278,154454,2,0,P|298:345|310:402,1,103.199996850586,10|0,0:0|1:2,0:0:0:0:
480,365,154777,2,0,P|411:352|425:219,1,206.399993701172,2|8,0:0|0:0,0:0:0:0:
250,117,155261,1,2,0:0:0:0:
365,0,155422,6,0,P|349:66|327:234,1,206.399993701172,2|8,1:2|0:0,0:0:0:0:
380,336,155906,1,0,3:0:0:0:
503,210,156067,2,0,P|441:228|368:237,1,103.199996850586,0|0,1:2|1:2,0:0:0:0:
196,286,156390,1,10,0:0:0:0:
290,367,156551,1,2,1:2:0:0:
242,191,156713,5,14,0:0:0:0:
86,245,156874,1,8,0:0:0:0:
48,239,156954,1,8,0:0:0:0:
21,212,157035,1,8,0:0:0:0:
16,174,157115,1,8,0:0:0:0:
34,141,157196,2,0,B|68:86|76:49|76:49|61:77|25:113,1,154.799995275879,10|0,0:0|0:0,0:0:0:0:
150,185,157519,2,0,P|216:167|223:82,1,154.799995275879,10|0,0:0|0:0,0:0:0:0:
227,90,157842,1,10,0:0:0:0:
372,8,158003,6,0,P|408:58|448:108,1,103.199996850586,6|0,1:2|1:2,0:0:0:0:
293,249,158325,2,0,P|314:202|333:154,1,103.199996850586,8|0,0:0|0:0,0:0:0:0:
443,283,158648,2,0,P|421:329|402:377,1,103.199996850586,8|0,0:0|1:2,0:0:0:0:
208,304,158970,5,10,0:0:0:0:
35,346,159132,1,0,1:2:0:0:
204,290,159292,5,10,0:0:0:0:
60,267,159454,1,0,1:2:0:0:
205,275,159615,5,10,0:0:0:0:
122,208,159777,1,0,1:2:0:0:
211,261,159938,5,10,0:0:0:0:
201,175,160100,1,0,1:2:0:0:
221,249,160261,5,10,0:0:0:0:
286,143,160422,1,8,0:0:0:0:
286,143,160503,1,8,0:0:0:0:
286,143,160583,2,0,B|355:157|355:157|362:166|362:166|460:187,1,154.799995275879,2|0,1:2|0:0,0:0:0:0:
433,181,160906,1,2,0:0:0:0:
512,45,161067,2,0,P|430:75|369:87,1,103.199996850586,2|8,1:2|0:0,0:0:0:0:
286,143,161390,2,0,P|256:61|244:0,1,103.199996850586,0|0,1:2|0:0,0:0:0:0:
41,19,161713,6,0,P|122:34|130:139,1,154.799995275879,14|0,0:0|0:0,0:0:0:0:
132,107,162035,2,0,L|116:185,1,51.599998425293,8|0,0:3|0:0,0:0:0:0:
205,234,162196,2,0,L|152:293,1,51.599998425293,8|0,0:3|0:0,0:0:0:0:
55,336,162358,2,0,L|80:411,1,51.599998425293,8|0,0:3|0:0,0:0:0:0:
71,384,162680,5,2,0:0:0:0:
170,272,162842,1,2,0:0:0:0:
316,301,163003,1,2,0:0:0:0:
415,189,163164,1,14,0:0:0:0:
512,307,163325,6,0,P|462:293|411:287,1,103.199996850586,2|0,0:0|1:2,0:0:0:0:
240,99,163648,2,0,P|289:112|340:118,1,103.199996850586,2|0,0:0|1:2,0:0:0:0:
438,45,163971,5,8,0:0:0:0:
340,118,164132,1,2,0:0:0:0:
411,287,164293,1,10,0:0:0:0:
165,371,164616,5,0,1:2:0:0:
91,299,164777,2,0,P|108:227|113:190,1,86,8|8,0:0|0:0,0:0:0:0:
109,215,165019,1,8,0:0:0:0:
109,215,165100,1,8,0:0:0:0:
23,113,165261,1,8,0:0:0:0:
55,127,165341,1,8,0:0:0:0:
91,123,165422,1,8,0:0:0:0:
120,104,165502,1,8,0:0:0:0:
137,72,165583,1,8,0:0:0:0:
136,37,165664,1,8,0:0:0:0:
119,6,165745,6,0,P|85:24|58:58,2,47.3000014434815,6|2|2,1:2|0:0|0:0,0:0:0:0:
211,99,166067,2,0,P|268:108|323:123,1,94.600002886963,8|2,0:0|0:0,0:0:0:0:
303,117,166309,1,2,0:0:0:0:
303,117,166390,1,2,1:2:0:0:
411,71,166551,1,2,0:0:0:0:
411,71,166632,1,2,0:0:0:0:
411,71,166713,2,0,P|419:33|433:8,3,47.3000014434815,10|2|2|2,0:0|0:0|0:0|0:0,0:0:0:0:
382,181,167035,5,2,1:2:0:0:
394,200,167115,1,2,0:0:0:0:
405,222,167196,1,2,0:0:0:0:
414,244,167276,1,2,0:0:0:0:
420,266,167358,2,0,P|429:300|432:328,2,47.3000014434815,10|2|2,0:0|0:0|0:0,0:0:0:0:
357,368,167600,5,10,0:0:0:0:
357,368,167680,2,0,P|303:352|238:355,1,94.600002886963,2|2,1:2|0:0,0:0:0:0:
190,333,167922,1,2,0:0:0:0:
190,333,168003,2,0,P|155:349|119:362,3,47.3000014434815,10|2|2|2,0:0|0:0|0:0|0:0,0:0:0:0:
70,319,168325,6,0,P|55:258|37:214,1,94.600002886963,2|0,1:2|0:0,0:0:0:0:
188,148,168648,1,10,0:0:0:0:
88,150,168809,2,0,P|103:89|121:45,1,94.600002886963,2|0,0:0|1:2,0:0:0:0:
8,6,169132,1,2,0:0:0:0:
130,66,169293,2,0,L|240:51,1,94.600002886963,10|0,0:0|0:0,0:0:0:0:
380,137,169616,6,0,P|445:100|435:16,1,141.900004330444,6|0,1:2|0:0,0:0:0:0:
449,38,169938,1,8,0:0:0:0:
324,11,170100,2,0,P|303:78|293:129,1,94.600002886963,10|0,0:0|0:0,0:0:0:0:
234,215,170422,2,0,P|255:282|265:333,1,94.600002886963,10|0,0:0|0:0,0:0:0:0:
354,383,170745,1,10,0:0:0:0:
484,267,170906,6,0,B|404:256|436:321|325:290,1,141.900004330444,14|0,0:0|0:0,0:0:0:0:
351,295,171229,1,0,1:2:0:0:
234,215,171390,6,0,P|247:147|256:56,1,141.900004330444,10|0,0:0|0:0,0:0:0:0:
254,74,171713,1,0,1:2:0:0:
102,102,171874,6,0,P|32:83|38:5,1,141.900004330444,10|0,0:0|0:0,0:0:0:0:
25,22,172196,1,0,1:2:0:0:
197,0,172358,6,0,P|167:65|118:206,1,189.200005773926,10|0,0:0|1:2,0:0:0:0:
47,315,172842,2,0,P|63:356|73:398,3,47.3000014434815,2|2|2|2,1:2|1:2|1:2|1:2,0:0:0:0:
116,268,173164,1,10,0:0:0:0:
156,262,173244,1,10,0:0:0:0:
193,279,173325,1,10,0:0:0:0:
215,314,173405,1,10,0:0:0:0:
214,354,173487,6,0,P|270:333|368:310,1,141.900004330444,14|0,0:0|0:0,0:0:0:0:
359,335,173809,2,0,L|374:268,1,47.3000014434815,0|0,1:2|0:0,0:0:0:0:
492,221,173971,6,0,P|410:198|319:186,1,154.799995275879,14|0,0:0|0:0,0:0:0:0:
336,216,174293,2,0,L|312:149,1,51.599998425293,0|0,1:2|0:0,0:0:0:0:
159,106,174454,6,0,P|235:82|292:72,2,111.799994882202,14|8|4,0:0|0:3|0:3,0:0:0:0:
28,53,174938,1,8,0:0:0:0:
28,53,175100,1,8,0:0:0:0:
116,167,175261,2,0,L|126:112,2,55.8999974411012,8|8|8,0:0|0:0|0:0,0:0:0:0:
29,223,175583,1,8,0:0:0:0:
207,204,175745,1,8,0:0:0:0:
219,236,175825,1,8,0:0:0:0:
230,269,175906,1,8,0:0:0:0:
238,303,175986,1,8,0:0:0:0:
245,338,176067,6,0,B|308:269|360:361|435:292|433:220|357:178|315:253,2,283.800008660889,6|0|0,1:2|1:2|1:2,0:0:0:0:
17,134,177358,5,8,0:3:0:0:
17,134,177519,2,0,L|86:145,1,47.3000014434815,0|0,3:0|0:0,0:0:0:0:
72,149,177680,2,0,L|96:214,1,47.3000014434815,0|0,3:0|0:0,0:0:0:0:
86,204,177842,2,0,L|41:258,1,47.3000014434815,12|0,3:0|0:0,0:0:0:0:
87,321,178003,6,0,P|119:315|166:306,1,47.3000014434815,0|0,3:0|0:0,0:0:0:0:
162,278,178164,2,0,P|194:283|241:290,1,47.3000014434815,0|0,3:0|0:0,0:0:0:0:
254,270,178325,2,0,P|282:285|324:309,1,47.3000014434815,4|0,3:0|0:0,0:0:0:0:
341,291,178487,2,0,P|362:315|393:351,1,47.3000014434815,0|0,3:0|0:0,0:0:0:0:
480,352,178648,5,6,1:2:0:0:
256,192,178729,12,0,181067,0:0:0:0:
416,288,188971,5,2,0:0:0:0:
320,352,189293,1,0,3:2:0:0:
320,352,189455,1,2,3:2:0:0:
320,352,189616,1,2,3:2:0:0:
416,288,190261,5,0,1:2:0:0:
320,352,190422,2,0,P|263:343|204:337,1,94.600002886963,14|8,0:0|0:0,0:0:0:0:
118,379,190745,2,0,P|189:346|139:228,1,189.200005773926,8|8,0:3|0:3,0:0:0:0:
85,219,191229,1,10,0:3:0:0:
85,219,191390,1,10,0:3:0:0:
263,191,191551,6,0,P|318:177|426:159,1,137.6,6|0,1:2|0:0,0:0:0:0:
501,119,192035,1,2,1:2:0:0:
501,119,192196,2,0,P|487:80|467:47,2,68.8,8|0|0,0:0|1:2|0:0,0:0:0:0:
466,220,192680,1,0,1:2:0:0:
466,220,192842,2,0,P|442:272|423:352,2,137.6,2|0|8,1:2|1:2|0:0,0:0:0:0:
397,162,193648,1,2,1:2:0:0:
397,162,193809,2,0,P|350:150|314:136,1,68.8,2|0,0:0|1:2,0:0:0:0:
220,73,194132,6,0,P|145:87|68:115,1,137.6,6|0,1:2|1:2,0:0:0:0:
3,72,194616,2,0,P|15:23|17:-7,1,68.8,2|8,0:0|0:0,0:0:0:0:
171,177,195100,2,0,P|159:226|157:256,1,68.8,2|0,1:2|0:0,0:0:0:0:
63,329,195422,6,0,P|127:303|247:274,1,172,14|0,0:0|1:2,0:0:0:0:
368,343,195906,2,0,L|354:400,1,43,10|8,0:3|0:3,0:0:0:0:
357,384,196067,2,0,P|311:357|331:281,1,129,8|0,0:3|0:0,0:0:0:0:
319,289,196390,2,0,P|310:235|304:184,1,86,6|0,0:3|0:0,0:0:0:0:
437,116,196713,6,0,P|496:103|487:-19,1,172,2|0,1:2|1:2,0:0:0:0:
339,99,197196,1,0,3:0:0:0:
339,99,197358,2,0,P|280:86|154:68,1,172,0|0,1:2|1:2,0:0:0:0:
111,8,197842,1,2,0:0:0:0:
224,134,198003,6,0,P|232:210|125:238,1,172,8|0,0:0|1:2,0:0:0:0:
6,234,198487,1,8,0:0:0:0:
65,302,198648,2,0,P|113:281|169:274,2,86,2|0|8,0:0|1:2|0:0,0:0:0:0:
196,352,199132,1,0,1:2:0:0:
242,267,199293,6,0,P|304:278|413:314,1,172,10|0,0:0|1:2,0:0:0:0:
512,235,199777,1,2,0:0:0:0:
512,235,199938,2,0,P|450:224|341:188,1,172,2|0,1:2|1:2,0:0:0:0:
87,73,200583,6,0,P|143:58|207:31,1,86,8|8,0:0|0:3,0:0:0:0:
241,0,200906,1,4,0:3:0:0:
215,124,201067,2,0,P|313:132|347:208,1,172,8|8,0:0|0:0,0:0:0:0:
283,297,201551,1,10,0:0:0:0:
269,268,201631,1,8,0:3:0:0:
272,236,201712,1,6,0:3:0:0:
391,384,201874,6,0,P|322:362|190:341,1,172,6|0,1:2|1:2,0:0:0:0:
83,361,202358,2,0,P|68:298|58:260,1,86,2|0,0:0|1:2,0:0:0:0:
194,40,202842,2,0,P|209:103|219:141,1,86,10|0,0:0|0:0,0:0:0:0:
148,259,203164,5,10,0:0:0:0:
83,192,203325,2,0,P|157:159|279:137,1,172,8|8,0:0|0:0,0:0:0:0:
313,71,203809,1,8,0:0:0:0:
386,57,203971,1,8,0:0:0:0:
468,120,204132,1,10,0:0:0:0:
508,247,204293,1,8,0:0:0:0:
446,384,204454,1,14,0:0:0:0:
256,192,204535,12,0,206229,0:0:0:0:
162,378,207035,6,0,L|169:336,1,34.4,0|0,3:0|0:0,0:0:0:0:
167,344,207358,1,0,3:0:0:0:
66,327,207519,6,0,L|93:294,1,34.4,0|0,3:0|0:0,0:0:0:0:
87,300,207842,1,0,3:0:0:0:
8,234,208003,6,0,L|47:219,1,34.4,0|0,3:0|0:0,0:0:0:0:
429,232,209616,6,0,P|384:220|347:210,1,68.8,0|0,3:0|0:0,0:0:0:0:
291,250,210100,2,0,P|279:295|269:332,1,68.8,0|0,3:0|0:0,0:0:0:0:
319,380,210583,1,0,3:0:0:0:
0,192,211551,5,8,0:3:0:0:
21,206,211631,1,8,0:3:0:0:
44,217,211712,1,4,0:3:0:0:
68,226,211792,1,4,0:3:0:0:
93,232,211873,1,8,0:3:0:0:
95,356,212035,5,8,0:3:0:0:
95,356,212116,1,4,0:3:0:0:
95,356,212196,2,0,P|156:330|247:320,1,129,6|0,1:2|0:0,0:0:0:0:
217,319,212519,1,0,1:2:0:0:
170,196,212680,6,0,P|235:203|319:240,1,129,14|0,0:0|0:0,0:0:0:0:
294,225,213003,1,0,1:2:0:0:
314,93,213164,6,0,P|367:132|421:206,1,129,14|0,0:0|0:0,0:0:0:0:
406,180,213487,1,0,1:2:0:0:
106,92,213971,5,8,0:0:0:0:
0,192,214132,1,8,0:3:0:0:
8,295,214293,1,4,0:3:0:0:
23,313,214454,1,4,0:3:0:0:
137,322,214616,5,2,0:0:0:0:
137,322,214696,1,2,0:0:0:0:
137,322,214777,2,0,P|199:304|314:292,2,172,2|0|0,1:2|1:2|1:2,0:0:0:0:
210,251,215583,1,2,0:0:0:0:
127,189,215745,2,0,P|144:138|151:100,1,86,2|0,1:2|0:0,0:0:0:0:
315,60,216067,5,8,0:0:0:0:
208,0,216229,2,0,P|226:62|241:112,1,86,8|0,0:0|1:2,0:0:0:0:
366,152,216551,2,0,P|348:90|333:40,1,86,8|0,0:0|1:2,0:0:0:0:
477,82,216874,5,10,0:0:0:0:
452,199,217035,1,10,0:0:0:0:
427,316,217196,1,10,0:0:0:0:
317,245,217358,6,0,P|268:265|231:301,1,86,10|8,0:0|0:0,0:0:0:0:
243,286,217680,1,8,0:0:0:0:
194,182,217842,6,0,P|141:174|91:187,1,86,10|8,0:0|0:0,0:0:0:0:
109,180,218164,1,8,0:0:0:0:
113,81,218325,6,0,P|71:48|21:34,1,86,10|8,0:0|0:0,0:0:0:0:
40,36,218647,1,8,0:0:0:0:
244,14,218809,5,8,0:0:0:0:
244,14,218971,2,0,P|231:66|223:116,1,86,10|8,0:0|0:0,0:0:0:0:
84,179,219293,2,0,P|97:127|105:77,1,86,10|8,0:0|0:0,0:0:0:0:
192,266,219616,1,10,0:0:0:0:
171,271,219696,1,2,0:0:0:0:
151,279,219777,1,10,0:0:0:0:
133,291,219857,1,2,0:0:0:0:
117,305,219938,6,0,P|170:330|238:347,1,94.600002886963,14|8,0:0|0:3,0:0:0:0:
279,302,220261,1,4,0:3:0:0:
168,182,220422,2,0,P|231:162|320:44,1,189.200005773926,14|0,0:0|1:2,0:0:0:0:
276,0,220906,1,10,0:0:0:0:
276,0,221067,1,2,0:0:0:0:
409,90,221229,5,0,1:2:0:0:
506,218,221390,1,8,0:0:0:0:
456,303,221551,2,0,P|408:318|357:341,1,94.600002886963,8|0,0:0|1:2,0:0:0:0:
279,302,221874,5,0,1:2:0:0:
108,241,222035,1,0,1:2:0:0:
76,242,222115,1,0,1:2:0:0:
47,230,222196,1,8,0:0:0:0:
26,207,222276,1,8,0:0:0:0:
17,177,222357,1,8,0:0:0:0:
22,146,222438,1,8,0:0:0:0:
40,120,222518,5,14,1:2:0:0:
140,146,222680,1,10,1:2:0:0:
145,156,223003,5,10,1:2:0:0:
1,253,223164,1,10,1:2:0:0:
0,265,223487,5,10,1:2:0:0:
211,347,223648,1,10,1:2:0:0:
140,384,223809,6,0,L|132:328,2,51.6,2|0|0,0:0|0:0|0:0,0:0:0:0:
182,268,225100,6,0,P|258:273|362:295,1,154.799995275879,14|0,0:0|0:0,0:0:0:0:
477,183,225583,1,8,0:3:0:0:
477,183,225745,2,0,P|423:193|438:292,1,154.799995275879,8|0,0:3|0:0,0:0:0:0:
306,358,226229,1,10,0:3:0:0:
306,358,226390,2,0,P|331:309|335:274,2,77.3999976379395,10|4|0,0:3|0:3|0:0,0:0:0:0:
182,268,226874,1,4,0:3:0:0:
182,268,227035,2,0,P|238:255|267:240,1,77.3999976379395,6|4,0:3|0:3,0:0:0:0:
260,161,227358,2,0,P|223:149|189:129,1,77.3999976379395,4|4,0:3|0:3,0:0:0:0:
59,48,227680,6,0,P|88:107|123:207,1,154.799995275879,14|0,0:0|0:0,0:0:0:0:
74,295,228164,2,0,P|45:236|10:136,1,154.799995275879,8|0,0:3|0:0,0:0:0:0:
59,48,228648,1,6,0:3:0:0:
145,66,228809,1,2,0:0:0:0:
312,17,228971,5,14,0:0:0:0:
217,12,229132,2,0,P|237:62|249:113,1,77.3999976379395,10|0,0:0|0:0,0:0:0:0:
386,166,229454,2,0,P|366:116|354:65,1,77.3999976379395,10|0,0:0|0:0,0:0:0:0:
292,245,229777,2,0,P|303:190|398:182,1,154.799995275879,10|0,0:0|0:0,0:0:0:0:
488,31,230261,6,0,P|472:77|461:122,1,77.3999976379395,6|8,1:2|0:0,0:0:0:0:
464,104,230503,1,8,0:0:0:0:
464,104,230583,1,0,1:2:0:0:
460,227,230745,2,0,L|510:224,2,38.6999988189698,8|8|0,0:0|0:0|1:2,0:0:0:0:
447,330,231067,1,8,0:0:0:0:
317,347,231229,2,0,P|271:334|211:334,1,77.3999976379395,2|8,1:2|0:0,0:0:0:0:
241,331,231471,1,8,0:0:0:0:
241,331,231551,5,2,1:2:0:0:
120,277,231713,1,8,0:0:0:0:
62,378,231874,2,0,P|44:312|28:277,1,77.3999976379395,2|8,1:2|0:0,0:0:0:0:
130,169,232196,1,2,1:2:0:0:
162,158,232276,1,8,0:0:0:0:
192,142,232357,1,8,0:0:0:0:
219,123,232437,1,8,0:0:0:0:
244,100,232519,2,0,L|242:48,3,38.6999988189698,2|8|8|8,1:2|0:0|0:0|0:0,0:0:0:0:
385,201,232842,5,2,1:2:0:0:
308,158,233003,2,0,P|330:111|338:74,1,77.3999976379395,8|8,0:0|0:0,0:0:0:0:
386,289,233325,2,0,P|334:293|298:305,1,77.3999976379395,10|8,0:0|0:0,0:0:0:0:
460,155,233648,2,0,P|489:197|517:222,1,77.3999976379395,10|8,0:0|0:0,0:0:0:0:
385,201,233971,1,10,0:0:0:0:
478,307,234132,6,0,L|470:361,1,38.6999988189698,0|0,3:0|0:0,0:0:0:0:
461,354,234293,2,0,L|410:374,1,38.6999988189698,0|0,3:0|0:0,0:0:0:0:
411,362,234454,2,0,L|368:328,1,38.6999988189698,2|0,3:0|0:0,0:0:0:0:
369,346,234616,2,0,L|318:366,1,38.6999988189698,0|0,3:0|0:0,0:0:0:0:
243,349,234777,6,0,P|231:312|215:283,1,38.6999988189698,2|0,3:0|0:0,0:0:0:0:
240,268,234938,2,0,P|211:241|182:224,1,38.6999988189698,0|0,3:0|0:0,0:0:0:0:
196,202,235100,2,0,P|157:193|124:193,1,38.6999988189698,2|0,3:0|0:0,0:0:0:0:
121,161,235261,2,0,P|83:173|54:189,1,38.6999988189698,0|0,3:0|0:0,0:0:0:0:
35,244,235422,6,0,L|20:329,1,77.3999976379395,2|0,0:0|0:0,0:0:0:0:
31,332,235745,6,0,B|113:322|85:393|171:379,1,154.799995275879,14|0,0:0|0:0,0:0:0:0:
176,369,236067,2,0,P|238:351|304:346,1,103.199996850586,0|0,1:2|1:2,0:0:0:0:
451,283,236390,1,10,0:0:0:0:
386,373,236551,1,2,0:0:0:0:
282,235,236713,6,0,P|265:182|244:128,1,103.199996850586,2|0,1:2|1:2,0:0:0:0:
452,174,237035,2,0,P|397:162|340:153,1,103.199996850586,10|0,0:0|1:2,0:0:0:0:
511,0,237358,2,0,P|470:48|319:40,1,206.399993701172,2|8,0:0|0:0,0:0:0:0:
151,111,237842,1,2,0:0:0:0:
241,1,238003,6,0,B|225:95|225:95|229:103|229:103|208:224,1,206.399993701172,2|8,1:2|0:0,0:0:0:0:
119,340,238487,1,0,3:0:0:0:
36,219,238648,2,0,P|92:241|169:256,1,103.199996850586,0|0,1:2|1:2,0:0:0:0:
301,215,238971,1,10,0:0:0:0:
274,113,239132,1,2,0:0:0:0:
226,298,239293,5,14,0:0:0:0:
401,220,239454,1,8,0:0:0:0:
443,209,239534,1,8,0:0:0:0:
482,230,239615,1,8,0:0:0:0:
497,271,239695,1,8,0:0:0:0:
481,312,239777,2,0,B|431:320|376:302|376:302|410:330|419:367,1,154.799995275879,10|0,0:0|0:0,0:0:0:0:
226,298,240100,2,0,P|285:263|263:153,1,154.799995275879,10|0,0:0|0:0,0:0:0:0:
289,183,240422,1,10,0:0:0:0:
193,45,240583,6,0,P|122:65|70:75,1,103.199996850586,6|0,1:2|1:2,0:0:0:0:
23,201,240906,2,0,P|44:273|54:340,1,103.199996850586,8|0,0:0|0:0,0:0:0:0:
227,372,241229,2,0,P|206:300|196:233,1,103.199996850586,8|0,0:0|1:2,0:0:0:0:
293,86,241551,5,10,0:0:0:0:
470,23,241713,1,0,1:2:0:0:
294,99,241874,5,10,0:0:0:0:
452,105,242035,1,0,1:2:0:0:
290,111,242196,5,10,0:0:0:0:
400,172,242358,1,0,1:2:0:0:
283,121,242519,5,10,0:0:0:0:
320,199,242680,1,0,1:2:0:0:
273,128,242842,5,10,0:0:0:0:
234,248,243003,1,8,0:0:0:0:
234,248,243083,1,8,0:0:0:0:
234,248,243164,2,0,P|179:223|61:210,1,154.799995275879,2|0,1:2|0:0,0:0:0:0:
86,208,243487,1,2,0:0:0:0:
51,363,243648,2,0,P|98:343|148:330,1,103.199996850586,2|8,1:2|0:0,0:0:0:0:
266,345,243971,2,0,P|246:297|233:247,1,103.199996850586,2|0,1:2|0:0,0:0:0:0:
374,54,244293,6,0,P|338:132|312:239,1,154.799995275879,6|0,1:2|0:0,0:0:0:0:
333,207,244616,2,0,L|404:195,1,51.599998425293,8|0,0:3|0:0,0:0:0:0:
395,311,244777,2,0,L|450:265,1,51.599998425293,8|0,0:3|0:0,0:0:0:0:
462,384,244938,2,0,L|533:372,1,51.599998425293,8|0,0:3|0:0,0:0:0:0:
512,375,245261,5,2,0:0:0:0:
434,278,245422,1,2,0:0:0:0:
481,149,245583,1,2,0:0:0:0:
403,52,245744,1,14,0:0:0:0:
319,198,245906,6,0,P|238:183|177:179,1,103.199996850586,2|0,0:0|1:2,0:0:0:0:
50,20,246229,2,0,P|131:35|192:39,1,103.199996850586,2|0,0:0|1:2,0:0:0:0:
79,232,246551,5,8,0:0:0:0:
107,123,246713,1,2,0:0:0:0:
319,198,246874,1,14,0:0:0:0:
256,192,246954,12,0,248164,0:0:0:0:
462,44,248325,6,0,P|375:28|272:19,1,154.799995275879,6|0,1:2|0:0,0:0:0:0:
309,21,248648,1,8,0:0:0:0:
383,133,248809,6,0,P|306:176|221:235,1,154.799995275879,6|0,1:2|0:0,0:0:0:0:
251,213,249132,1,8,0:0:0:0:
417,238,249293,6,0,P|386:320|359:420,1,154.799995275879,6|0,1:2|0:0,0:0:0:0:
367,384,249616,1,8,0:0:0:0:
217,309,249777,6,0,P|157:329|109:357,1,103.199996850586,8|4,0:3|0:3,0:0:0:0:
33,272,250100,1,2,1:2:0:0:
33,272,250180,1,2,1:2:0:0:
33,272,250261,2,0,P|11:201|-8:158,1,103.199996850586,10|8,0:0|0:3,0:0:0:0:
92,2,250583,2,0,P|114:73|133:116,1,103.199996850586,6|4,0:3|0:3,0:0:0:0:
285,54,250906,6,0,P|372:54|462:118,1,154.799995275879,14|0,0:0|0:0,0:0:0:0:
430,84,251229,1,0,1:2:0:0:
190,172,251390,6,0,P|265:215|311:315,1,154.799995275879,10|0,0:0|0:0,0:0:0:0:
300,270,251713,5,8,0:0:0:0:
425,226,251874,1,2,0:0:0:0:
285,54,252035,1,10,0:0:0:0:
0,174,253487,6,0,B|80:178|49:248|154:227,1,142.545005492037,6|0,1:2|0:0,0:0:0:0:
137,240,253809,2,0,P|199:225|252:214,1,95.030003661358,8|0,0:0|0:0,0:0:0:0:
356,231,254132,2,0,P|312:184|275:144,1,95.030003661358,0|0,1:2|0:0,0:0:0:0:
239,46,254454,2,0,P|220:107|204:158,1,95.030003661358,8|0,0:0|1:2,0:0:0:0:
211,136,254696,1,8,0:0:0:0:
211,136,254777,6,0,P|151:113|154:40,1,142.545005492037,2|0,1:2|0:0,0:0:0:0:
151,43,255100,1,8,0:0:0:0:
361,38,255342,1,8,0:0:0:0:
361,38,255422,2,0,P|431:56|408:144,1,142.545005492037,0|0,1:2|0:0,0:0:0:0:
426,119,255745,2,0,P|414:167|408:220,1,95.030003661358,8|0,0:0|0:0,0:0:0:0:
507,316,256067,6,0,P|456:283|325:238,2,190.060007322716,0|8|0,1:2|0:0|1:2,0:0:0:0:
161,291,257035,2,0,P|105:306|50:327,1,95.030003661358,8|0,0:0|0:0,0:0:0:0:
233,368,257358,6,0,P|245:266|267:160,1,190.060007322716,0|8,1:2|0:0,0:0:0:0:
119,172,257842,1,0,1:2:0:0:
119,172,257922,1,8,0:0:0:0:
119,172,258003,2,0,P|27:148|59:52,1,190.060007322716,0|8,1:2|0:0,0:0:0:0:
283,51,258567,5,8,0:0:0:0:
283,51,258648,2,0,B|360:52|319:114|400:114,1,142.545005492037,0|0,1:2|0:0,0:0:0:0:
413,113,258971,2,0,P|395:164|380:237,1,95.030003661358,8|0,0:0|0:0,0:0:0:0:
369,355,259293,2,0,P|333:313|278:264,1,95.030003661358,0|0,1:2|0:0,0:0:0:0:
491,189,259616,2,0,P|473:240|458:313,1,95.030003661358,8|0,0:0|0:0,0:0:0:0:
258,218,259938,6,0,P|193:205|198:107,1,142.545005492037,0|0,1:2|0:0,0:0:0:0:
185,129,260261,2,0,P|254:114|316:114,1,95.030003661358,8|0,0:0|0:0,0:0:0:0:
109,11,260583,2,0,P|178:26|240:26,1,95.030003661358,0|0,1:2|0:0,0:0:0:0:
9,128,260906,2,0,P|78:113|140:113,1,95.030003661358,8|0,0:0|0:0,0:0:0:0:
79,267,261229,6,0,P|139:289|201:358,1,142.545005492037,10|0,1:2|0:0,0:0:0:0:
193,344,261551,1,8,1:2:0:0:
269,231,261713,2,0,P|298:267|309:312,1,95.030003661358,2|8,0:0|1:2,0:0:0:0:
428,279,262035,1,8,0:0:0:0:
428,302,262116,1,8,0:0:0:0:
424,325,262196,1,8,1:2:0:0:
365,211,262358,5,8,0:0:0:0:
365,211,262519,1,0,1:2:0:0:
491,158,262680,5,8,0:0:0:0:
491,158,262842,1,0,1:2:0:0:
317,66,263003,5,8,0:0:0:0:
317,66,263164,1,0,1:2:0:0:
496,6,263325,5,8,0:0:0:0:
495,15,263406,1,8,0:0:0:0:
494,24,263487,1,8,0:0:0:0:
310,20,263648,5,8,0:3:0:0:
313,43,263728,1,4,0:3:0:0:
317,66,263809,1,6,1:2:0:0:
278,43,263889,1,2,0:0:0:0:
235,31,263970,1,2,0:0:0:0:
191,31,264050,1,2,0:0:0:0:
148,43,264132,2,0,L|167:102,3,47.515001830679,10|2|2|2,0:0|0:0|0:0|0:0,0:0:0:0:
28,158,264454,5,2,1:2:0:0:
63,154,264534,1,2,0:0:0:0:
97,162,264615,1,2,0:0:0:0:
128,180,264695,1,2,0:0:0:0:
151,207,264777,2,0,L|136:266,3,47.515001830679,10|2|2|2,0:0|0:0|0:0|0:0,0:0:0:0:
279,285,265100,5,2,1:2:0:0:
253,287,265180,1,2,0:0:0:0:
229,297,265261,1,2,0:0:0:0:
210,313,265341,1,2,0:0:0:0:
195,334,265422,2,0,L|207:401,3,47.515001830679,10|2|2|10,0:0|0:0|0:0|0:0,0:0:0:0:
71,298,265745,5,2,1:2:0:0:
53,295,265825,1,2,0:0:0:0:
35,292,265906,1,2,0:0:0:0:
18,290,265986,1,2,0:0:0:0:
1,288,266067,1,10,0:0:0:0:
47,276,266147,1,2,0:0:0:0:
93,264,266228,1,2,0:0:0:0:
139,253,266308,1,2,0:0:0:0:
185,241,266390,6,0,P|228:200|200:112,1,142.545005492037,2|0,1:2|0:0,0:0:0:0:
203,115,266713,2,0,P|150:127|102:131,1,95.030003661358,8|0,0:0|0:0,0:0:0:0:
346,2,267035,6,0,P|303:43|331:131,1,142.545005492037,0|0,1:2|0:0,0:0:0:0:
328,128,267358,2,0,P|380:115|429:112,1,95.030003661358,8|0,0:0|0:0,0:0:0:0:
458,289,267680,6,0,P|512:238|453:162,1,142.545005492037,0|0,1:2|0:0,0:0:0:0:
493,180,268003,1,8,0:0:0:0:
352,325,268245,1,8,0:0:0:0:
352,325,268325,2,0,P|281:306|147:284,1,190.060007322716,0|8,1:2|0:0,0:0:0:0:
12,69,268890,5,8,0:0:0:0:
12,69,268971,2,0,P|105:50|168:24,1,137.6,14|0,0:0|0:0,0:0:0:0:
226,87,269454,2,0,L|272:97,2,34.4,10|2|2,0:3|0:0|0:0,0:0:0:0:
161,148,269777,1,10,0:3:0:0:
208,217,269938,1,6,0:3:0:0:
153,377,270100,5,10,0:0:0:0:
83,307,270261,2,0,P|147:289|192:282,1,86,6|8,1:2|0:0,0:0:0:0:
285,183,270583,1,10,0:0:0:0:
339,248,270745,1,10,0:0:0:0:
336,258,270825,1,8,0:0:0:0:
333,268,270906,1,10,0:0:0:0:
246,339,271067,5,10,0:0:0:0:
407,353,271229,1,10,0:0:0:0:
417,322,271309,1,8,0:0:0:0:
427,291,271390,1,10,0:0:0:0:
437,261,271470,1,8,0:0:0:0:
448,230,271551,6,0,P|452:162|347:132,1,172,14|0,0:0|1:2,0:0:0:0:
238,9,272035,2,0,P|286:34|342:39,1,86,8|0,0:0|0:0,0:0:0:0:
188,121,272358,1,8,0:3:0:0:
188,121,272519,1,4,0:3:0:0:
43,144,272680,6,0,B|120:94|100:-11|100:-11|50:5|-7:58|-28:152|-2:214|66:261|128:272|191:257|289:205|321:103|328:51|328:51|221:61|131:141|89:234|100:348|230:426|385:412|492:314|492:314|376:228|242:251|181:329,1,1879.35796988944,6|0,1:2|0:0,0:0:0:0:
